  0
SECTION
  2
HEADER
  9
$ACADVER
  1
AC1009
  9
$DWGCODEPAGE
  3
ansi_1252
  9
$INSBASE
 10
0.0
 20
0.0
 30
0.0
  9
$EXTMIN
 10
153.4219640136597
 20
906.5617670977663
 30
0.0
  9
$EXTMAX
 10
2994.668434414125
 20
1883.758485216712
 30
0.0
  9
$LIMMIN
 10
0.0
 20
0.0
  9
$LIMMAX
 10
420.0
 20
297.0
  9
$ORTHOMODE
 70
     0
  9
$REGENMODE
 70
     1
  9
$FILLMODE
 70
     1
  9
$QTEXTMODE
 70
     0
  9
$MIRRTEXT
 70
     0
  9
$DRAGMODE
 70
     2
  9
$LTSCALE
 40
1.0
  9
$OSMODE
 70
    37
  9
$ATTMODE
 70
     1
  9
$TEXTSIZE
 40
10.0
  9
$TRACEWID
 40
1.0
  9
$TEXTSTYLE
  7
STANDARD
  9
$CLAYER
  8
0
  9
$CELTYPE
  6
BYLAYER
  9
$CECOLOR
 62
     1
  9
$DIMSCALE
 40
1.0
  9
$DIMASZ
 40
2.5
  9
$DIMEXO
 40
10.0
  9
$DIMDLI
 40
10.0
  9
$DIMRND
 40
0.0
  9
$DIMDLE
 40
0.0
  9
$DIMEXE
 40
3.0
  9
$DIMTP
 40
0.0
  9
$DIMTM
 40
0.0
  9
$DIMTXT
 40
10.0
  9
$DIMCEN
 40
2.5
  9
$DIMTSZ
 40
0.0
  9
$DIMTOL
 70
     0
  9
$DIMLIM
 70
     0
  9
$DIMTIH
 70
     0
  9
$DIMTOH
 70
     0
  9
$DIMSE1
 70
     0
  9
$DIMSE2
 70
     0
  9
$DIMTAD
 70
     1
  9
$DIMZIN
 70
     8
  9
$DIMBLK
  1
OBLIQUE
  9
$DIMASO
 70
     1
  9
$DIMSHO
 70
     1
  9
$DIMPOST
  1

  9
$DIMAPOST
  1

  9
$DIMALT
 70
     0
  9
$DIMALTD
 70
     3
  9
$DIMALTF
 40
0.03937007874016
  9
$DIMLFAC
 40
1.0
  9
$DIMTOFL
 70
     1
  9
$DIMTVP
 40
0.0
  9
$DIMTIX
 70
     0
  9
$DIMSOXD
 70
     0
  9
$DIMSAH
 70
     0
  9
$DIMBLK1
  1

  9
$DIMBLK2
  1

  9
$DIMSTYLE
  2
ISO-25
  9
$DIMCLRD
 70
     2
  9
$DIMCLRE
 70
     2
  9
$DIMCLRT
 70
     2
  9
$DIMTFAC
 40
1.0
  9
$DIMGAP
 40
0.625
  9
$LUNITS
 70
     2
  9
$LUPREC
 70
     4
  9
$SKETCHINC
 40
1.0
  9
$FILLETRAD
 40
0.0
  9
$AUNITS
 70
     0
  9
$AUPREC
 70
     0
  9
$MENU
  1
.
  9
$ELEVATION
 40
0.0
  9
$PELEVATION
 40
0.0
  9
$THICKNESS
 40
0.0
  9
$LIMCHECK
 70
     0
  9
$CHAMFERA
 40
0.0
  9
$CHAMFERB
 40
0.0
  9
$SKPOLY
 70
     0
  9
$TDCREATE
 40
2455257.037028831
  9
$TDUPDATE
 40
2457003.801604155
  9
$TDINDWG
 40
0.1823795602
  9
$TDUSRTIMER
 40
0.1823790162
  9
$USRTIMER
 70
     1
  9
$ANGBASE
 50
0.0
  9
$ANGDIR
 70
     0
  9
$PDMODE
 70
     0
  9
$PDSIZE
 40
0.0
  9
$PLINEWID
 40
0.0
  9
$COORDS
 70
     1
  9
$SPLFRAME
 70
     0
  9
$SPLINETYPE
 70
     6
  9
$SPLINESEGS
 70
     8
  9
$ATTDIA
 70
     0
  9
$ATTREQ
 70
     1
  9
$HANDLING
 70
     1
  9
$HANDSEED
  5
17DA
  9
$SURFTAB1
 70
     6
  9
$SURFTAB2
 70
     6
  9
$SURFTYPE
 70
     6
  9
$SURFU
 70
     6
  9
$SURFV
 70
     6
  9
$UCSNAME
  2

  9
$UCSORG
 10
0.0
 20
0.0
 30
0.0
  9
$UCSXDIR
 10
1.0
 20
0.0
 30
0.0
  9
$UCSYDIR
 10
0.0
 20
1.0
 30
0.0
  9
$PUCSNAME
  2

  9
$PUCSORG
 10
0.0
 20
0.0
 30
0.0
  9
$PUCSXDIR
 10
1.0
 20
0.0
 30
0.0
  9
$PUCSYDIR
 10
0.0
 20
1.0
 30
0.0
  9
$USERI1
 70
     0
  9
$USERI2
 70
     0
  9
$USERI3
 70
     0
  9
$USERI4
 70
     0
  9
$USERI5
 70
     0
  9
$USERR1
 40
0.0
  9
$USERR2
 40
0.0
  9
$USERR3
 40
0.0
  9
$USERR4
 40
0.0
  9
$USERR5
 40
0.0
  9
$WORLDVIEW
 70
     1
  9
$SHADEDGE
 70
     3
  9
$SHADEDIF
 70
    70
  9
$TILEMODE
 70
     1
  9
$MAXACTVP
 70
    64
  9
$PLIMCHECK
 70
     0
  9
$PEXTMIN
 10
0.0
 20
0.0
 30
0.0
  9
$PEXTMAX
 10
0.0
 20
0.0
 30
0.0
  9
$PLIMMIN
 10
0.0
 20
0.0
  9
$PLIMMAX
 10
12.0
 20
9.0
  9
$UNITMODE
 70
     0
  9
$VISRETAIN
 70
     1
  9
$PLINEGEN
 70
     0
  9
$PSLTSCALE
 70
     1
  0
ENDSEC
  0
SECTION
  2
TABLES
  0
TABLE
  2
VPORT
 70
     1
  0
VPORT
  2
*ACTIVE
 70
     0
 10
0.0
 20
0.0
 11
1.0
 21
1.0
 12
945.0066358173012
 22
1546.4096959364
 13
0.0
 23
0.0
 14
10.0
 24
10.0
 15
10.0
 25
10.0
 16
0.0
 26
0.0
 36
1.0
 17
0.0
 27
0.0
 37
0.0
 40
952.6916320354412
 41
2.01865671641791
 42
50.0
 43
0.0
 44
0.0
 50
0.0
 51
0.0
 71
     0
 72
  1000
 73
     1
 74
     3
 75
     0
 76
     0
 77
     0
 78
     0
  0
ENDTAB
  0
TABLE
  2
LTYPE
 70
     1
  0
LTYPE
  2
CONTINUOUS
 70
     0
  3
Solid line
 72
    65
 73
     0
 40
0.0
  0
ENDTAB
  0
TABLE
  2
LAYER
 70
     2
  0
LAYER
  2
0
 70
     0
 62
     7
  6
CONTINUOUS
  0
LAYER
  2
DEFPOINTS
 70
     0
 62
     7
  6
CONTINUOUS
  0
ENDTAB
  0
TABLE
  2
STYLE
 70
     2
  0
STYLE
  2
STANDARD
 70
     0
 40
10.0
 41
1.0
 50
0.0
 71
     0
 42
10.0
  3
arial.ttf
  4

  0
STYLE
  2
SLDTEXTSTYLE0
 70
     0
 40
0.0
 41
0.75
 50
0.0
 71
     0
 42
0.2
  3
TXT
  4

  0
ENDTAB
  0
TABLE
  2
VIEW
 70
     0
  0
ENDTAB
  0
TABLE
  2
UCS
 70
     0
  0
ENDTAB
  0
TABLE
  2
APPID
 70
     3
  0
APPID
  2
ACAD
 70
     0
  0
APPID
  2
ACAD_PSEXT
 70
     0
  0
APPID
  2
ACAD_EXEMPT_FROM_CAD_STAND
 70
     0
  0
ENDTAB
  0
TABLE
  2
DIMSTYLE
 70
     2
  0
DIMSTYLE
  2
ISO-25
 70
     0
  3

  4

  5
OBLIQUE
  6

  7

 40
1.0
 41
2.5
 42
10.0
 43
10.0
 44
3.0
 45
0.0
 46
0.0
 47
0.0
 48
0.0
140
10.0
141
2.5
142
0.0
143
0.03937007874016
144
1.0
145
0.0
146
1.0
147
0.625
 71
     0
 72
     0
 73
     0
 74
     0
 75
     0
 76
     0
 77
     1
 78
     8
170
     0
171
     3
172
     1
173
     0
174
     0
175
     0
176
     2
177
     2
178
     2
  0
DIMSTYLE
  2
STANDARD
 70
     0
  3

  4

  5

  6

  7

 40
1.0
 41
0.18
 42
0.0625
 43
0.38
 44
0.18
 45
0.0
 46
0.0
 47
0.0
 48
0.0
140
0.18
141
0.09
142
0.0
143
25.4
144
1.0
145
0.0
146
1.0
147
0.09
 71
     0
 72
     0
 73
     1
 74
     1
 75
     0
 76
     0
 77
     0
 78
     0
170
     0
171
     2
172
     0
173
     0
174
     0
175
     0
176
     0
177
     0
178
     0
  0
ENDTAB
  0
ENDSEC
  0
SECTION
  2
BLOCKS
  0
BLOCK
  8
0
  2
$MODEL_SPACE
 70
     0
 10
0.0
 20
0.0
 30
0.0
  3
$MODEL_SPACE
  1

  0
ENDBLK
  5
21
  8
0
  0
BLOCK
 67
     1
  8
0
  2
$PAPER_SPACE
 70
     0
 10
0.0
 20
0.0
 30
0.0
  3
$PAPER_SPACE
  1

  0
ENDBLK
  5
D5
 67
     1
  8
0
  0
BLOCK
  8
0
  2
SW_CENTERMARKSYMBOL_0
 70
     0
 10
0.0
 20
0.0
 30
0.0
  3
SW_CENTERMARKSYMBOL_0
  1

  0
LINE
  5
111
  8
0
  6
CONTINUOUS
 62
     0
 10
0.0
 20
0.0
 30
0.0
 11
-0.1
 21
0.0
 31
0.0
  0
LINE
  5
112
  8
0
  6
CONTINUOUS
 62
     0
 10
0.0
 20
0.0
 30
0.0
 11
0.0
 21
-0.1
 31
0.0
  0
LINE
  5
113
  8
0
  6
CONTINUOUS
 62
     0
 10
0.0
 20
0.0
 30
0.0
 11
0.1
 21
0.0
 31
0.0
  0
LINE
  5
114
  8
0
  6
CONTINUOUS
 62
     0
 10
0.0
 20
0.0
 30
0.0
 11
0.0
 21
0.1
 31
0.0
  0
LINE
  5
115
  8
0
  6
CONTINUOUS
 62
     0
 10
-0.1
 20
0.0
 30
0.0
 11
-0.1625
 21
0.0
 31
0.0
  0
LINE
  5
116
  8
0
  6
CONTINUOUS
 62
     0
 10
0.0
 20
-0.1
 30
0.0
 11
0.0
 21
-0.1625
 31
0.0
  0
LINE
  5
117
  8
0
  6
CONTINUOUS
 62
     0
 10
0.1
 20
0.0
 30
0.0
 11
0.1625
 21
0.0
 31
0.0
  0
LINE
  5
118
  8
0
  6
CONTINUOUS
 62
     0
 10
0.0
 20
0.1
 30
0.0
 11
0.0
 21
0.1625
 31
0.0
  0
ENDBLK
  5
119
  8
0
  0
BLOCK
  8
0
  2
SW_CENTERMARKSYMBOL_1
 70
     0
 10
0.0
 20
0.0
 30
0.0
  3
SW_CENTERMARKSYMBOL_1
  1

  0
LINE
  5
11C
  8
0
  6
CONTINUOUS
 62
     0
 10
0.0
 20
0.0
 30
0.0
 11
-0.1
 21
0.0
 31
0.0
  0
LINE
  5
11D
  8
0
  6
CONTINUOUS
 62
     0
 10
0.0
 20
0.0
 30
0.0
 11
0.0
 21
-0.1
 31
0.0
  0
LINE
  5
11E
  8
0
  6
CONTINUOUS
 62
     0
 10
0.0
 20
0.0
 30
0.0
 11
0.1
 21
0.0
 31
0.0
  0
LINE
  5
11F
  8
0
  6
CONTINUOUS
 62
     0
 10
0.0
 20
0.0
 30
0.0
 11
0.0
 21
0.1
 31
0.0
  0
LINE
  5
120
  8
0
  6
CONTINUOUS
 62
     0
 10
-0.1
 20
0.0
 30
0.0
 11
-0.1625
 21
0.0
 31
0.0
  0
LINE
  5
121
  8
0
  6
CONTINUOUS
 62
     0
 10
0.0
 20
-0.1
 30
0.0
 11
0.0
 21
-0.1625
 31
0.0
  0
LINE
  5
122
  8
0
  6
CONTINUOUS
 62
     0
 10
0.1
 20
0.0
 30
0.0
 11
0.1625
 21
0.0
 31
0.0
  0
LINE
  5
123
  8
0
  6
CONTINUOUS
 62
     0
 10
0.0
 20
0.1
 30
0.0
 11
0.0
 21
0.1625
 31
0.0
  0
ENDBLK
  5
124
  8
0
  0
BLOCK
  8
0
  2
SW_CENTERMARKSYMBOL_2
 70
     0
 10
0.0
 20
0.0
 30
0.0
  3
SW_CENTERMARKSYMBOL_2
  1

  0
LINE
  5
127
  8
0
  6
CONTINUOUS
 62
     0
 10
0.0
 20
0.0
 30
0.0
 11
0.0
 21
0.1
 31
0.0
  0
LINE
  5
128
  8
0
  6
CONTINUOUS
 62
     0
 10
0.0
 20
0.0
 30
0.0
 11
-0.1
 21
0.0
 31
0.0
  0
LINE
  5
129
  8
0
  6
CONTINUOUS
 62
     0
 10
0.0
 20
0.0
 30
0.0
 11
0.0
 21
-0.1
 31
0.0
  0
LINE
  5
12A
  8
0
  6
CONTINUOUS
 62
     0
 10
0.0
 20
0.0
 30
0.0
 11
0.1
 21
0.0
 31
0.0
  0
LINE
  5
12B
  8
0
  6
CONTINUOUS
 62
     0
 10
0.0
 20
0.2
 30
0.0
 11
0.0
 21
0.4125
 31
0.0
  0
LINE
  5
12C
  8
0
  6
CONTINUOUS
 62
     0
 10
-0.2
 20
0.0
 30
0.0
 11
-0.4125
 21
0.0
 31
0.0
  0
LINE
  5
12D
  8
0
  6
CONTINUOUS
 62
     0
 10
0.0
 20
-0.2
 30
0.0
 11
0.0
 21
-0.4125
 31
0.0
  0
LINE
  5
12E
  8
0
  6
CONTINUOUS
 62
     0
 10
0.2
 20
0.0
 30
0.0
 11
0.4125
 21
0.0
 31
0.0
  0
ENDBLK
  5
12F
  8
0
  0
BLOCK
  8
0
  2
SW_CENTERMARKSYMBOL_3
 70
     0
 10
0.0
 20
0.0
 30
0.0
  3
SW_CENTERMARKSYMBOL_3
  1

  0
LINE
  5
132
  8
0
  6
CONTINUOUS
 62
     0
 10
0.0
 20
0.0
 30
0.0
 11
0.0
 21
0.1
 31
0.0
  0
LINE
  5
133
  8
0
  6
CONTINUOUS
 62
     0
 10
0.0
 20
0.0
 30
0.0
 11
-0.1
 21
0.0
 31
0.0
  0
LINE
  5
134
  8
0
  6
CONTINUOUS
 62
     0
 10
0.0
 20
0.0
 30
0.0
 11
0.0
 21
-0.1
 31
0.0
  0
LINE
  5
135
  8
0
  6
CONTINUOUS
 62
     0
 10
0.0
 20
0.0
 30
0.0
 11
0.1
 21
0.0
 31
0.0
  0
LINE
  5
136
  8
0
  6
CONTINUOUS
 62
     0
 10
0.0
 20
0.2
 30
0.0
 11
0.0
 21
0.4125
 31
0.0
  0
LINE
  5
137
  8
0
  6
CONTINUOUS
 62
     0
 10
-0.2
 20
0.0
 30
0.0
 11
-0.4125
 21
0.0
 31
0.0
  0
LINE
  5
138
  8
0
  6
CONTINUOUS
 62
     0
 10
0.0
 20
-0.2
 30
0.0
 11
0.0
 21
-0.4125
 31
0.0
  0
LINE
  5
139
  8
0
  6
CONTINUOUS
 62
     0
 10
0.2
 20
0.0
 30
0.0
 11
0.4125
 21
0.0
 31
0.0
  0
ENDBLK
  5
13A
  8
0
  0
BLOCK
  8
0
  2
SW_CENTERMARKSYMBOL_4
 70
     0
 10
0.0
 20
0.0
 30
0.0
  3
SW_CENTERMARKSYMBOL_4
  1

  0
LINE
  5
13D
  8
0
  6
CONTINUOUS
 62
     0
 10
0.0
 20
0.0
 30
0.0
 11
-0.1
 21
0.0
 31
0.0
  0
LINE
  5
13E
  8
0
  6
CONTINUOUS
 62
     0
 10
0.0
 20
0.0
 30
0.0
 11
0.0
 21
-0.1
 31
0.0
  0
LINE
  5
13F
  8
0
  6
CONTINUOUS
 62
     0
 10
0.0
 20
0.0
 30
0.0
 11
0.1
 21
0.0
 31
0.0
  0
LINE
  5
140
  8
0
  6
CONTINUOUS
 62
     0
 10
0.0
 20
0.0
 30
0.0
 11
0.0
 21
0.1
 31
0.0
  0
LINE
  5
141
  8
0
  6
CONTINUOUS
 62
     0
 10
-0.1
 20
0.0
 30
0.0
 11
-0.1625
 21
0.0
 31
0.0
  0
LINE
  5
142
  8
0
  6
CONTINUOUS
 62
     0
 10
0.0
 20
-0.1
 30
0.0
 11
0.0
 21
-0.1625
 31
0.0
  0
LINE
  5
143
  8
0
  6
CONTINUOUS
 62
     0
 10
0.1
 20
0.0
 30
0.0
 11
0.1625
 21
0.0
 31
0.0
  0
LINE
  5
144
  8
0
  6
CONTINUOUS
 62
     0
 10
0.0
 20
0.1
 30
0.0
 11
0.0
 21
0.1625
 31
0.0
  0
ENDBLK
  5
145
  8
0
  0
BLOCK
  8
0
  2
SW_CENTERMARKSYMBOL_5
 70
     0
 10
0.0
 20
0.0
 30
0.0
  3
SW_CENTERMARKSYMBOL_5
  1

  0
LINE
  5
148
  8
0
  6
CONTINUOUS
 62
     0
 10
0.0
 20
0.0
 30
0.0
 11
-0.1
 21
0.0
 31
0.0
  0
LINE
  5
149
  8
0
  6
CONTINUOUS
 62
     0
 10
0.0
 20
0.0
 30
0.0
 11
0.0
 21
-0.1
 31
0.0
  0
LINE
  5
14A
  8
0
  6
CONTINUOUS
 62
     0
 10
0.0
 20
0.0
 30
0.0
 11
0.1
 21
0.0
 31
0.0
  0
LINE
  5
14B
  8
0
  6
CONTINUOUS
 62
     0
 10
0.0
 20
0.0
 30
0.0
 11
0.0
 21
0.1
 31
0.0
  0
LINE
  5
14C
  8
0
  6
CONTINUOUS
 62
     0
 10
-0.1
 20
0.0
 30
0.0
 11
-0.1625
 21
0.0
 31
0.0
  0
LINE
  5
14D
  8
0
  6
CONTINUOUS
 62
     0
 10
0.0
 20
-0.1
 30
0.0
 11
0.0
 21
-0.1625
 31
0.0
  0
LINE
  5
14E
  8
0
  6
CONTINUOUS
 62
     0
 10
0.1
 20
0.0
 30
0.0
 11
0.1625
 21
0.0
 31
0.0
  0
LINE
  5
14F
  8
0
  6
CONTINUOUS
 62
     0
 10
0.0
 20
0.1
 30
0.0
 11
0.0
 21
0.1625
 31
0.0
  0
ENDBLK
  5
150
  8
0
  0
BLOCK
  8
0
  2
SW_CENTERMARKSYMBOL_6
 70
     0
 10
0.0
 20
0.0
 30
0.0
  3
SW_CENTERMARKSYMBOL_6
  1

  0
LINE
  5
153
  8
0
  6
CONTINUOUS
 62
     0
 10
0.0
 20
0.0
 30
0.0
 11
0.0
 21
0.1
 31
0.0
  0
LINE
  5
154
  8
0
  6
CONTINUOUS
 62
     0
 10
0.0
 20
0.0
 30
0.0
 11
-0.1
 21
0.0
 31
0.0
  0
LINE
  5
155
  8
0
  6
CONTINUOUS
 62
     0
 10
0.0
 20
0.0
 30
0.0
 11
0.0
 21
-0.1
 31
0.0
  0
LINE
  5
156
  8
0
  6
CONTINUOUS
 62
     0
 10
0.0
 20
0.0
 30
0.0
 11
0.1
 21
0.0
 31
0.0
  0
LINE
  5
157
  8
0
  6
CONTINUOUS
 62
     0
 10
0.0
 20
0.1
 30
0.0
 11
0.0
 21
0.1625
 31
0.0
  0
LINE
  5
158
  8
0
  6
CONTINUOUS
 62
     0
 10
-0.1
 20
0.0
 30
0.0
 11
-0.1625
 21
0.0
 31
0.0
  0
LINE
  5
159
  8
0
  6
CONTINUOUS
 62
     0
 10
0.0
 20
-0.1
 30
0.0
 11
0.0
 21
-0.1625
 31
0.0
  0
LINE
  5
15A
  8
0
  6
CONTINUOUS
 62
     0
 10
0.1
 20
0.0
 30
0.0
 11
0.1625
 21
0.0
 31
0.0
  0
ENDBLK
  5
15B
  8
0
  0
BLOCK
  8
0
  2
SW_CENTERMARKSYMBOL_7
 70
     0
 10
0.0
 20
0.0
 30
0.0
  3
SW_CENTERMARKSYMBOL_7
  1

  0
LINE
  5
15E
  8
0
  6
CONTINUOUS
 62
     0
 10
0.0
 20
0.0
 30
0.0
 11
0.0
 21
0.1
 31
0.0
  0
LINE
  5
15F
  8
0
  6
CONTINUOUS
 62
     0
 10
0.0
 20
0.0
 30
0.0
 11
-0.1
 21
0.0
 31
0.0
  0
LINE
  5
160
  8
0
  6
CONTINUOUS
 62
     0
 10
0.0
 20
0.0
 30
0.0
 11
0.0
 21
-0.1
 31
0.0
  0
LINE
  5
161
  8
0
  6
CONTINUOUS
 62
     0
 10
0.0
 20
0.0
 30
0.0
 11
0.1
 21
0.0
 31
0.0
  0
LINE
  5
162
  8
0
  6
CONTINUOUS
 62
     0
 10
0.0
 20
0.2
 30
0.0
 11
0.0
 21
0.225
 31
0.0
  0
LINE
  5
163
  8
0
  6
CONTINUOUS
 62
     0
 10
-0.2
 20
0.0
 30
0.0
 11
-0.225
 21
0.0
 31
0.0
  0
LINE
  5
164
  8
0
  6
CONTINUOUS
 62
     0
 10
0.0
 20
-0.2
 30
0.0
 11
0.0
 21
-0.225
 31
0.0
  0
LINE
  5
165
  8
0
  6
CONTINUOUS
 62
     0
 10
0.2
 20
0.0
 30
0.0
 11
0.225
 21
0.0
 31
0.0
  0
ENDBLK
  5
166
  8
0
  0
BLOCK
  8
0
  2
SW_CENTERMARKSYMBOL_8
 70
     0
 10
0.0
 20
0.0
 30
0.0
  3
SW_CENTERMARKSYMBOL_8
  1

  0
LINE
  5
169
  8
0
  6
CONTINUOUS
 62
     0
 10
0.0
 20
0.0
 30
0.0
 11
0.0
 21
0.1
 31
0.0
  0
LINE
  5
16A
  8
0
  6
CONTINUOUS
 62
     0
 10
0.0
 20
0.0
 30
0.0
 11
-0.1
 21
0.0
 31
0.0
  0
LINE
  5
16B
  8
0
  6
CONTINUOUS
 62
     0
 10
0.0
 20
0.0
 30
0.0
 11
0.0
 21
-0.1
 31
0.0
  0
LINE
  5
16C
  8
0
  6
CONTINUOUS
 62
     0
 10
0.0
 20
0.0
 30
0.0
 11
0.1
 21
0.0
 31
0.0
  0
LINE
  5
16D
  8
0
  6
CONTINUOUS
 62
     0
 10
0.0
 20
0.1
 30
0.0
 11
0.0
 21
0.1625
 31
0.0
  0
LINE
  5
16E
  8
0
  6
CONTINUOUS
 62
     0
 10
-0.1
 20
0.0
 30
0.0
 11
-0.1625
 21
0.0
 31
0.0
  0
LINE
  5
16F
  8
0
  6
CONTINUOUS
 62
     0
 10
0.0
 20
-0.1
 30
0.0
 11
0.0
 21
-0.1625
 31
0.0
  0
LINE
  5
170
  8
0
  6
CONTINUOUS
 62
     0
 10
0.1
 20
0.0
 30
0.0
 11
0.1625
 21
0.0
 31
0.0
  0
ENDBLK
  5
171
  8
0
  0
BLOCK
  8
0
  2
SW_CENTERMARKSYMBOL_9
 70
     0
 10
0.0
 20
0.0
 30
0.0
  3
SW_CENTERMARKSYMBOL_9
  1

  0
LINE
  5
174
  8
0
  6
CONTINUOUS
 62
     0
 10
0.0
 20
0.0
 30
0.0
 11
0.0
 21
0.1
 31
0.0
  0
LINE
  5
175
  8
0
  6
CONTINUOUS
 62
     0
 10
0.0
 20
0.0
 30
0.0
 11
-0.1
 21
0.0
 31
0.0
  0
LINE
  5
176
  8
0
  6
CONTINUOUS
 62
     0
 10
0.0
 20
0.0
 30
0.0
 11
0.0
 21
-0.1
 31
0.0
  0
LINE
  5
177
  8
0
  6
CONTINUOUS
 62
     0
 10
0.0
 20
0.0
 30
0.0
 11
0.1
 21
0.0
 31
0.0
  0
LINE
  5
178
  8
0
  6
CONTINUOUS
 62
     0
 10
0.0
 20
0.1
 30
0.0
 11
0.0
 21
0.1625
 31
0.0
  0
LINE
  5
179
  8
0
  6
CONTINUOUS
 62
     0
 10
-0.1
 20
0.0
 30
0.0
 11
-0.1625
 21
0.0
 31
0.0
  0
LINE
  5
17A
  8
0
  6
CONTINUOUS
 62
     0
 10
0.0
 20
-0.1
 30
0.0
 11
0.0
 21
-0.1625
 31
0.0
  0
LINE
  5
17B
  8
0
  6
CONTINUOUS
 62
     0
 10
0.1
 20
0.0
 30
0.0
 11
0.1625
 21
0.0
 31
0.0
  0
ENDBLK
  5
17C
  8
0
  0
BLOCK
  8
0
  2
A$C2D2773C4
 70
     0
 10
0.0
 20
0.0
 30
0.0
  3
A$C2D2773C4
  1

  0
LINE
  5
5DC
  8
0
  6
CONTINUOUS
 62
     7
 10
-0.0000000144139041
 20
11.58383533875397
 30
0.0
 11
4.262386347286096
 21
11.58383533875397
 31
0.0
  0
LINE
  5
5DD
  8
0
  6
CONTINUOUS
 62
     7
 10
-0.0000000144139041
 20
11.58383533875397
 30
0.0
 11
-0.0000000144139041
 21
7.97546593205397
 31
0.0
  0
LINE
  5
5DE
  8
0
  6
CONTINUOUS
 62
     7
 10
-0.0000000144139041
 20
7.97546593205397
 30
0.0
 11
4.262386347286096
 21
7.97546593205397
 31
0.0
  0
LINE
  5
5DF
  8
0
  6
CONTINUOUS
 62
     7
 10
4.262386347286096
 20
11.58383533875397
 30
0.0
 11
4.262386347286096
 21
7.97546593205397
 31
0.0
  0
LINE
  5
5E0
  8
0
  6
CONTINUOUS
 62
     7
 10
13.4243638393861
 20
10.00038079235398
 30
0.0
 11
13.4400454518861
 21
9.98848478815398
 31
0.0
  0
LINE
  5
5E1
  8
0
  6
CONTINUOUS
 62
     7
 10
13.6289122479861
 20
10.23745380515398
 30
0.0
 11
13.6132306354861
 21
10.24934980925398
 31
0.0
  0
LINE
  5
5E2
  8
0
  6
CONTINUOUS
 62
     7
 10
9.598134618286087
 20
9.63665306575398
 30
0.0
 11
9.64272218078609
 21
9.72611299085398
 31
0.0
  0
LINE
  5
5E3
  8
0
  6
CONTINUOUS
 62
     7
 10
9.617370943986087
 20
9.832741529553982
 30
0.0
 11
9.537291654686097
 21
9.892561569653981
 31
0.0
  0
LINE
  5
5E4
  8
0
  6
CONTINUOUS
 62
     7
 10
9.717093647686085
 20
9.954304157653981
 30
0.0
 11
9.581960368386097
 21
9.922175840453981
 31
0.0
  0
LINE
  5
5E5
  8
0
  6
CONTINUOUS
 62
     7
 10
9.65135194318609
 20
9.63031147475398
 30
0.0
 11
9.786485222486098
 21
9.66243979205397
 31
0.0
  0
LINE
  5
5E6
  8
0
  6
CONTINUOUS
 62
     7
 10
10.6958361317861
 20
10.16130606485398
 30
0.0
 11
9.759820511586087
 21
9.93876571855398
 31
0.0
  0
LINE
  5
5E7
  8
0
  6
CONTINUOUS
 62
     7
 10
9.817646823086084
 20
9.695545413053981
 30
0.0
 11
10.7536624433861
 21
9.918085759353982
 31
0.0
  0
LINE
  5
5E8
  8
0
  6
CONTINUOUS
 62
     7
 10
14.6681908653861
 20
11.57100882655398
 30
0.0
 11
14.58711087248609
 21
11.55173183015398
 31
0.0
  0
LINE
  5
5E9
  8
0
  6
CONTINUOUS
 62
     7
 10
14.72573156768609
 20
10.57742270275398
 30
0.0
 11
14.80681156068609
 21
10.59669969905398
 31
0.0
  0
LINE
  5
5EA
  8
0
  6
CONTINUOUS
 62
     7
 10
12.6378942848861
 20
9.76625922615398
 30
0.0
 11
12.6849391199861
 21
9.730571215453981
 31
0.0
  0
LINE
  5
5EB
  8
0
  6
CONTINUOUS
 62
     7
 10
13.2348224332861
 20
9.333183431353973
 30
0.0
 11
13.28186726848609
 21
9.297495420753968
 31
0.0
  0
LINE
  5
5EC
  8
0
  6
CONTINUOUS
 62
     7
 10
12.6849391199861
 20
9.730571215453981
 30
0.0
 11
12.7006207324861
 21
9.718675211353968
 31
0.0
  0
LINE
  5
5ED
  8
0
  6
CONTINUOUS
 62
     7
 10
12.6222126723861
 20
9.778155230253981
 30
0.0
 11
12.6378942848861
 21
9.76625922615398
 31
0.0
  0
LINE
  5
5EE
  8
0
  6
CONTINUOUS
 62
     7
 10
11.2241494596861
 20
10.74406610505398
 30
0.0
 11
11.1430694746861
 21
10.72478911055397
 31
0.0
  0
LINE
  5
5EF
  8
0
  6
CONTINUOUS
 62
     7
 10
11.28123286068609
 20
9.722306279653981
 30
0.0
 11
11.3623128457861
 21
9.741583274153982
 31
0.0
  0
LINE
  5
5F0
  8
0
  6
CONTINUOUS
 62
     7
 10
11.2331378037861
 20
10.58559767155398
 30
0.0
 11
11.1792109190861
 21
10.57277640305397
 31
0.0
  0
LINE
  5
5F1
  8
0
  6
CONTINUOUS
 62
     7
 10
14.03605318828608
 20
8.767786981753982
 30
0.0
 11
14.0830980234861
 21
8.73209897105397
 31
0.0
  0
LINE
  5
5F2
  8
0
  6
CONTINUOUS
 62
     7
 10
12.0950565998861
 20
9.568682120653973
 30
0.0
 11
12.0936846575861
 21
9.484160962953968
 31
0.0
  0
LINE
  5
5F3
  8
0
  6
CONTINUOUS
 62
     7
 10
12.36890379358609
 20
9.52648428745397
 30
0.0
 11
12.3702757358861
 21
9.611005445053982
 31
0.0
  0
LINE
  5
5F4
  8
0
  6
CONTINUOUS
 62
     7
 10
10.4054096793861
 20
10.85044104595397
 30
0.0
 11
10.4040377370861
 21
10.76591988825398
 31
0.0
  0
POLYLINE
  5
5F5
  8
0
  6
CONTINUOUS
 62
     7
 66
     1
 10
0.0
 20
0.0
 30
0.0
 70
   128
  0
VERTEX
  5
1563
  8
0
  6
CONTINUOUS
 62
     7
 10
13.6132306354861
 20
10.24934980925398
 30
0.0
  0
VERTEX
  5
1564
  8
0
  6
CONTINUOUS
 62
     7
 10
13.5995973744861
 20
10.25796534935398
 30
0.0
  0
VERTEX
  5
1565
  8
0
  6
CONTINUOUS
 62
     7
 10
13.5744183766861
 20
10.26693897495398
 30
0.0
  0
VERTEX
  5
1566
  8
0
  6
CONTINUOUS
 62
     7
 10
13.54663857868609
 20
10.26926936025398
 30
0.0
  0
VERTEX
  5
1567
  8
0
  6
CONTINUOUS
 62
     7
 10
13.5175569028861
 20
10.26484762075398
 30
0.0
  0
VERTEX
  5
1568
  8
0
  6
CONTINUOUS
 62
     7
 10
13.4885334959861
 20
10.25388049965398
 30
0.0
  0
VERTEX
  5
1569
  8
0
  6
CONTINUOUS
 62
     7
 10
13.4609248785861
 20
10.23688067995398
 30
0.0
  0
VERTEX
  5
156A
  8
0
  6
CONTINUOUS
 62
     7
 10
13.4360224069861
 20
10.21464319605398
 30
0.0
  0
VERTEX
  5
156B
  8
0
  6
CONTINUOUS
 62
     7
 10
13.4149905071861
 20
10.18820783035398
 30
0.0
  0
VERTEX
  5
156C
  8
0
  6
CONTINUOUS
 62
     7
 10
13.3988123127861
 20
10.15881055905397
 30
0.0
  0
VERTEX
  5
156D
  8
0
  6
CONTINUOUS
 62
     7
 10
13.3882446353861
 20
10.12782611955398
 30
0.0
  0
VERTEX
  5
156E
  8
0
  6
CONTINUOUS
 62
     7
 10
13.3837814062861
 20
10.09670320765398
 30
0.0
  0
VERTEX
  5
156F
  8
0
  6
CONTINUOUS
 62
     7
 10
13.3856313575861
 20
10.06689716495398
 30
0.0
  0
VERTEX
  5
1570
  8
0
  6
CONTINUOUS
 62
     7
 10
13.3937079395861
 20
10.03980155895397
 30
0.0
  0
VERTEX
  5
1571
  8
0
  6
CONTINUOUS
 62
     7
 10
13.40763357788608
 20
10.01668350115397
 30
0.0
  0
VERTEX
  5
1572
  8
0
  6
CONTINUOUS
 62
     7
 10
13.4243638393861
 20
10.00038079235398
 30
0.0
  0
SEQEND
  5
17AF
  8
0
  6
CONTINUOUS
 62
     7
  0
POLYLINE
  5
5F6
  8
0
  6
CONTINUOUS
 62
     7
 66
     1
 10
0.0
 20
0.0
 30
0.0
 70
   128
  0
VERTEX
  5
1573
  8
0
  6
CONTINUOUS
 62
     7
 10
13.66048634648609
 20
10.09440750095398
 30
0.0
  0
VERTEX
  5
1574
  8
0
  6
CONTINUOUS
 62
     7
 10
13.66804621658609
 20
10.12564431875397
 30
0.0
  0
VERTEX
  5
1575
  8
0
  6
CONTINUOUS
 62
     7
 10
13.6693603824861
 20
10.15628838695398
 30
0.0
  0
VERTEX
  5
1576
  8
0
  6
CONTINUOUS
 62
     7
 10
13.6643679349861
 20
10.18490699585398
 30
0.0
  0
VERTEX
  5
1577
  8
0
  6
CONTINUOUS
 62
     7
 10
13.6533018806861
 20
10.21016184775397
 30
0.0
  0
VERTEX
  5
1578
  8
0
  6
CONTINUOUS
 62
     7
 10
13.6366798043861
 20
10.23087206895397
 30
0.0
  0
VERTEX
  5
1579
  8
0
  6
CONTINUOUS
 62
     7
 10
13.6152789869861
 20
10.24606934515398
 30
0.0
  0
VERTEX
  5
157A
  8
0
  6
CONTINUOUS
 62
     7
 10
13.5900999890861
 20
10.25504297085397
 30
0.0
  0
VERTEX
  5
157B
  8
0
  6
CONTINUOUS
 62
     7
 10
13.56232019118609
 20
10.25737335615397
 30
0.0
  0
VERTEX
  5
157C
  8
0
  6
CONTINUOUS
 62
     7
 10
13.5332385153861
 20
10.25295161655397
 30
0.0
  0
VERTEX
  5
157D
  8
0
  6
CONTINUOUS
 62
     7
 10
13.50421510848608
 20
10.24198449555398
 30
0.0
  0
VERTEX
  5
157E
  8
0
  6
CONTINUOUS
 62
     7
 10
13.4766064910861
 20
10.22498467585398
 30
0.0
  0
VERTEX
  5
157F
  8
0
  6
CONTINUOUS
 62
     7
 10
13.4517040193861
 20
10.20274719185398
 30
0.0
  0
VERTEX
  5
1580
  8
0
  6
CONTINUOUS
 62
     7
 10
13.4306721195861
 20
10.17631182615398
 30
0.0
  0
VERTEX
  5
1581
  8
0
  6
CONTINUOUS
 62
     7
 10
13.41449392528608
 20
10.14691455485398
 30
0.0
  0
VERTEX
  5
1582
  8
0
  6
CONTINUOUS
 62
     7
 10
13.4039262477861
 20
10.11593011545398
 30
0.0
  0
VERTEX
  5
1583
  8
0
  6
CONTINUOUS
 62
     7
 10
13.3994630187861
 20
10.08480720355397
 30
0.0
  0
VERTEX
  5
1584
  8
0
  6
CONTINUOUS
 62
     7
 10
13.4013129700861
 20
10.05500116085397
 30
0.0
  0
VERTEX
  5
1585
  8
0
  6
CONTINUOUS
 62
     7
 10
13.4093895519861
 20
10.02790555475398
 30
0.0
  0
VERTEX
  5
1586
  8
0
  6
CONTINUOUS
 62
     7
 10
13.4233151903861
 20
10.00478749695398
 30
0.0
  0
VERTEX
  5
1587
  8
0
  6
CONTINUOUS
 62
     7
 10
13.44243889078609
 20
9.986727913253981
 30
0.0
  0
VERTEX
  5
1588
  8
0
  6
CONTINUOUS
 62
     7
 10
13.4658659992861
 20
9.97457119055398
 30
0.0
  0
VERTEX
  5
1589
  8
0
  6
CONTINUOUS
 62
     7
 10
13.49250166158609
 20
9.968885852453981
 30
0.0
  0
VERTEX
  5
158A
  8
0
  6
CONTINUOUS
 62
     7
 10
13.5211000447861
 20
9.969937734253982
 30
0.0
  0
VERTEX
  5
158B
  8
0
  6
CONTINUOUS
 62
     7
 10
13.5503237738861
 20
9.977677507953981
 30
0.0
  0
VERTEX
  5
158C
  8
0
  6
CONTINUOUS
 62
     7
 10
13.5788069016861
 20
9.991743469153981
 30
0.0
  0
VERTEX
  5
158D
  8
0
  6
CONTINUOUS
 62
     7
 10
13.60521708558609
 20
10.01147776885397
 30
0.0
  0
VERTEX
  5
158E
  8
0
  6
CONTINUOUS
 62
     7
 10
13.6283197776861
 20
10.03595767845398
 30
0.0
  0
VERTEX
  5
158F
  8
0
  6
CONTINUOUS
 62
     7
 10
13.6470345186861
 20
10.06403861015398
 30
0.0
  0
VERTEX
  5
1590
  8
0
  6
CONTINUOUS
 62
     7
 10
13.66048634648609
 20
10.09440750095398
 30
0.0
  0
SEQEND
  5
17B0
  8
0
  6
CONTINUOUS
 62
     7
  0
POLYLINE
  5
5F7
  8
0
  6
CONTINUOUS
 62
     7
 66
     1
 10
0.0
 20
0.0
 30
0.0
 70
   128
  0
VERTEX
  5
1591
  8
0
  6
CONTINUOUS
 62
     7
 10
13.5596804508861
 20
10.10925697485398
 30
0.0
  0
VERTEX
  5
1592
  8
0
  6
CONTINUOUS
 62
     7
 10
13.5615023690861
 20
10.12050636545397
 30
0.0
  0
VERTEX
  5
1593
  8
0
  6
CONTINUOUS
 62
     7
 10
13.5592105255861
 20
10.13060840855397
 30
0.0
  0
VERTEX
  5
1594
  8
0
  6
CONTINUOUS
 62
     7
 10
13.55315320358609
 20
10.13802496915398
 30
0.0
  0
VERTEX
  5
1595
  8
0
  6
CONTINUOUS
 62
     7
 10
13.5442531634861
 20
10.14162708385398
 30
0.0
  0
VERTEX
  5
1596
  8
0
  6
CONTINUOUS
 62
     7
 10
13.5338648641861
 20
10.14086629545398
 30
0.0
  0
VERTEX
  5
1597
  8
0
  6
CONTINUOUS
 62
     7
 10
13.5235701182861
 20
10.13585844455398
 30
0.0
  0
VERTEX
  5
1598
  8
0
  6
CONTINUOUS
 62
     7
 10
13.5149362158861
 20
10.12736597505398
 30
0.0
  0
VERTEX
  5
1599
  8
0
  6
CONTINUOUS
 62
     7
 10
13.50927750318609
 20
10.11668171185398
 30
0.0
  0
VERTEX
  5
159A
  8
0
  6
CONTINUOUS
 62
     7
 10
13.5074553312861
 20
10.10543226085398
 30
0.0
  0
VERTEX
  5
159B
  8
0
  6
CONTINUOUS
 62
     7
 10
13.50974742898609
 20
10.09533031115397
 30
0.0
  0
VERTEX
  5
159C
  8
0
  6
CONTINUOUS
 62
     7
 10
13.5158044973861
 20
10.08791369025398
 30
0.0
  0
VERTEX
  5
159D
  8
0
  6
CONTINUOUS
 62
     7
 10
13.52470479108609
 20
10.08431163585398
 30
0.0
  0
VERTEX
  5
159E
  8
0
  6
CONTINUOUS
 62
     7
 10
13.5350928361861
 20
10.08507233095398
 30
0.0
  0
VERTEX
  5
159F
  8
0
  6
CONTINUOUS
 62
     7
 10
13.5453875820861
 20
10.09008018175398
 30
0.0
  0
VERTEX
  5
15A0
  8
0
  6
CONTINUOUS
 62
     7
 10
13.55402173868609
 20
10.09857274465398
 30
0.0
  0
VERTEX
  5
15A1
  8
0
  6
CONTINUOUS
 62
     7
 10
13.5596804508861
 20
10.10925697485398
 30
0.0
  0
SEQEND
  5
17B1
  8
0
  6
CONTINUOUS
 62
     7
  0
POLYLINE
  5
5F8
  8
0
  6
CONTINUOUS
 62
     7
 66
     1
 10
0.0
 20
0.0
 30
0.0
 70
   128
  0
VERTEX
  5
15A2
  8
0
  6
CONTINUOUS
 62
     7
 10
13.54399883848608
 20
10.12115297895397
 30
0.0
  0
VERTEX
  5
15A3
  8
0
  6
CONTINUOUS
 62
     7
 10
13.5458207565861
 20
10.13240236955398
 30
0.0
  0
VERTEX
  5
15A4
  8
0
  6
CONTINUOUS
 62
     7
 10
13.5439026125861
 20
10.14167582005398
 30
0.0
  0
SEQEND
  5
17B2
  8
0
  6
CONTINUOUS
 62
     7
  0
ARC
  5
5F9
  8
0
  6
CONTINUOUS
 62
     7
 10
13.5104704687861
 20
10.13112016665398
 30
0.0
 40
0.0349785134165396
 50
268.2030877849999
 51
343.4440371828999
  0
ARC
  5
5FA
  8
0
  6
CONTINUOUS
 62
     7
 10
9.547711761186084
 20
9.75985192815397
 30
0.0
 40
0.1008230912831657
 50
340.4496546705998
 51
46.29820592160002
  0
POLYLINE
  5
5FB
  8
0
  6
CONTINUOUS
 62
     7
 66
     1
 10
0.0
 20
0.0
 30
0.0
 70
   128
  0
VERTEX
  5
15A5
  8
0
  6
CONTINUOUS
 62
     7
 10
9.460304429286099
 20
9.814067474153982
 30
0.0
  0
VERTEX
  5
15A6
  8
0
  6
CONTINUOUS
 62
     7
 10
9.462536123186087
 20
9.841803769653982
 30
0.0
  0
VERTEX
  5
15A7
  8
0
  6
CONTINUOUS
 62
     7
 10
9.468183086386087
 20
9.86557317595398
 30
0.0
  0
VERTEX
  5
15A8
  8
0
  6
CONTINUOUS
 62
     7
 10
9.476981278386097
 20
9.884264259153982
 30
0.0
  0
VERTEX
  5
15A9
  8
0
  6
CONTINUOUS
 62
     7
 10
9.488519301986098
 20
9.89700305325398
 30
0.0
  0
VERTEX
  5
15AA
  8
0
  6
CONTINUOUS
 62
     7
 10
9.502257650486097
 20
9.903193907153982
 30
0.0
  0
VERTEX
  5
15AB
  8
0
  6
CONTINUOUS
 62
     7
 10
9.517553936486085
 20
9.902547320653971
 30
0.0
  0
VERTEX
  5
15AC
  8
0
  6
CONTINUOUS
 62
     7
 10
9.53369292148609
 20
9.89509354775398
 30
0.0
  0
VERTEX
  5
15AD
  8
0
  6
CONTINUOUS
 62
     7
 10
9.549919964486097
 20
9.881181132853973
 30
0.0
  0
VERTEX
  5
15AE
  8
0
  6
CONTINUOUS
 62
     7
 10
9.565476307286097
 20
9.86146057525398
 30
0.0
  0
VERTEX
  5
15AF
  8
0
  6
CONTINUOUS
 62
     7
 10
9.579634552686096
 20
9.83685398635397
 30
0.0
  0
VERTEX
  5
15B0
  8
0
  6
CONTINUOUS
 62
     7
 10
9.591732675386098
 20
9.808511970453981
 30
0.0
  0
VERTEX
  5
15B1
  8
0
  6
CONTINUOUS
 62
     7
 10
9.601204984486097
 20
9.777759752653981
 30
0.0
  0
VERTEX
  5
15B2
  8
0
  6
CONTINUOUS
 62
     7
 10
9.607608562486098
 20
9.746035267153982
 30
0.0
  0
VERTEX
  5
15B3
  8
0
  6
CONTINUOUS
 62
     7
 10
9.610643984986098
 20
9.714821921353973
 30
0.0
  0
VERTEX
  5
15B4
  8
0
  6
CONTINUOUS
 62
     7
 10
9.610169319186086
 20
9.68557921875397
 30
0.0
  0
VERTEX
  5
15B5
  8
0
  6
CONTINUOUS
 62
     7
 10
9.606206759986097
 20
9.65967451405397
 30
0.0
  0
VERTEX
  5
15B6
  8
0
  6
CONTINUOUS
 62
     7
 10
9.598941591986097
 20
9.63831908275398
 30
0.0
  0
VERTEX
  5
15B7
  8
0
  6
CONTINUOUS
 62
     7
 10
9.588713526686087
 20
9.62251148065398
 30
0.0
  0
VERTEX
  5
15B8
  8
0
  6
CONTINUOUS
 62
     7
 10
9.576000819786097
 20
9.61299084975398
 30
0.0
  0
VERTEX
  5
15B9
  8
0
  6
CONTINUOUS
 62
     7
 10
9.561397899286098
 20
9.61020236655397
 30
0.0
  0
VERTEX
  5
15BA
  8
0
  6
CONTINUOUS
 62
     7
 10
9.545587583386087
 20
9.614276422053981
 30
0.0
  0
VERTEX
  5
15BB
  8
0
  6
CONTINUOUS
 62
     7
 10
9.529309144886097
 20
9.62502251795397
 30
0.0
  0
VERTEX
  5
15BC
  8
0
  6
CONTINUOUS
 62
     7
 10
9.513323744486097
 20
9.64193816645397
 30
0.0
  0
VERTEX
  5
15BD
  8
0
  6
CONTINUOUS
 62
     7
 10
9.498378842186098
 20
9.664232424453981
 30
0.0
  0
VERTEX
  5
15BE
  8
0
  6
CONTINUOUS
 62
     7
 10
9.485173246386097
 20
9.69086283085398
 30
0.0
  0
VERTEX
  5
15BF
  8
0
  6
CONTINUOUS
 62
     7
 10
9.474324433286087
 20
9.72058418345397
 30
0.0
  0
VERTEX
  5
15C0
  8
0
  6
CONTINUOUS
 62
     7
 10
9.466339682786097
 20
9.752006737053982
 30
0.0
  0
VERTEX
  5
15C1
  8
0
  6
CONTINUOUS
 62
     7
 10
9.461592356686086
 20
9.783661209253982
 30
0.0
  0
VERTEX
  5
15C2
  8
0
  6
CONTINUOUS
 62
     7
 10
9.460304429286099
 20
9.814067474153982
 30
0.0
  0
SEQEND
  5
17B3
  8
0
  6
CONTINUOUS
 62
     7
  0
POLYLINE
  5
5FC
  8
0
  6
CONTINUOUS
 62
     7
 66
     1
 10
0.0
 20
0.0
 30
0.0
 70
   128
  0
VERTEX
  5
15C3
  8
0
  6
CONTINUOUS
 62
     7
 10
9.548933144786098
 20
9.88386526775398
 30
0.0
  0
VERTEX
  5
15C4
  8
0
  6
CONTINUOUS
 62
     7
 10
9.549263079386098
 20
9.884850172353982
 30
0.0
  0
VERTEX
  5
15C5
  8
0
  6
CONTINUOUS
 62
     7
 10
9.558061271386096
 20
9.903541255453973
 30
0.0
  0
VERTEX
  5
15C6
  8
0
  6
CONTINUOUS
 62
     7
 10
9.569599294986098
 20
9.916280049553981
 30
0.0
  0
VERTEX
  5
15C7
  8
0
  6
CONTINUOUS
 62
     7
 10
9.583337643486097
 20
9.92247090355398
 30
0.0
  0
VERTEX
  5
15C8
  8
0
  6
CONTINUOUS
 62
     7
 10
9.598633929486098
 20
9.921824317053982
 30
0.0
  0
VERTEX
  5
15C9
  8
0
  6
CONTINUOUS
 62
     7
 10
9.614772914486098
 20
9.914370544153982
 30
0.0
  0
VERTEX
  5
15CA
  8
0
  6
CONTINUOUS
 62
     7
 10
9.630999957486086
 20
9.900458129253982
 30
0.0
  0
VERTEX
  5
15CB
  8
0
  6
CONTINUOUS
 62
     7
 10
9.646556300286097
 20
9.880737571653981
 30
0.0
  0
VERTEX
  5
15CC
  8
0
  6
CONTINUOUS
 62
     7
 10
9.660714545686096
 20
9.856130982753982
 30
0.0
  0
VERTEX
  5
15CD
  8
0
  6
CONTINUOUS
 62
     7
 10
9.672812668386086
 20
9.827788966753982
 30
0.0
  0
VERTEX
  5
15CE
  8
0
  6
CONTINUOUS
 62
     7
 10
9.682284977486097
 20
9.797036749053973
 30
0.0
  0
VERTEX
  5
15CF
  8
0
  6
CONTINUOUS
 62
     7
 10
9.688688555486097
 20
9.765312263553973
 30
0.0
  0
VERTEX
  5
15D0
  8
0
  6
CONTINUOUS
 62
     7
 10
9.691723977986097
 20
9.73409891775398
 30
0.0
  0
VERTEX
  5
15D1
  8
0
  6
CONTINUOUS
 62
     7
 10
9.691249312186098
 20
9.704856215153981
 30
0.0
  0
VERTEX
  5
15D2
  8
0
  6
CONTINUOUS
 62
     7
 10
9.687286752986084
 20
9.678951510453981
 30
0.0
  0
VERTEX
  5
15D3
  8
0
  6
CONTINUOUS
 62
     7
 10
9.680021584986097
 20
9.65759607915397
 30
0.0
  0
VERTEX
  5
15D4
  8
0
  6
CONTINUOUS
 62
     7
 10
9.669793519686097
 20
9.641788477053982
 30
0.0
  0
VERTEX
  5
15D5
  8
0
  6
CONTINUOUS
 62
     7
 10
9.657080812786097
 20
9.63226784615397
 30
0.0
  0
VERTEX
  5
15D6
  8
0
  6
CONTINUOUS
 62
     7
 10
9.642477892286097
 20
9.629479362853981
 30
0.0
  0
VERTEX
  5
15D7
  8
0
  6
CONTINUOUS
 62
     7
 10
9.626667576386087
 20
9.633553418453971
 30
0.0
  0
VERTEX
  5
15D8
  8
0
  6
CONTINUOUS
 62
     7
 10
9.610389137886084
 20
9.644299514353982
 30
0.0
  0
VERTEX
  5
15D9
  8
0
  6
CONTINUOUS
 62
     7
 10
9.604616520086097
 20
9.64965825105398
 30
0.0
  0
SEQEND
  5
17B4
  8
0
  6
CONTINUOUS
 62
     7
  0
POLYLINE
  5
5FD
  8
0
  6
CONTINUOUS
 62
     7
 66
     1
 10
0.0
 20
0.0
 30
0.0
 70
   128
  0
VERTEX
  5
15DA
  8
0
  6
CONTINUOUS
 62
     7
 10
9.717093647686085
 20
9.954304157653981
 30
0.0
  0
VERTEX
  5
15DB
  8
0
  6
CONTINUOUS
 62
     7
 10
9.718470922886096
 20
9.95459922075398
 30
0.0
  0
VERTEX
  5
15DC
  8
0
  6
CONTINUOUS
 62
     7
 10
9.733767208886087
 20
9.953952634253982
 30
0.0
  0
VERTEX
  5
15DD
  8
0
  6
CONTINUOUS
 62
     7
 10
9.749906193886096
 20
9.94649886145398
 30
0.0
  0
VERTEX
  5
15DE
  8
0
  6
CONTINUOUS
 62
     7
 10
9.766133236886098
 20
9.93258644645398
 30
0.0
  0
VERTEX
  5
15DF
  8
0
  6
CONTINUOUS
 62
     7
 10
9.781689579686098
 20
9.91286588895397
 30
0.0
  0
VERTEX
  5
15E0
  8
0
  6
CONTINUOUS
 62
     7
 10
9.795847824986097
 20
9.888259299953981
 30
0.0
  0
VERTEX
  5
15E1
  8
0
  6
CONTINUOUS
 62
     7
 10
9.807945947786097
 20
9.85991728405397
 30
0.0
  0
VERTEX
  5
15E2
  8
0
  6
CONTINUOUS
 62
     7
 10
9.817418256886098
 20
9.829165066253971
 30
0.0
  0
VERTEX
  5
15E3
  8
0
  6
CONTINUOUS
 62
     7
 10
9.823821834886086
 20
9.797440580753971
 30
0.0
  0
VERTEX
  5
15E4
  8
0
  6
CONTINUOUS
 62
     7
 10
9.826857257386086
 20
9.76622723495398
 30
0.0
  0
VERTEX
  5
15E5
  8
0
  6
CONTINUOUS
 62
     7
 10
9.826382591586096
 20
9.736984532453972
 30
0.0
  0
VERTEX
  5
15E6
  8
0
  6
CONTINUOUS
 62
     7
 10
9.822420032386088
 20
9.71107982765398
 30
0.0
  0
VERTEX
  5
15E7
  8
0
  6
CONTINUOUS
 62
     7
 10
9.815154864386098
 20
9.68972439645397
 30
0.0
  0
VERTEX
  5
15E8
  8
0
  6
CONTINUOUS
 62
     7
 10
9.804926799086086
 20
9.673916794253982
 30
0.0
  0
VERTEX
  5
15E9
  8
0
  6
CONTINUOUS
 62
     7
 10
9.792214092186098
 20
9.66439616345397
 30
0.0
  0
VERTEX
  5
15EA
  8
0
  6
CONTINUOUS
 62
     7
 10
9.786485222486098
 20
9.66243979205397
 30
0.0
  0
SEQEND
  5
17B5
  8
0
  6
CONTINUOUS
 62
     7
  0
POLYLINE
  5
5FE
  8
0
  6
CONTINUOUS
 62
     7
 66
     1
 10
0.0
 20
0.0
 30
0.0
 70
   128
  0
VERTEX
  5
15EB
  8
0
  6
CONTINUOUS
 62
     7
 10
10.6958361317861
 20
10.16130606485398
 30
0.0
  0
VERTEX
  5
15EC
  8
0
  6
CONTINUOUS
 62
     7
 10
10.7042165679861
 20
10.16194097655397
 30
0.0
  0
VERTEX
  5
15ED
  8
0
  6
CONTINUOUS
 62
     7
 10
10.71900436908609
 20
10.15730473775397
 30
0.0
  0
VERTEX
  5
15EE
  8
0
  6
CONTINUOUS
 62
     7
 10
10.7341260442861
 20
10.14583349955398
 30
0.0
  0
VERTEX
  5
15EF
  8
0
  6
CONTINUOUS
 62
     7
 10
10.7487027761861
 20
10.12819392935398
 30
0.0
  0
VERTEX
  5
15F0
  8
0
  6
CONTINUOUS
 62
     7
 10
10.76188741908609
 20
10.10541117635398
 30
0.0
  0
VERTEX
  5
15F1
  8
0
  6
CONTINUOUS
 62
     7
 10
10.7729137295861
 20
10.07880928935398
 30
0.0
  0
VERTEX
  5
15F2
  8
0
  6
CONTINUOUS
 62
     7
 10
10.7811408958861
 20
10.04993428515398
 30
0.0
  0
VERTEX
  5
15F3
  8
0
  6
CONTINUOUS
 62
     7
 10
10.7860907885861
 20
10.02046425435398
 30
0.0
  0
VERTEX
  5
15F4
  8
0
  6
CONTINUOUS
 62
     7
 10
10.7874757329861
 20
9.99211190115397
 30
0.0
  0
VERTEX
  5
15F5
  8
0
  6
CONTINUOUS
 62
     7
 10
10.7852152490861
 20
9.96652495565398
 30
0.0
  0
VERTEX
  5
15F6
  8
0
  6
CONTINUOUS
 62
     7
 10
10.7794407001861
 20
9.945190442953981
 30
0.0
  0
VERTEX
  5
15F7
  8
0
  6
CONTINUOUS
 62
     7
 10
10.7704876868861
 20
9.92934824125398
 30
0.0
  0
VERTEX
  5
15F8
  8
0
  6
CONTINUOUS
 62
     7
 10
10.7588765220861
 20
9.91991905025398
 30
0.0
  0
VERTEX
  5
15F9
  8
0
  6
CONTINUOUS
 62
     7
 10
10.7536624433861
 20
9.918085759353982
 30
0.0
  0
SEQEND
  5
17B6
  8
0
  6
CONTINUOUS
 62
     7
  0
POLYLINE
  5
5FF
  8
0
  6
CONTINUOUS
 62
     7
 66
     1
 10
0.0
 20
0.0
 30
0.0
 70
   128
  0
VERTEX
  5
15FA
  8
0
  6
CONTINUOUS
 62
     7
 10
14.6772150347861
 20
11.34106695105398
 30
0.0
  0
VERTEX
  5
15FB
  8
0
  6
CONTINUOUS
 62
     7
 10
14.67563642158609
 20
11.36177372335397
 30
0.0
  0
VERTEX
  5
15FC
  8
0
  6
CONTINUOUS
 62
     7
 10
14.6704653456861
 20
11.38285264655397
 30
0.0
  0
VERTEX
  5
15FD
  8
0
  6
CONTINUOUS
 62
     7
 10
14.6623255142861
 20
11.40176124315398
 30
0.0
  0
VERTEX
  5
15FE
  8
0
  6
CONTINUOUS
 62
     7
 10
14.6521987114861
 20
11.41621891365398
 30
0.0
  0
VERTEX
  5
15FF
  8
0
  6
CONTINUOUS
 62
     7
 10
14.64130637868609
 20
11.42448179065397
 30
0.0
  0
VERTEX
  5
1600
  8
0
  6
CONTINUOUS
 62
     7
 10
14.6309622916861
 20
11.42555324965398
 30
0.0
  0
VERTEX
  5
1601
  8
0
  6
CONTINUOUS
 62
     7
 10
14.6224141014861
 20
11.41930411485398
 30
0.0
  0
VERTEX
  5
1602
  8
0
  6
CONTINUOUS
 62
     7
 10
14.6166928444861
 20
11.40648806875398
 30
0.0
  0
VERTEX
  5
1603
  8
0
  6
CONTINUOUS
 62
     7
 10
14.6144885894861
 20
11.38865096415398
 30
0.0
  0
VERTEX
  5
1604
  8
0
  6
CONTINUOUS
 62
     7
 10
14.6160672020861
 20
11.36794415885398
 30
0.0
  0
VERTEX
  5
1605
  8
0
  6
CONTINUOUS
 62
     7
 10
14.6212382779861
 20
11.34686523565398
 30
0.0
  0
VERTEX
  5
1606
  8
0
  6
CONTINUOUS
 62
     7
 10
14.6293781093861
 20
11.32795663905397
 30
0.0
  0
VERTEX
  5
1607
  8
0
  6
CONTINUOUS
 62
     7
 10
14.63950491268609
 20
11.31349900165398
 30
0.0
  0
VERTEX
  5
1608
  8
0
  6
CONTINUOUS
 62
     7
 10
14.6503972455861
 20
11.30523612455398
 30
0.0
  0
VERTEX
  5
1609
  8
0
  6
CONTINUOUS
 62
     7
 10
14.6607413319861
 20
11.30416463255398
 30
0.0
  0
VERTEX
  5
160A
  8
0
  6
CONTINUOUS
 62
     7
 10
14.6692895221861
 20
11.31041376735398
 30
0.0
  0
VERTEX
  5
160B
  8
0
  6
CONTINUOUS
 62
     7
 10
14.6750107791861
 20
11.32322981345398
 30
0.0
  0
VERTEX
  5
160C
  8
0
  6
CONTINUOUS
 62
     7
 10
14.6772150347861
 20
11.34106695105398
 30
0.0
  0
SEQEND
  5
17B7
  8
0
  6
CONTINUOUS
 62
     7
  0
LINE
  5
600
  8
0
  6
CONTINUOUS
 62
     7
 10
14.5266962184861
 20
11.46841324505398
 30
0.0
 11
14.4736739343861
 21
11.23509973515398
 31
0.0
  0
POLYLINE
  5
601
  8
0
  6
CONTINUOUS
 62
     7
 66
     1
 10
0.0
 20
0.0
 30
0.0
 70
   128
  0
VERTEX
  5
160D
  8
0
  6
CONTINUOUS
 62
     7
 10
14.76542954158609
 20
11.28731116755398
 30
0.0
  0
VERTEX
  5
160E
  8
0
  6
CONTINUOUS
 62
     7
 10
14.75787511278609
 20
11.32830115165398
 30
0.0
  0
VERTEX
  5
160F
  8
0
  6
CONTINUOUS
 62
     7
 10
14.7471505284861
 20
11.36873565835398
 30
0.0
  0
VERTEX
  5
1610
  8
0
  6
CONTINUOUS
 62
     7
 10
14.7335568210861
 20
11.40747965675398
 30
0.0
  0
VERTEX
  5
1611
  8
0
  6
CONTINUOUS
 62
     7
 10
14.7174755795861
 20
11.44344562995398
 30
0.0
  0
VERTEX
  5
1612
  8
0
  6
CONTINUOUS
 62
     7
 10
14.6993581928861
 20
11.47562402115397
 30
0.0
  0
VERTEX
  5
1613
  8
0
  6
CONTINUOUS
 62
     7
 10
14.6797132098861
 20
11.50311162985398
 30
0.0
  0
VERTEX
  5
1614
  8
0
  6
CONTINUOUS
 62
     7
 10
14.65909207048609
 20
11.52513675795398
 30
0.0
  0
VERTEX
  5
1615
  8
0
  6
CONTINUOUS
 62
     7
 10
14.6380736032861
 20
11.54108127725398
 30
0.0
  0
VERTEX
  5
1616
  8
0
  6
CONTINUOUS
 62
     7
 10
14.6172477988861
 20
11.55049762335398
 30
0.0
  0
VERTEX
  5
1617
  8
0
  6
CONTINUOUS
 62
     7
 10
14.5971992272861
 20
11.55312137535398
 30
0.0
  0
VERTEX
  5
1618
  8
0
  6
CONTINUOUS
 62
     7
 10
14.5784906607861
 20
11.54887899465398
 30
0.0
  0
VERTEX
  5
1619
  8
0
  6
CONTINUOUS
 62
     7
 10
14.5616472413861
 20
11.53788952845398
 30
0.0
  0
VERTEX
  5
161A
  8
0
  6
CONTINUOUS
 62
     7
 10
14.5471417524861
 20
11.52046146015398
 30
0.0
  0
VERTEX
  5
161B
  8
0
  6
CONTINUOUS
 62
     7
 10
14.5353813752861
 20
11.49708394905398
 30
0.0
  0
VERTEX
  5
161C
  8
0
  6
CONTINUOUS
 62
     7
 10
14.5266962184861
 20
11.46841324505398
 30
0.0
  0
SEQEND
  5
17B8
  8
0
  6
CONTINUOUS
 62
     7
  0
LINE
  5
602
  8
0
  6
CONTINUOUS
 62
     7
 10
14.8197306278861
 20
10.91045264875398
 30
0.0
 11
14.76542954158609
 21
11.28731116755398
 31
0.0
  0
POLYLINE
  5
603
  8
0
  6
CONTINUOUS
 62
     7
 66
     1
 10
0.0
 20
0.0
 30
0.0
 70
   128
  0
VERTEX
  5
161D
  8
0
  6
CONTINUOUS
 62
     7
 10
14.6532916203861
 20
10.59104948655398
 30
0.0
  0
VERTEX
  5
161E
  8
0
  6
CONTINUOUS
 62
     7
 10
14.6727202795861
 20
10.58188740065398
 30
0.0
  0
VERTEX
  5
161F
  8
0
  6
CONTINUOUS
 62
     7
 10
14.6981503225861
 20
10.57573825945398
 30
0.0
  0
VERTEX
  5
1620
  8
0
  6
CONTINUOUS
 62
     7
 10
14.72243061098609
 20
10.57671235965398
 30
0.0
  0
VERTEX
  5
1621
  8
0
  6
CONTINUOUS
 62
     7
 10
14.7450892625861
 20
10.58479081645398
 30
0.0
  0
VERTEX
  5
1622
  8
0
  6
CONTINUOUS
 62
     7
 10
14.76568589838609
 20
10.59981660085398
 30
0.0
  0
VERTEX
  5
1623
  8
0
  6
CONTINUOUS
 62
     7
 10
14.78382022528609
 20
10.62149770085398
 30
0.0
  0
VERTEX
  5
1624
  8
0
  6
CONTINUOUS
 62
     7
 10
14.7991397961861
 20
10.64941274565398
 30
0.0
  0
VERTEX
  5
1625
  8
0
  6
CONTINUOUS
 62
     7
 10
14.8113468575861
 20
10.68301918805398
 30
0.0
  0
VERTEX
  5
1626
  8
0
  6
CONTINUOUS
 62
     7
 10
14.8202041746861
 20
10.72166388665398
 30
0.0
  0
VERTEX
  5
1627
  8
0
  6
CONTINUOUS
 62
     7
 10
14.82553961358609
 20
10.76459576235398
 30
0.0
  0
VERTEX
  5
1628
  8
0
  6
CONTINUOUS
 62
     7
 10
14.8272494803861
 20
10.81098043845398
 30
0.0
  0
VERTEX
  5
1629
  8
0
  6
CONTINUOUS
 62
     7
 10
14.82530051608609
 20
10.85991643245398
 30
0.0
  0
VERTEX
  5
162A
  8
0
  6
CONTINUOUS
 62
     7
 10
14.8197306278861
 20
10.91045264875398
 30
0.0
  0
SEQEND
  5
17B9
  8
0
  6
CONTINUOUS
 62
     7
  0
LINE
  5
604
  8
0
  6
CONTINUOUS
 62
     7
 10
14.7337677417861
 20
10.91313771845397
 30
0.0
 11
14.6632004890861
 21
10.96666973445398
 31
0.0
  0
LINE
  5
605
  8
0
  6
CONTINUOUS
 62
     7
 10
14.6632004890861
 20
10.96666973445398
 30
0.0
 11
14.6652584025861
 21
11.09345147095398
 31
0.0
  0
LINE
  5
606
  8
0
  6
CONTINUOUS
 62
     7
 10
14.9008106208861
 20
10.92972964515397
 30
0.0
 11
14.8465095345861
 21
11.30658816385397
 31
0.0
  0
POLYLINE
  5
607
  8
0
  6
CONTINUOUS
 62
     7
 66
     1
 10
0.0
 20
0.0
 30
0.0
 70
   128
  0
VERTEX
  5
162B
  8
0
  6
CONTINUOUS
 62
     7
 10
14.8465095345861
 20
11.30658816385397
 30
0.0
  0
VERTEX
  5
162C
  8
0
  6
CONTINUOUS
 62
     7
 10
14.83895510578609
 20
11.34757814805397
 30
0.0
  0
VERTEX
  5
162D
  8
0
  6
CONTINUOUS
 62
     7
 10
14.82823052148609
 20
11.38801265475397
 30
0.0
  0
VERTEX
  5
162E
  8
0
  6
CONTINUOUS
 62
     7
 10
14.81463681408609
 20
11.42675665315397
 30
0.0
  0
VERTEX
  5
162F
  8
0
  6
CONTINUOUS
 62
     7
 10
14.7985555725861
 20
11.46272262625397
 30
0.0
  0
VERTEX
  5
1630
  8
0
  6
CONTINUOUS
 62
     7
 10
14.7804381857861
 20
11.49490101755397
 30
0.0
  0
VERTEX
  5
1631
  8
0
  6
CONTINUOUS
 62
     7
 10
14.7607932028861
 20
11.52238862615398
 30
0.0
  0
VERTEX
  5
1632
  8
0
  6
CONTINUOUS
 62
     7
 10
14.74017206348609
 20
11.54441375435398
 30
0.0
  0
VERTEX
  5
1633
  8
0
  6
CONTINUOUS
 62
     7
 10
14.71915359628609
 20
11.56035827365398
 30
0.0
  0
VERTEX
  5
1634
  8
0
  6
CONTINUOUS
 62
     7
 10
14.6983277918861
 20
11.56977461975398
 30
0.0
  0
VERTEX
  5
1635
  8
0
  6
CONTINUOUS
 62
     7
 10
14.6782792202861
 20
11.57239837175398
 30
0.0
  0
VERTEX
  5
1636
  8
0
  6
CONTINUOUS
 62
     7
 10
14.6681908653861
 20
11.57100882655398
 30
0.0
  0
SEQEND
  5
17BA
  8
0
  6
CONTINUOUS
 62
     7
  0
POLYLINE
  5
608
  8
0
  6
CONTINUOUS
 62
     7
 66
     1
 10
0.0
 20
0.0
 30
0.0
 70
   128
  0
VERTEX
  5
1637
  8
0
  6
CONTINUOUS
 62
     7
 10
14.80681156068609
 20
10.59669969905398
 30
0.0
  0
VERTEX
  5
1638
  8
0
  6
CONTINUOUS
 62
     7
 10
14.8261692555861
 20
10.60406781275398
 30
0.0
  0
VERTEX
  5
1639
  8
0
  6
CONTINUOUS
 62
     7
 10
14.84676589138609
 20
10.61909359725398
 30
0.0
  0
VERTEX
  5
163A
  8
0
  6
CONTINUOUS
 62
     7
 10
14.86490021828609
 20
10.64077469725398
 30
0.0
  0
VERTEX
  5
163B
  8
0
  6
CONTINUOUS
 62
     7
 10
14.8802197891861
 20
10.66868974205398
 30
0.0
  0
VERTEX
  5
163C
  8
0
  6
CONTINUOUS
 62
     7
 10
14.8924268505861
 20
10.70229618445398
 30
0.0
  0
VERTEX
  5
163D
  8
0
  6
CONTINUOUS
 62
     7
 10
14.90128416768609
 20
10.74094088295398
 30
0.0
  0
VERTEX
  5
163E
  8
0
  6
CONTINUOUS
 62
     7
 10
14.90661960658609
 20
10.78387275865398
 30
0.0
  0
VERTEX
  5
163F
  8
0
  6
CONTINUOUS
 62
     7
 10
14.90832947338609
 20
10.83025743485398
 30
0.0
  0
VERTEX
  5
1640
  8
0
  6
CONTINUOUS
 62
     7
 10
14.90638050908609
 20
10.87919342875398
 30
0.0
  0
VERTEX
  5
1641
  8
0
  6
CONTINUOUS
 62
     7
 10
14.9008106208861
 20
10.92972964515397
 30
0.0
  0
SEQEND
  5
17BB
  8
0
  6
CONTINUOUS
 62
     7
  0
POLYLINE
  5
609
  8
0
  6
CONTINUOUS
 62
     7
 66
     1
 10
0.0
 20
0.0
 30
0.0
 70
   128
  0
VERTEX
  5
1642
  8
0
  6
CONTINUOUS
 62
     7
 10
12.7875136475861
 20
9.83666176155398
 30
0.0
  0
VERTEX
  5
1643
  8
0
  6
CONTINUOUS
 62
     7
 10
12.7856029947861
 20
9.846941630453971
 30
0.0
  0
VERTEX
  5
1644
  8
0
  6
CONTINUOUS
 62
     7
 10
12.7855911878861
 20
9.84696931575398
 30
0.0
  0
SEQEND
  5
17BC
  8
0
  6
CONTINUOUS
 62
     7
  0
ARC
  5
60A
  8
0
  6
CONTINUOUS
 62
     7
 10
12.75189400088609
 20
9.83706462815398
 30
0.0
 40
0.0356219249119952
 50
268.6620199309999
 51
359.3519988276999
  0
LINE
  5
60B
  8
0
  6
CONTINUOUS
 62
     7
 10
13.37347708918609
 20
9.95522311055398
 30
0.0
 11
13.4468892484861
 21
9.98375365365397
 31
0.0
  0
ARC
  5
60C
  8
0
  6
CONTINUOUS
 62
     7
 10
12.49203529628609
 20
9.65248072905397
 30
0.0
 40
0.9319831457805988
 50
340.4610089884
 51
18.95568518630001
  0
POLYLINE
  5
60D
  8
0
  6
CONTINUOUS
 62
     7
 66
     1
 10
0.0
 20
0.0
 30
0.0
 70
   128
  0
VERTEX
  5
1645
  8
0
  6
CONTINUOUS
 62
     7
 10
13.2678979648861
 20
9.35033718505398
 30
0.0
  0
VERTEX
  5
1646
  8
0
  6
CONTINUOUS
 62
     7
 10
13.2656430565861
 20
9.33078353395398
 30
0.0
  0
VERTEX
  5
1647
  8
0
  6
CONTINUOUS
 62
     7
 10
13.2696567227861
 20
9.31314596275398
 30
0.0
  0
VERTEX
  5
1648
  8
0
  6
CONTINUOUS
 62
     7
 10
13.2794729732861
 20
9.29947199335397
 30
0.0
  0
VERTEX
  5
1649
  8
0
  6
CONTINUOUS
 62
     7
 10
13.2939523402861
 20
9.29134923835398
 30
0.0
  0
VERTEX
  5
164A
  8
0
  6
CONTINUOUS
 62
     7
 10
13.3114136935861
 20
9.28972033085398
 30
0.0
  0
VERTEX
  5
164B
  8
0
  6
CONTINUOUS
 62
     7
 10
13.3298302294861
 20
9.294774753153973
 30
0.0
  0
VERTEX
  5
164C
  8
0
  6
CONTINUOUS
 62
     7
 10
13.3470638560861
 20
9.30592540125397
 30
0.0
  0
VERTEX
  5
164D
  8
0
  6
CONTINUOUS
 62
     7
 10
13.3611138474861
 20
9.321877976853981
 30
0.0
  0
VERTEX
  5
164E
  8
0
  6
CONTINUOUS
 62
     7
 10
13.3703493631861
 20
9.340780578553973
 30
0.0
  0
SEQEND
  5
17BD
  8
0
  6
CONTINUOUS
 62
     7
  0
ARC
  5
60E
  8
0
  6
CONTINUOUS
 62
     7
 10
12.6353585073861
 20
9.542856782253981
 30
0.0
 40
0.6611882943084579
 50
343.0718578478
 51
25.02899335590001
  0
ARC
  5
60F
  8
0
  6
CONTINUOUS
 62
     7
 10
13.1600314480861
 20
9.78122829895398
 30
0.0
 40
0.0851468808445836
 50
29.0630315342
 51
115.9493338722999
  0
LINE
  5
610
  8
0
  6
CONTINUOUS
 62
     7
 10
12.84576716088609
 20
9.75013648745398
 30
0.0
 11
13.1227732012861
 21
9.85779078555398
 31
0.0
  0
ARC
  5
611
  8
0
  6
CONTINUOUS
 62
     7
 10
12.7405375354861
 20
9.79917337735398
 30
0.0
 40
0.0883031167217751
 50
176.7710969034
 51
230.9770664705
  0
LINE
  5
612
  8
0
  6
CONTINUOUS
 62
     7
 10
12.6539071638861
 20
9.916770962953981
 30
0.0
 11
12.6523746018861
 21
9.80414706505398
 31
0.0
  0
LINE
  5
613
  8
0
  6
CONTINUOUS
 62
     7
 10
13.3836581912861
 20
10.09235057125398
 30
0.0
 11
12.8861571552861
 21
9.972650797053982
 31
0.0
  0
LINE
  5
614
  8
0
  6
CONTINUOUS
 62
     7
 10
12.6540228506861
 20
9.916798797153982
 30
0.0
 11
12.6539071638861
 21
9.916770962953981
 31
0.0
  0
POLYLINE
  5
615
  8
0
  6
CONTINUOUS
 62
     7
 66
     1
 10
0.0
 20
0.0
 30
0.0
 70
   128
  0
VERTEX
  5
164F
  8
0
  6
CONTINUOUS
 62
     7
 10
13.54582519908609
 20
10.13136829605397
 30
0.0
  0
VERTEX
  5
1650
  8
0
  6
CONTINUOUS
 62
     7
 10
13.5439142920861
 20
10.14164807155397
 30
0.0
  0
VERTEX
  5
1651
  8
0
  6
CONTINUOUS
 62
     7
 10
13.5439026125861
 20
10.14167582005398
 30
0.0
  0
SEQEND
  5
17BE
  8
0
  6
CONTINUOUS
 62
     7
  0
ARC
  5
616
  8
0
  6
CONTINUOUS
 62
     7
 10
13.5102051551861
 20
10.13177147355398
 30
0.0
 40
0.0356223256030955
 50
268.6624682231999
 51
359.3515061583001
  0
LINE
  5
617
  8
0
  6
CONTINUOUS
 62
     7
 10
12.6539071638861
 20
9.916770962953981
 30
0.0
 11
12.6514338233861
 21
9.91864722845397
 31
0.0
  0
LINE
  5
618
  8
0
  6
CONTINUOUS
 62
     7
 10
12.60625615298608
 20
9.90790609395397
 30
0.0
 11
12.6053297667861
 21
9.839835075753971
 31
0.0
  0
ARC
  5
619
  8
0
  6
CONTINUOUS
 62
     7
 10
12.69349270038609
 20
9.83486138805398
 30
0.0
 40
0.0883031167217618
 50
176.7710969034
 51
230.9770664705
  0
LINE
  5
61A
  8
0
  6
CONTINUOUS
 62
     7
 10
13.18499161148609
 20
9.86269247655397
 30
0.0
 11
13.1874122954861
 21
9.85827823785398
 31
0.0
  0
ARC
  5
61B
  8
0
  6
CONTINUOUS
 62
     7
 10
12.5883136722861
 20
9.578544792853968
 30
0.0
 40
0.6611882943084636
 50
343.0718578478
 51
25.02899335590001
  0
ARC
  5
61C
  8
0
  6
CONTINUOUS
 62
     7
 10
13.2655085624861
 20
9.369563000253981
 30
0.0
 40
0.0475931881179808
 50
159.7636251587999
 51
229.8524028193
  0
POLYLINE
  5
61D
  8
0
  6
CONTINUOUS
 62
     7
 66
     1
 10
0.0
 20
0.0
 30
0.0
 70
   128
  0
VERTEX
  5
1652
  8
0
  6
CONTINUOUS
 62
     7
 10
12.80319489858609
 20
9.82473570595398
 30
0.0
  0
VERTEX
  5
1653
  8
0
  6
CONTINUOUS
 62
     7
 10
12.80129519088609
 20
9.83502041615398
 30
0.0
  0
VERTEX
  5
1654
  8
0
  6
CONTINUOUS
 62
     7
 10
12.79557014658609
 20
9.84275405495398
 30
0.0
  0
VERTEX
  5
1655
  8
0
  6
CONTINUOUS
 62
     7
 10
12.78689106888609
 20
9.846759037853971
 30
0.0
  0
VERTEX
  5
1656
  8
0
  6
CONTINUOUS
 62
     7
 10
12.7765795831861
 20
9.846425789253981
 30
0.0
  0
VERTEX
  5
1657
  8
0
  6
CONTINUOUS
 62
     7
 10
12.7662051984861
 20
9.84180495535398
 30
0.0
  0
VERTEX
  5
1658
  8
0
  6
CONTINUOUS
 62
     7
 10
12.7573476425861
 20
9.83360009595397
 30
0.0
  0
VERTEX
  5
1659
  8
0
  6
CONTINUOUS
 62
     7
 10
12.7513551717861
 20
9.823060234753981
 30
0.0
  0
VERTEX
  5
165A
  8
0
  6
CONTINUOUS
 62
     7
 10
12.7491400807861
 20
9.811790040953971
 30
0.0
  0
VERTEX
  5
165B
  8
0
  6
CONTINUOUS
 62
     7
 10
12.7510397874861
 20
9.801505264653981
 30
0.0
  0
VERTEX
  5
165C
  8
0
  6
CONTINUOUS
 62
     7
 10
12.7567648328861
 20
9.793771691953982
 30
0.0
  0
VERTEX
  5
165D
  8
0
  6
CONTINUOUS
 62
     7
 10
12.7654439094861
 20
9.78976664285398
 30
0.0
  0
VERTEX
  5
165E
  8
0
  6
CONTINUOUS
 62
     7
 10
12.7757553951861
 20
9.79009989155397
 30
0.0
  0
VERTEX
  5
165F
  8
0
  6
CONTINUOUS
 62
     7
 10
12.7861297798861
 20
9.794720725453981
 30
0.0
  0
VERTEX
  5
1660
  8
0
  6
CONTINUOUS
 62
     7
 10
12.7949873367861
 20
9.80292565095398
 30
0.0
  0
VERTEX
  5
1661
  8
0
  6
CONTINUOUS
 62
     7
 10
12.80097980658609
 20
9.81346544605398
 30
0.0
  0
VERTEX
  5
1662
  8
0
  6
CONTINUOUS
 62
     7
 10
12.80319489858609
 20
9.82473570595398
 30
0.0
  0
SEQEND
  5
17BF
  8
0
  6
CONTINUOUS
 62
     7
  0
LINE
  5
61E
  8
0
  6
CONTINUOUS
 62
     7
 10
12.6746900274861
 20
10.24564512435398
 30
0.0
 11
12.6680579170861
 21
9.792371525653973
 31
0.0
  0
LINE
  5
61F
  8
0
  6
CONTINUOUS
 62
     7
 10
12.88427706128608
 20
9.84415415515398
 30
0.0
 11
12.8909036803861
 21
10.29705052845398
 31
0.0
  0
POLYLINE
  5
620
  8
0
  6
CONTINUOUS
 62
     7
 66
     1
 10
0.0
 20
0.0
 30
0.0
 70
   128
  0
VERTEX
  5
1663
  8
0
  6
CONTINUOUS
 62
     7
 10
12.6680579170861
 20
9.792371525653973
 30
0.0
  0
VERTEX
  5
1664
  8
0
  6
CONTINUOUS
 62
     7
 10
12.67080490158609
 20
9.766164602253982
 30
0.0
  0
VERTEX
  5
1665
  8
0
  6
CONTINUOUS
 62
     7
 10
12.6796752544861
 20
9.742985369753981
 30
0.0
  0
VERTEX
  5
1666
  8
0
  6
CONTINUOUS
 62
     7
 10
12.6941533334861
 20
9.72418106105397
 30
0.0
  0
VERTEX
  5
1667
  8
0
  6
CONTINUOUS
 62
     7
 10
12.7133977932861
 20
9.71084437875397
 30
0.0
  0
VERTEX
  5
1668
  8
0
  6
CONTINUOUS
 62
     7
 10
12.7362900938861
 20
9.70375047655397
 30
0.0
  0
VERTEX
  5
1669
  8
0
  6
CONTINUOUS
 62
     7
 10
12.76150010158609
 20
9.703311703353968
 30
0.0
  0
VERTEX
  5
166A
  8
0
  6
CONTINUOUS
 62
     7
 10
12.7875623919861
 20
9.70955333095398
 30
0.0
  0
VERTEX
  5
166B
  8
0
  6
CONTINUOUS
 62
     7
 10
12.81296253898609
 20
9.72211286345397
 30
0.0
  0
VERTEX
  5
166C
  8
0
  6
CONTINUOUS
 62
     7
 10
12.8362242483861
 20
9.74026029265398
 30
0.0
  0
VERTEX
  5
166D
  8
0
  6
CONTINUOUS
 62
     7
 10
12.8559955941861
 20
9.76294086085398
 30
0.0
  0
VERTEX
  5
166E
  8
0
  6
CONTINUOUS
 62
     7
 10
12.8711277248861
 20
9.78883658155398
 30
0.0
  0
VERTEX
  5
166F
  8
0
  6
CONTINUOUS
 62
     7
 10
12.8807411729861
 20
9.816442462753981
 30
0.0
  0
VERTEX
  5
1670
  8
0
  6
CONTINUOUS
 62
     7
 10
12.88427706128608
 20
9.84415415515398
 30
0.0
  0
SEQEND
  5
17C0
  8
0
  6
CONTINUOUS
 62
     7
  0
LINE
  5
621
  8
0
  6
CONTINUOUS
 62
     7
 10
12.6587790608861
 20
10.24186224895398
 30
0.0
 11
12.6523763045861
 21
9.80426752975397
 31
0.0
  0
ARC
  5
622
  8
0
  6
CONTINUOUS
 62
     7
 10
12.7397524579861
 20
9.79883268145398
 30
0.0
 40
0.0875450155971164
 50
176.4407541068999
 51
231.2358516473
  0
POLYLINE
  5
623
  8
0
  6
CONTINUOUS
 62
     7
 66
     1
 10
0.0
 20
0.0
 30
0.0
 70
   128
  0
VERTEX
  5
1671
  8
0
  6
CONTINUOUS
 62
     7
 10
12.78751328608609
 20
9.83663171005398
 30
0.0
  0
VERTEX
  5
1672
  8
0
  6
CONTINUOUS
 62
     7
 10
12.78561357838609
 20
9.846916420253981
 30
0.0
  0
VERTEX
  5
1673
  8
0
  6
CONTINUOUS
 62
     7
 10
12.7855911878861
 20
9.84696931575398
 30
0.0
  0
SEQEND
  5
17C1
  8
0
  6
CONTINUOUS
 62
     7
  0
ARC
  5
624
  8
0
  6
CONTINUOUS
 62
     7
 10
12.7518949323861
 20
9.83706365405398
 30
0.0
 40
0.0356209727674493
 50
268.6604854225
 51
359.3052078451001
  0
LINE
  5
625
  8
0
  6
CONTINUOUS
 62
     7
 10
12.6110459095861
 20
10.23051356055398
 30
0.0
 11
12.6097238200861
 21
10.14015066875398
 31
0.0
  0
ARC
  5
626
  8
0
  6
CONTINUOUS
 62
     7
 10
12.6927076227861
 20
9.834520692153982
 30
0.0
 40
0.087545015597101
 50
176.4407541068999
 51
231.2358516473
  0
LINE
  5
627
  8
0
  6
CONTINUOUS
 62
     7
 10
12.59513494298609
 20
10.22673068515398
 30
0.0
 11
12.59398089578609
 21
10.14785686965398
 31
0.0
  0
LINE
  5
628
  8
0
  6
CONTINUOUS
 62
     7
 10
12.5904149509861
 20
9.90413983825398
 30
0.0
 11
12.5896498569861
 21
9.851851544553982
 31
0.0
  0
ARC
  5
629
  8
0
  6
CONTINUOUS
 62
     7
 10
12.6770260103861
 20
9.84641669625398
 30
0.0
 40
0.0875450155970974
 50
176.4407541068999
 51
231.2358516473
  0
POLYLINE
  5
62A
  8
0
  6
CONTINUOUS
 62
     7
 66
     1
 10
0.0
 20
0.0
 30
0.0
 70
   128
  0
VERTEX
  5
1674
  8
0
  6
CONTINUOUS
 62
     7
 10
11.1782023566861
 20
10.52392270555398
 30
0.0
  0
VERTEX
  5
1675
  8
0
  6
CONTINUOUS
 62
     7
 10
11.1736279292861
 20
10.53495888375397
 30
0.0
  0
VERTEX
  5
1676
  8
0
  6
CONTINUOUS
 62
     7
 10
11.1711038328861
 20
10.54718178245398
 30
0.0
  0
VERTEX
  5
1677
  8
0
  6
CONTINUOUS
 62
     7
 10
11.1710340272861
 20
10.55863519275398
 30
0.0
  0
VERTEX
  5
1678
  8
0
  6
CONTINUOUS
 62
     7
 10
11.1734296850861
 20
10.56748615805398
 30
0.0
  0
VERTEX
  5
1679
  8
0
  6
CONTINUOUS
 62
     7
 10
11.1779073992861
 20
10.57231807105398
 30
0.0
  0
VERTEX
  5
167A
  8
0
  6
CONTINUOUS
 62
     7
 10
11.1837505549861
 20
10.57235771755398
 30
0.0
  0
VERTEX
  5
167B
  8
0
  6
CONTINUOUS
 62
     7
 10
11.1900240051861
 20
10.56759870515398
 30
0.0
  0
VERTEX
  5
167C
  8
0
  6
CONTINUOUS
 62
     7
 10
11.1957237407861
 20
10.55880267065398
 30
0.0
  0
VERTEX
  5
167D
  8
0
  6
CONTINUOUS
 62
     7
 10
11.1999375690861
 20
10.54737739065398
 30
0.0
  0
VERTEX
  5
167E
  8
0
  6
CONTINUOUS
 62
     7
 10
11.2019911052861
 20
10.53515128585398
 30
0.0
  0
VERTEX
  5
167F
  8
0
  6
CONTINUOUS
 62
     7
 10
11.2015556984861
 20
10.52408112745398
 30
0.0
  0
VERTEX
  5
1680
  8
0
  6
CONTINUOUS
 62
     7
 10
11.1987010305861
 20
10.51593853635398
 30
0.0
  0
VERTEX
  5
1681
  8
0
  6
CONTINUOUS
 62
     7
 10
11.1938839679861
 20
10.51202670235398
 30
0.0
  0
SEQEND
  5
17C2
  8
0
  6
CONTINUOUS
 62
     7
  0
LINE
  5
62B
  8
0
  6
CONTINUOUS
 62
     7
 10
11.1938839679861
 20
10.51202670235398
 30
0.0
 11
11.2048278000861
 21
10.42037051805398
 31
0.0
  0
POLYLINE
  5
62C
  8
0
  6
CONTINUOUS
 62
     7
 66
     1
 10
0.0
 20
0.0
 30
0.0
 70
   128
  0
VERTEX
  5
1682
  8
0
  6
CONTINUOUS
 62
     7
 10
11.2048278000861
 20
10.42037051805398
 30
0.0
  0
VERTEX
  5
1683
  8
0
  6
CONTINUOUS
 62
     7
 10
11.2188201856861
 20
10.42184589895398
 30
0.0
  0
VERTEX
  5
1684
  8
0
  6
CONTINUOUS
 62
     7
 10
11.2308819596861
 20
10.43050737805398
 30
0.0
  0
VERTEX
  5
1685
  8
0
  6
CONTINUOUS
 62
     7
 10
11.24029398368609
 20
10.44583854965398
 30
0.0
  0
VERTEX
  5
1686
  8
0
  6
CONTINUOUS
 62
     7
 10
11.24649508588609
 20
10.46692529165398
 30
0.0
  0
VERTEX
  5
1687
  8
0
  6
CONTINUOUS
 62
     7
 10
11.2491155505861
 20
10.49251043945398
 30
0.0
  0
VERTEX
  5
1688
  8
0
  6
CONTINUOUS
 62
     7
 10
11.2479991437861
 20
10.52106850065397
 30
0.0
  0
VERTEX
  5
1689
  8
0
  6
CONTINUOUS
 62
     7
 10
11.2432124251861
 20
10.55089684075397
 30
0.0
  0
VERTEX
  5
168A
  8
0
  6
CONTINUOUS
 62
     7
 10
11.2350407873861
 20
10.58021703825397
 30
0.0
  0
VERTEX
  5
168B
  8
0
  6
CONTINUOUS
 62
     7
 10
11.2239714368861
 20
10.60728095785398
 30
0.0
  0
VERTEX
  5
168C
  8
0
  6
CONTINUOUS
 62
     7
 10
11.21066434878609
 20
10.63047497215398
 30
0.0
  0
VERTEX
  5
168D
  8
0
  6
CONTINUOUS
 62
     7
 10
11.19591291638609
 20
10.64841627085398
 30
0.0
  0
VERTEX
  5
168E
  8
0
  6
CONTINUOUS
 62
     7
 10
11.1805966440861
 20
10.66003512955398
 30
0.0
  0
VERTEX
  5
168F
  8
0
  6
CONTINUOUS
 62
     7
 10
11.16562871638608
 20
10.66463881025398
 30
0.0
  0
VERTEX
  5
1690
  8
0
  6
CONTINUOUS
 62
     7
 10
11.1519015462861
 20
10.66195286855398
 30
0.0
  0
VERTEX
  5
1691
  8
0
  6
CONTINUOUS
 62
     7
 10
11.1402335716861
 20
10.65213738645398
 30
0.0
  0
VERTEX
  5
1692
  8
0
  6
CONTINUOUS
 62
     7
 10
11.1313204591861
 20
10.63577760745398
 30
0.0
  0
VERTEX
  5
1693
  8
0
  6
CONTINUOUS
 62
     7
 10
11.12569362408609
 20
10.61384894465398
 30
0.0
  0
VERTEX
  5
1694
  8
0
  6
CONTINUOUS
 62
     7
 10
11.1236885480861
 20
10.58765882695398
 30
0.0
  0
VERTEX
  5
1695
  8
0
  6
CONTINUOUS
 62
     7
 10
11.12542477368609
 20
10.55876871255398
 30
0.0
  0
VERTEX
  5
1696
  8
0
  6
CONTINUOUS
 62
     7
 10
11.1307987884861
 20
10.52890113635398
 30
0.0
  0
VERTEX
  5
1697
  8
0
  6
CONTINUOUS
 62
     7
 10
11.1394901870861
 20
10.49983678575397
 30
0.0
  0
VERTEX
  5
1698
  8
0
  6
CONTINUOUS
 62
     7
 10
11.1509807643861
 20
10.47330859365397
 30
0.0
  0
VERTEX
  5
1699
  8
0
  6
CONTINUOUS
 62
     7
 10
11.1645854376861
 20
10.45089820195398
 30
0.0
  0
SEQEND
  5
17C3
  8
0
  6
CONTINUOUS
 62
     7
  0
LINE
  5
62D
  8
0
  6
CONTINUOUS
 62
     7
 10
11.1645854376861
 20
10.45089820195398
 30
0.0
 11
11.1782023566861
 21
10.52392270555398
 31
0.0
  0
LINE
  5
62E
  8
0
  6
CONTINUOUS
 62
     7
 10
11.11079228318608
 20
10.69754432815398
 30
0.0
 11
11.00352732878608
 21
10.51000621945398
 31
0.0
  0
POLYLINE
  5
62F
  8
0
  6
CONTINUOUS
 62
     7
 66
     1
 10
0.0
 20
0.0
 30
0.0
 70
   128
  0
VERTEX
  5
169A
  8
0
  6
CONTINUOUS
 62
     7
 10
11.26522200078609
 20
10.58039460505398
 30
0.0
  0
VERTEX
  5
169B
  8
0
  6
CONTINUOUS
 62
     7
 10
11.2539108734861
 20
10.61403693955398
 30
0.0
  0
VERTEX
  5
169C
  8
0
  6
CONTINUOUS
 62
     7
 10
11.2401069471861
 20
10.64503160205398
 30
0.0
  0
VERTEX
  5
169D
  8
0
  6
CONTINUOUS
 62
     7
 10
11.2243202198861
 20
10.67223345345398
 30
0.0
  0
VERTEX
  5
169E
  8
0
  6
CONTINUOUS
 62
     7
 10
11.20713394878609
 20
10.69463761075398
 30
0.0
  0
VERTEX
  5
169F
  8
0
  6
CONTINUOUS
 62
     7
 10
11.1891830926861
 20
10.71141618025398
 30
0.0
  0
VERTEX
  5
16A0
  8
0
  6
CONTINUOUS
 62
     7
 10
11.1711308622861
 20
10.72194939815397
 30
0.0
  0
VERTEX
  5
16A1
  8
0
  6
CONTINUOUS
 62
     7
 10
11.1536442097861
 20
10.72584797235398
 30
0.0
  0
VERTEX
  5
16A2
  8
0
  6
CONTINUOUS
 62
     7
 10
11.1373691963861
 20
10.72296802025398
 30
0.0
  0
VERTEX
  5
16A3
  8
0
  6
CONTINUOUS
 62
     7
 10
11.1229071160861
 20
10.71341582945398
 30
0.0
  0
VERTEX
  5
16A4
  8
0
  6
CONTINUOUS
 62
     7
 10
11.11079228318608
 20
10.69754432815398
 30
0.0
  0
SEQEND
  5
17C4
  8
0
  6
CONTINUOUS
 62
     7
  0
LINE
  5
630
  8
0
  6
CONTINUOUS
 62
     7
 10
11.3638633180861
 20
10.23665687955398
 30
0.0
 11
11.26522200078609
 21
10.58039460505398
 31
0.0
  0
ARC
  5
631
  8
0
  6
CONTINUOUS
 62
     7
 10
10.5001850598861
 20
9.98518593325398
 30
0.0
 40
0.8995430898391399
 50
0.662749638899993
 51
16.2335929801
  0
LINE
  5
632
  8
0
  6
CONTINUOUS
 62
     7
 10
11.3370815878861
 20
10.04306862575398
 30
0.0
 11
11.3996679712861
 21
9.995590863053973
 31
0.0
  0
LINE
  5
633
  8
0
  6
CONTINUOUS
 62
     7
 10
11.3357096455861
 20
9.95854746805398
 30
0.0
 11
11.3370815878861
 21
10.04306862575398
 31
0.0
  0
LINE
  5
634
  8
0
  6
CONTINUOUS
 62
     7
 10
11.3949073663861
 20
9.913640330353982
 30
0.0
 11
11.3357096455861
 21
9.95854746805398
 31
0.0
  0
ARC
  5
635
  8
0
  6
CONTINUOUS
 62
     7
 10
11.8777770023861
 20
10.31423341745398
 30
0.0
 40
0.9177938209331428
 50
184.5531959525
 51
204.8518970552999
  0
POLYLINE
  5
636
  8
0
  6
CONTINUOUS
 62
     7
 66
     1
 10
0.0
 20
0.0
 30
0.0
 70
   128
  0
VERTEX
  5
16A5
  8
0
  6
CONTINUOUS
 62
     7
 10
11.1930970329861
 20
9.74031350875398
 30
0.0
  0
VERTEX
  5
16A6
  8
0
  6
CONTINUOUS
 62
     7
 10
11.2013789644861
 20
9.735652260253973
 30
0.0
  0
VERTEX
  5
16A7
  8
0
  6
CONTINUOUS
 62
     7
 10
11.2287825671861
 20
9.72438128375397
 30
0.0
  0
VERTEX
  5
16A8
  8
0
  6
CONTINUOUS
 62
     7
 10
11.2554074347861
 20
9.719876901853981
 30
0.0
  0
VERTEX
  5
16A9
  8
0
  6
CONTINUOUS
 62
     7
 10
11.2808282178861
 20
9.722211038253981
 30
0.0
  0
VERTEX
  5
16AA
  8
0
  6
CONTINUOUS
 62
     7
 10
11.3046388115861
 20
9.73134641575398
 30
0.0
  0
VERTEX
  5
16AB
  8
0
  6
CONTINUOUS
 62
     7
 10
11.32645883058609
 20
9.747137115353981
 30
0.0
  0
VERTEX
  5
16AC
  8
0
  6
CONTINUOUS
 62
     7
 10
11.34593969888608
 20
9.76933083375397
 30
0.0
  0
VERTEX
  5
16AD
  8
0
  6
CONTINUOUS
 62
     7
 10
11.3627701752861
 20
9.797573057253981
 30
0.0
  0
VERTEX
  5
16AE
  8
0
  6
CONTINUOUS
 62
     7
 10
11.3766814159861
 20
9.831412575053982
 30
0.0
  0
VERTEX
  5
16AF
  8
0
  6
CONTINUOUS
 62
     7
 10
11.3874511535861
 20
9.870308799253982
 30
0.0
  0
VERTEX
  5
16B0
  8
0
  6
CONTINUOUS
 62
     7
 10
11.3949073663861
 20
9.913640330353982
 30
0.0
  0
SEQEND
  5
17C5
  8
0
  6
CONTINUOUS
 62
     7
  0
LINE
  5
637
  8
0
  6
CONTINUOUS
 62
     7
 10
11.0220774052861
 20
10.19646754375397
 30
0.0
 11
10.9628796844861
 21
10.24137468155398
 31
0.0
  0
LINE
  5
638
  8
0
  6
CONTINUOUS
 62
     7
 10
11.0234493475861
 20
10.28098870145398
 30
0.0
 11
11.0220774052861
 21
10.19646754375397
 31
0.0
  0
LINE
  5
639
  8
0
  6
CONTINUOUS
 62
     7
 10
10.96086296418609
 20
10.32846646415398
 30
0.0
 11
11.0234493475861
 21
10.28098870145398
 31
0.0
  0
ARC
  5
63A
  8
0
  6
CONTINUOUS
 62
     7
 10
11.3649571338861
 20
10.32928195725398
 30
0.0
 40
0.4040949925411725
 50
153.4337618411
 51
180.1156271332
  0
LINE
  5
63B
  8
0
  6
CONTINUOUS
 62
     7
 10
11.2062159831861
 20
10.29377231795398
 30
0.0
 11
11.20721774098609
 21
10.35548754415398
 31
0.0
  0
ARC
  5
63C
  8
0
  6
CONTINUOUS
 62
     7
 10
11.4295212483861
 20
10.20686303105398
 30
0.0
 40
0.3433856436503044
 50
169.0025435651
 51
216.6034659436999
  0
LINE
  5
63D
  8
0
  6
CONTINUOUS
 62
     7
 10
11.1990775501861
 20
9.85399535795398
 30
0.0
 11
11.20090247338609
 21
9.96642328205398
 31
0.0
  0
POLYLINE
  5
63E
  8
0
  6
CONTINUOUS
 62
     7
 66
     1
 10
0.0
 20
0.0
 30
0.0
 70
   128
  0
VERTEX
  5
16B1
  8
0
  6
CONTINUOUS
 62
     7
 10
11.20090247338609
 20
9.96642328205398
 30
0.0
  0
VERTEX
  5
16B2
  8
0
  6
CONTINUOUS
 62
     7
 10
11.2189610094861
 20
9.96473538335398
 30
0.0
  0
VERTEX
  5
16B3
  8
0
  6
CONTINUOUS
 62
     7
 10
11.23542435348609
 20
9.97055563315398
 30
0.0
  0
VERTEX
  5
16B4
  8
0
  6
CONTINUOUS
 62
     7
 10
11.24961781638609
 20
9.98364549655398
 30
0.0
  0
VERTEX
  5
16B5
  8
0
  6
CONTINUOUS
 62
     7
 10
11.26095972358609
 20
10.00346852105398
 30
0.0
  0
VERTEX
  5
16B6
  8
0
  6
CONTINUOUS
 62
     7
 10
11.2689852523861
 20
10.02921234305398
 30
0.0
  0
VERTEX
  5
16B7
  8
0
  6
CONTINUOUS
 62
     7
 10
11.27336550878609
 20
10.05982191675398
 30
0.0
  0
VERTEX
  5
16B8
  8
0
  6
CONTINUOUS
 62
     7
 10
11.2739209802861
 20
10.09404281145397
 30
0.0
  0
VERTEX
  5
16B9
  8
0
  6
CONTINUOUS
 62
     7
 10
11.27062890238609
 20
10.13047258305398
 30
0.0
  0
VERTEX
  5
16BA
  8
0
  6
CONTINUOUS
 62
     7
 10
11.2636241924861
 20
10.16761827985398
 30
0.0
  0
VERTEX
  5
16BB
  8
0
  6
CONTINUOUS
 62
     7
 10
11.2531939090861
 20
10.20395759925398
 30
0.0
  0
VERTEX
  5
16BC
  8
0
  6
CONTINUOUS
 62
     7
 10
11.2397655150861
 20
10.23800128505398
 30
0.0
  0
VERTEX
  5
16BD
  8
0
  6
CONTINUOUS
 62
     7
 10
11.2238893309861
 20
10.26835415405397
 30
0.0
  0
VERTEX
  5
16BE
  8
0
  6
CONTINUOUS
 62
     7
 10
11.2062159831861
 20
10.29377231795398
 30
0.0
  0
SEQEND
  5
17C6
  8
0
  6
CONTINUOUS
 62
     7
  0
LINE
  5
63F
  8
0
  6
CONTINUOUS
 62
     7
 10
11.4449433031861
 20
10.25593387405398
 30
0.0
 11
11.3463019858861
 21
10.59967159955398
 31
0.0
  0
LINE
  5
640
  8
0
  6
CONTINUOUS
 62
     7
 10
11.3996679712861
 20
9.995590863053973
 30
0.0
 11
11.48074795638609
 21
10.01486785755398
 31
0.0
  0
ARC
  5
641
  8
0
  6
CONTINUOUS
 62
     7
 10
10.5812650449861
 20
10.00446292775398
 30
0.0
 40
0.8995430898390607
 50
0.662749638899993
 51
16.2335929801
  0
POLYLINE
  5
642
  8
0
  6
CONTINUOUS
 62
     7
 66
     1
 10
0.0
 20
0.0
 30
0.0
 70
   128
  0
VERTEX
  5
16BF
  8
0
  6
CONTINUOUS
 62
     7
 10
11.3463019858861
 20
10.59967159955398
 30
0.0
  0
VERTEX
  5
16C0
  8
0
  6
CONTINUOUS
 62
     7
 10
11.3349908584861
 20
10.63331393405397
 30
0.0
  0
VERTEX
  5
16C1
  8
0
  6
CONTINUOUS
 62
     7
 10
11.3211869322861
 20
10.66430859655397
 30
0.0
  0
VERTEX
  5
16C2
  8
0
  6
CONTINUOUS
 62
     7
 10
11.3054002049861
 20
10.69151044795398
 30
0.0
  0
VERTEX
  5
16C3
  8
0
  6
CONTINUOUS
 62
     7
 10
11.2882139338861
 20
10.71391460525398
 30
0.0
  0
VERTEX
  5
16C4
  8
0
  6
CONTINUOUS
 62
     7
 10
11.2702630776861
 20
10.73069317475398
 30
0.0
  0
VERTEX
  5
16C5
  8
0
  6
CONTINUOUS
 62
     7
 10
11.2522108473861
 20
10.74122639265398
 30
0.0
  0
VERTEX
  5
16C6
  8
0
  6
CONTINUOUS
 62
     7
 10
11.2347241948861
 20
10.74512496685398
 30
0.0
  0
VERTEX
  5
16C7
  8
0
  6
CONTINUOUS
 62
     7
 10
11.2241494596861
 20
10.74406610505398
 30
0.0
  0
SEQEND
  5
17C7
  8
0
  6
CONTINUOUS
 62
     7
  0
LINE
  5
643
  8
0
  6
CONTINUOUS
 62
     7
 10
11.2048278000861
 20
10.42037051805398
 30
0.0
 11
11.2249277167861
 21
10.42514932975398
 31
0.0
  0
ARC
  5
644
  8
0
  6
CONTINUOUS
 62
     7
 10
11.3937691767861
 20
10.60468744165398
 30
0.0
 40
0.1891260523404754
 50
170.6542095545
 51
187.7351632766
  0
POLYLINE
  5
645
  8
0
  6
CONTINUOUS
 62
     7
 66
     1
 10
0.0
 20
0.0
 30
0.0
 70
   128
  0
VERTEX
  5
16C8
  8
0
  6
CONTINUOUS
 62
     7
 10
11.3623128457861
 20
9.741583274153982
 30
0.0
  0
VERTEX
  5
16C9
  8
0
  6
CONTINUOUS
 62
     7
 10
11.38571879668609
 20
9.750623410253981
 30
0.0
  0
VERTEX
  5
16CA
  8
0
  6
CONTINUOUS
 62
     7
 10
11.4075388155861
 20
9.766414109853981
 30
0.0
  0
VERTEX
  5
16CB
  8
0
  6
CONTINUOUS
 62
     7
 10
11.42701968388609
 20
9.78860782825398
 30
0.0
  0
VERTEX
  5
16CC
  8
0
  6
CONTINUOUS
 62
     7
 10
11.4438501603861
 20
9.816850051753981
 30
0.0
  0
VERTEX
  5
16CD
  8
0
  6
CONTINUOUS
 62
     7
 10
11.4577614009861
 20
9.850689569553982
 30
0.0
  0
VERTEX
  5
16CE
  8
0
  6
CONTINUOUS
 62
     7
 10
11.4629585828861
 20
9.867427804453982
 30
0.0
  0
SEQEND
  5
17C8
  8
0
  6
CONTINUOUS
 62
     7
  0
LINE
  5
646
  8
0
  6
CONTINUOUS
 62
     7
 10
11.1938839679861
 20
10.51202670235398
 30
0.0
 11
11.2475939380861
 21
10.52479639875397
 31
0.0
  0
LINE
  5
647
  8
0
  6
CONTINUOUS
 62
     7
 10
11.20090247338609
 20
9.96642328205398
 30
0.0
 11
11.24309900858609
 21
9.976455626953982
 31
0.0
  0
ARC
  5
648
  8
0
  6
CONTINUOUS
 62
     7
 10
11.5184819854861
 20
10.22840809765398
 30
0.0
 40
0.3510763552560098
 50
170.6141404595999
 51
216.1337183736999
  0
LINE
  5
649
  8
0
  6
CONTINUOUS
 62
     7
 10
12.8905104187861
 20
10.27017321905398
 30
0.0
 11
12.9965312696861
 21
10.32216378655397
 31
0.0
  0
LINE
  5
64A
  8
0
  6
CONTINUOUS
 62
     7
 10
12.6630904302861
 20
10.48271844395397
 30
0.0
 11
12.6624892959861
 21
10.44568440385398
 31
0.0
  0
LINE
  5
64B
  8
0
  6
CONTINUOUS
 62
     7
 10
12.82662235848609
 20
10.60579359235398
 30
0.0
 11
12.6630904302861
 21
10.48271844395397
 31
0.0
  0
LINE
  5
64C
  8
0
  6
CONTINUOUS
 62
     7
 10
12.8254790732861
 20
10.53535929695398
 30
0.0
 11
12.82662235848609
 21
10.60579359235398
 31
0.0
  0
LINE
  5
64D
  8
0
  6
CONTINUOUS
 62
     7
 10
12.8736888187861
 20
10.49589768445398
 30
0.0
 11
12.8254790732861
 21
10.53535929695398
 31
0.0
  0
LINE
  5
64E
  8
0
  6
CONTINUOUS
 62
     7
 10
13.14970745558609
 20
10.60683250905397
 30
0.0
 11
13.6902408268861
 21
10.73534583835398
 31
0.0
  0
LINE
  5
64F
  8
0
  6
CONTINUOUS
 62
     7
 10
12.9432942193861
 20
10.66159765235398
 30
0.0
 11
13.0416008828861
 21
10.58112986735398
 31
0.0
  0
LINE
  5
650
  8
0
  6
CONTINUOUS
 62
     7
 10
11.8541198201861
 20
10.40264337565398
 30
0.0
 11
12.9432942193861
 21
10.66159765235398
 31
0.0
  0
LINE
  5
651
  8
0
  6
CONTINUOUS
 62
     7
 10
11.5305359154861
 20
10.37088029405397
 30
0.0
 11
11.8541198201861
 21
10.40264337565398
 31
0.0
  0
LINE
  5
652
  8
0
  6
CONTINUOUS
 62
     7
 10
11.0981093390861
 20
10.26806965935398
 30
0.0
 11
11.2062159831861
 21
10.29377231795398
 31
0.0
  0
LINE
  5
653
  8
0
  6
CONTINUOUS
 62
     7
 10
11.4195310521861
 20
10.34448857565397
 30
0.0
 11
11.5305359154861
 21
10.37088029405397
 31
0.0
  0
LINE
  5
654
  8
0
  6
CONTINUOUS
 62
     7
 10
11.0990117517861
 20
10.32366453805398
 30
0.0
 11
11.0981093390861
 21
10.26806965935398
 31
0.0
  0
LINE
  5
655
  8
0
  6
CONTINUOUS
 62
     7
 10
11.20813236908609
 20
10.41183497715398
 30
0.0
 11
11.0990117517861
 21
10.32366453805398
 31
0.0
  0
LINE
  5
656
  8
0
  6
CONTINUOUS
 62
     7
 10
11.20721774098609
 20
10.35548754415398
 30
0.0
 11
11.20813236908609
 21
10.41183497715398
 31
0.0
  0
LINE
  5
657
  8
0
  6
CONTINUOUS
 62
     7
 10
14.6675449728861
 20
11.23432005335398
 30
0.0
 11
11.3879372840861
 21
10.45458410135398
 31
0.0
  0
LINE
  5
658
  8
0
  6
CONTINUOUS
 62
     7
 10
14.6675449728861
 20
11.23432005335398
 30
0.0
 11
14.6652584025861
 21
11.09345147095398
 31
0.0
  0
LINE
  5
659
  8
0
  6
CONTINUOUS
 62
     7
 10
14.65915528838609
 20
10.71745732315397
 30
0.0
 11
14.6571182117861
 21
10.59195928475398
 31
0.0
  0
LINE
  5
65A
  8
0
  6
CONTINUOUS
 62
     7
 10
14.4376994731861
 20
10.53979186255398
 30
0.0
 11
14.6571182117861
 21
10.59195928475398
 31
0.0
  0
POLYLINE
  5
65B
  8
0
  6
CONTINUOUS
 62
     7
 66
     1
 10
0.0
 20
0.0
 30
0.0
 70
   128
  0
VERTEX
  5
16CF
  8
0
  6
CONTINUOUS
 62
     7
 10
14.3452228734861
 20
10.34277034255398
 30
0.0
  0
VERTEX
  5
16D0
  8
0
  6
CONTINUOUS
 62
     7
 10
14.3337949441861
 20
10.36402426985398
 30
0.0
  0
VERTEX
  5
16D1
  8
0
  6
CONTINUOUS
 62
     7
 10
14.3282412545861
 20
10.38890784255398
 30
0.0
  0
VERTEX
  5
16D2
  8
0
  6
CONTINUOUS
 62
     7
 10
14.3288812332861
 20
10.41598907855398
 30
0.0
  0
VERTEX
  5
16D3
  8
0
  6
CONTINUOUS
 62
     7
 10
14.3356782124861
 20
10.44370957835398
 30
0.0
  0
VERTEX
  5
16D4
  8
0
  6
CONTINUOUS
 62
     7
 10
14.3482406280861
 20
10.47047401605398
 30
0.0
  0
VERTEX
  5
16D5
  8
0
  6
CONTINUOUS
 62
     7
 10
14.3658460061861
 20
10.49474228105398
 30
0.0
  0
VERTEX
  5
16D6
  8
0
  6
CONTINUOUS
 62
     7
 10
14.38748080768609
 20
10.51511775095398
 30
0.0
  0
VERTEX
  5
16D7
  8
0
  6
CONTINUOUS
 62
     7
 10
14.4119003658861
 20
10.53042796025398
 30
0.0
  0
VERTEX
  5
16D8
  8
0
  6
CONTINUOUS
 62
     7
 10
14.4376994731861
 20
10.53979186255398
 30
0.0
  0
SEQEND
  5
17C9
  8
0
  6
CONTINUOUS
 62
     7
  0
LINE
  5
65C
  8
0
  6
CONTINUOUS
 62
     7
 10
14.9550503622861
 20
9.524759559353981
 30
0.0
 11
14.3452228734861
 21
10.34277034255398
 31
0.0
  0
ARC
  5
65D
  8
0
  6
CONTINUOUS
 62
     7
 10
14.18602582598609
 20
8.977055914853981
 30
0.0
 40
0.9441281796180612
 50
358.3770031451
 51
35.4586855937
  0
LINE
  5
65E
  8
0
  6
CONTINUOUS
 62
     7
 10
14.1568153314861
 20
8.718991556753982
 30
0.0
 11
15.1297752474861
 21
8.95031551325397
 31
0.0
  0
POLYLINE
  5
65F
  8
0
  6
CONTINUOUS
 62
     7
 66
     1
 10
0.0
 20
0.0
 30
0.0
 70
   128
  0
VERTEX
  5
16D9
  8
0
  6
CONTINUOUS
 62
     7
 10
14.1078334507861
 20
8.91779075755397
 30
0.0
  0
VERTEX
  5
16DA
  8
0
  6
CONTINUOUS
 62
     7
 10
14.0866371912861
 20
8.897031804753981
 30
0.0
  0
VERTEX
  5
16DB
  8
0
  6
CONTINUOUS
 62
     7
 10
14.06955431858609
 20
8.872539705153981
 30
0.0
  0
VERTEX
  5
16DC
  8
0
  6
CONTINUOUS
 62
     7
 10
14.0575610154861
 20
8.845713823553968
 30
0.0
  0
VERTEX
  5
16DD
  8
0
  6
CONTINUOUS
 62
     7
 10
14.0513424821861
 20
8.81808652815398
 30
0.0
  0
VERTEX
  5
16DE
  8
0
  6
CONTINUOUS
 62
     7
 10
14.0512536187861
 20
8.79123626155398
 30
0.0
  0
VERTEX
  5
16DF
  8
0
  6
CONTINUOUS
 62
     7
 10
14.05730011518609
 20
8.766696770153981
 30
0.0
  0
VERTEX
  5
16E0
  8
0
  6
CONTINUOUS
 62
     7
 10
14.0691357743861
 20
8.745870061853982
 30
0.0
  0
VERTEX
  5
16E1
  8
0
  6
CONTINUOUS
 62
     7
 10
14.0860849580861
 20
8.72994573085398
 30
0.0
  0
VERTEX
  5
16E2
  8
0
  6
CONTINUOUS
 62
     7
 10
14.1071793987861
 20
8.719833578253981
 30
0.0
  0
VERTEX
  5
16E3
  8
0
  6
CONTINUOUS
 62
     7
 10
14.13121395928609
 20
8.716111404953981
 30
0.0
  0
VERTEX
  5
16E4
  8
0
  6
CONTINUOUS
 62
     7
 10
14.1568153314861
 20
8.718991556753982
 30
0.0
  0
SEQEND
  5
17CA
  8
0
  6
CONTINUOUS
 62
     7
  0
LINE
  5
660
  8
0
  6
CONTINUOUS
 62
     7
 10
13.49034024898609
 20
9.964189007553982
 30
0.0
 11
14.1078334507861
 21
8.91779075755397
 31
0.0
  0
LINE
  5
661
  8
0
  6
CONTINUOUS
 62
     7
 10
13.4881474125861
 20
9.96933687895397
 30
0.0
 11
13.49034024898609
 21
9.964189007553982
 31
0.0
  0
LINE
  5
662
  8
0
  6
CONTINUOUS
 62
     7
 10
11.73503764568608
 20
9.70077147395397
 30
0.0
 11
11.8389056105861
 21
9.725466374653982
 31
0.0
  0
LINE
  5
663
  8
0
  6
CONTINUOUS
 62
     7
 10
12.2332333285861
 20
9.819218898753979
 30
0.0
 11
12.6540589419861
 21
9.919271371853982
 31
0.0
  0
LINE
  5
664
  8
0
  6
CONTINUOUS
 62
     7
 10
12.88618361058609
 20
9.974459664653981
 30
0.0
 11
13.3836639585861
 21
10.09273701655398
 31
0.0
  0
LINE
  5
665
  8
0
  6
CONTINUOUS
 62
     7
 10
11.4271520087861
 20
9.788791876953981
 30
0.0
 11
11.73503764568608
 21
9.70077147395397
 31
0.0
  0
LINE
  5
666
  8
0
  6
CONTINUOUS
 62
     7
 10
11.1990775501861
 20
9.85399535795398
 30
0.0
 11
11.19724829368609
 21
9.741300475553981
 31
0.0
  0
LINE
  5
667
  8
0
  6
CONTINUOUS
 62
     7
 10
11.0891416495861
 20
9.71559781685397
 30
0.0
 11
11.19724829368609
 21
9.741300475553981
 31
0.0
  0
LINE
  5
668
  8
0
  6
CONTINUOUS
 62
     7
 10
11.0928001623861
 20
9.94098757345398
 30
0.0
 11
11.0891416495861
 21
9.71559781685397
 31
0.0
  0
LINE
  5
669
  8
0
  6
CONTINUOUS
 62
     7
 10
11.2434759726861
 20
9.97681117105398
 30
0.0
 11
11.0928001623861
 21
9.94098757345398
 31
0.0
  0
ARC
  5
66A
  8
0
  6
CONTINUOUS
 62
     7
 10
12.7136169527861
 20
10.25329611275398
 30
0.0
 40
0.1593208277484342
 50
192.8127250172999
 51
249.0951864078
  0
LINE
  5
66B
  8
0
  6
CONTINUOUS
 62
     7
 10
13.0851640880861
 20
10.28068475525398
 30
0.0
 11
12.8889208502861
 21
10.16154137545398
 31
0.0
  0
ARC
  5
66C
  8
0
  6
CONTINUOUS
 62
     7
 10
14.0713951119861
 20
8.660178323653973
 30
0.0
 40
1.897022068273063
 50
113.8274470023
 51
121.3244567317
  0
LINE
  5
66D
  8
0
  6
CONTINUOUS
 62
     7
 10
11.20813236908609
 20
10.41183497715398
 30
0.0
 11
11.1610875339861
 21
10.44752298785398
 31
0.0
  0
LINE
  5
66E
  8
0
  6
CONTINUOUS
 62
     7
 10
11.0990117517861
 20
10.32366453805398
 30
0.0
 11
11.0519669165861
 21
10.35935254875398
 31
0.0
  0
LINE
  5
66F
  8
0
  6
CONTINUOUS
 62
     7
 10
11.1610875339861
 20
10.44752298785398
 30
0.0
 11
11.0519669165861
 21
10.35935254875398
 31
0.0
  0
LINE
  5
670
  8
0
  6
CONTINUOUS
 62
     7
 10
11.0981093390861
 20
10.26806965935398
 30
0.0
 11
11.05106450388609
 21
10.30375766995398
 31
0.0
  0
LINE
  5
671
  8
0
  6
CONTINUOUS
 62
     7
 10
11.0519669165861
 20
10.35935254875398
 30
0.0
 11
11.05106450388609
 21
10.30375766995398
 31
0.0
  0
LINE
  5
672
  8
0
  6
CONTINUOUS
 62
     7
 10
14.6205001377861
 20
11.27000806405397
 30
0.0
 11
14.6675449728861
 21
11.23432005335398
 31
0.0
  0
LINE
  5
673
  8
0
  6
CONTINUOUS
 62
     7
 10
14.6205001377861
 20
11.27000806405397
 30
0.0
 11
11.3753453764861
 21
10.49846339245398
 31
0.0
  0
LINE
  5
674
  8
0
  6
CONTINUOUS
 62
     7
 10
11.0928001623861
 20
9.94098757345398
 30
0.0
 11
11.0457553272861
 21
9.97667558405397
 31
0.0
  0
LINE
  5
675
  8
0
  6
CONTINUOUS
 62
     7
 10
11.0891416495861
 20
9.71559781685397
 30
0.0
 11
11.0420968143861
 21
9.75128582755398
 31
0.0
  0
LINE
  5
676
  8
0
  6
CONTINUOUS
 62
     7
 10
11.0457553272861
 20
9.97667558405397
 30
0.0
 11
11.0420968143861
 21
9.75128582755398
 31
0.0
  0
LINE
  5
677
  8
0
  6
CONTINUOUS
 62
     7
 10
11.2691089545861
 20
10.02977853715398
 30
0.0
 11
11.0457553272861
 21
9.97667558405397
 31
0.0
  0
LINE
  5
678
  8
0
  6
CONTINUOUS
 62
     7
 10
12.82662235848609
 20
10.60579359235398
 30
0.0
 11
12.79845451328609
 21
10.62716159925398
 31
0.0
  0
LINE
  5
679
  8
0
  6
CONTINUOUS
 62
     7
 10
12.6630904302861
 20
10.48271844395397
 30
0.0
 11
12.6160455950861
 21
10.51840645465398
 31
0.0
  0
LINE
  5
67A
  8
0
  6
CONTINUOUS
 62
     7
 10
12.7430465279861
 20
10.61398819485398
 30
0.0
 11
12.6160455950861
 21
10.51840645465398
 31
0.0
  0
LINE
  5
67B
  8
0
  6
CONTINUOUS
 62
     7
 10
12.6160455950861
 20
10.51840645465398
 30
0.0
 11
12.6146806726861
 21
10.43431776845397
 31
0.0
  0
ARC
  5
67C
  8
0
  6
CONTINUOUS
 62
     7
 10
12.6672193045861
 20
10.29577102455398
 30
0.0
 40
0.1658660835132534
 50
244.328926257
 51
266.5180000203
  0
LINE
  5
67D
  8
0
  6
CONTINUOUS
 62
     7
 10
13.0416008828861
 20
10.58112986735398
 30
0.0
 11
12.9945560476861
 21
10.61681787795398
 31
0.0
  0
LINE
  5
67E
  8
0
  6
CONTINUOUS
 62
     7
 10
12.9406245632861
 20
10.66096292845398
 30
0.0
 11
12.9945560476861
 21
10.61681787795398
 31
0.0
  0
LINE
  5
67F
  8
0
  6
CONTINUOUS
 62
     7
 10
13.0381192528861
 20
10.31637276595397
 30
0.0
 11
12.88986938408609
 21
10.22636715385398
 31
0.0
  0
LINE
  5
680
  8
0
  6
CONTINUOUS
 62
     7
 10
13.0381192528861
 20
10.31637276595397
 30
0.0
 11
13.0827181380861
 21
10.34265495945398
 31
0.0
  0
LINE
  5
681
  8
0
  6
CONTINUOUS
 62
     7
 10
14.1078334507861
 20
8.91779075755397
 30
0.0
 11
14.06078861568609
 21
8.953478768253973
 31
0.0
  0
LINE
  5
682
  8
0
  6
CONTINUOUS
 62
     7
 10
13.4557049778861
 20
9.978848179253982
 30
0.0
 11
14.06078861568609
 21
8.953478768253973
 31
0.0
  0
POLYLINE
  5
683
  8
0
  6
CONTINUOUS
 62
     7
 66
     1
 10
0.0
 20
0.0
 30
0.0
 70
   128
  0
VERTEX
  5
16E5
  8
0
  6
CONTINUOUS
 62
     7
 10
14.06078861568609
 20
8.953478768253973
 30
0.0
  0
VERTEX
  5
16E6
  8
0
  6
CONTINUOUS
 62
     7
 10
14.03959235608609
 20
8.932719815453968
 30
0.0
  0
VERTEX
  5
16E7
  8
0
  6
CONTINUOUS
 62
     7
 10
14.0225094833861
 20
8.908227715853968
 30
0.0
  0
VERTEX
  5
16E8
  8
0
  6
CONTINUOUS
 62
     7
 10
14.01051618038609
 20
8.881401834253982
 30
0.0
  0
VERTEX
  5
16E9
  8
0
  6
CONTINUOUS
 62
     7
 10
14.0042976470861
 20
8.85377453885397
 30
0.0
  0
VERTEX
  5
16EA
  8
0
  6
CONTINUOUS
 62
     7
 10
14.00420878368609
 20
8.826924272253981
 30
0.0
  0
VERTEX
  5
16EB
  8
0
  6
CONTINUOUS
 62
     7
 10
14.0102552799861
 20
8.802384780853968
 30
0.0
  0
VERTEX
  5
16EC
  8
0
  6
CONTINUOUS
 62
     7
 10
14.0220909391861
 20
8.781558072553981
 30
0.0
  0
VERTEX
  5
16ED
  8
0
  6
CONTINUOUS
 62
     7
 10
14.03605318828608
 20
8.767786981753982
 30
0.0
  0
SEQEND
  5
17CB
  8
0
  6
CONTINUOUS
 62
     7
  0
LINE
  5
684
  8
0
  6
CONTINUOUS
 62
     7
 10
13.6902408268861
 20
10.73534583835398
 30
0.0
 11
14.6632004890861
 21
10.96666973445398
 31
0.0
  0
LINE
  5
685
  8
0
  6
CONTINUOUS
 62
     7
 10
14.7337677417861
 20
10.91313771845397
 30
0.0
 11
14.8278574120861
 21
10.84176169715398
 31
0.0
  0
LINE
  5
686
  8
0
  6
CONTINUOUS
 62
     7
 10
11.9516573230861
 20
10.15793703665398
 30
0.0
 11
14.8278574120861
 21
10.84176169715398
 31
0.0
  0
POLYLINE
  5
687
  8
0
  6
CONTINUOUS
 62
     7
 66
     1
 10
0.0
 20
0.0
 30
0.0
 70
   128
  0
VERTEX
  5
16EE
  8
0
  6
CONTINUOUS
 62
     7
 10
11.9119040725861
 20
10.01496696265398
 30
0.0
  0
VERTEX
  5
16EF
  8
0
  6
CONTINUOUS
 62
     7
 10
11.8865896519861
 20
10.02793719275398
 30
0.0
  0
VERTEX
  5
16F0
  8
0
  6
CONTINUOUS
 62
     7
 10
11.86708671618609
 20
10.04263039495398
 30
0.0
  0
VERTEX
  5
16F1
  8
0
  6
CONTINUOUS
 62
     7
 10
11.8540620517861
 20
10.05854425465398
 30
0.0
  0
VERTEX
  5
16F2
  8
0
  6
CONTINUOUS
 62
     7
 10
11.8479608955861
 20
10.07513476435398
 30
0.0
  0
VERTEX
  5
16F3
  8
0
  6
CONTINUOUS
 62
     7
 10
11.84899182888609
 20
10.09183475935398
 30
0.0
  0
VERTEX
  5
16F4
  8
0
  6
CONTINUOUS
 62
     7
 10
11.85711954798609
 20
10.10807333595398
 30
0.0
  0
VERTEX
  5
16F5
  8
0
  6
CONTINUOUS
 62
     7
 10
11.8720662801861
 20
10.12329534555398
 30
0.0
  0
VERTEX
  5
16F6
  8
0
  6
CONTINUOUS
 62
     7
 10
11.8933210359861
 20
10.13698044165398
 30
0.0
  0
VERTEX
  5
16F7
  8
0
  6
CONTINUOUS
 62
     7
 10
11.9201571889861
 20
10.14866077105398
 30
0.0
  0
VERTEX
  5
16F8
  8
0
  6
CONTINUOUS
 62
     7
 10
11.9516573230861
 20
10.15793703665398
 30
0.0
  0
SEQEND
  5
17CC
  8
0
  6
CONTINUOUS
 62
     7
  0
POLYLINE
  5
688
  8
0
  6
CONTINUOUS
 62
     7
 66
     1
 10
0.0
 20
0.0
 30
0.0
 70
   128
  0
VERTEX
  5
16F9
  8
0
  6
CONTINUOUS
 62
     7
 10
12.3661562636861
 20
9.634379395553971
 30
0.0
  0
VERTEX
  5
16FA
  8
0
  6
CONTINUOUS
 62
     7
 10
12.3446817173861
 20
9.681570337453982
 30
0.0
  0
VERTEX
  5
16FB
  8
0
  6
CONTINUOUS
 62
     7
 10
12.3154723805861
 20
9.728075050053981
 30
0.0
  0
VERTEX
  5
16FC
  8
0
  6
CONTINUOUS
 62
     7
 10
12.2786791093861
 20
9.773653314253982
 30
0.0
  0
VERTEX
  5
16FD
  8
0
  6
CONTINUOUS
 62
     7
 10
12.2344920245861
 20
9.818069626853982
 30
0.0
  0
VERTEX
  5
16FE
  8
0
  6
CONTINUOUS
 62
     7
 10
12.18313935868609
 20
9.86109461245398
 30
0.0
  0
VERTEX
  5
16FF
  8
0
  6
CONTINUOUS
 62
     7
 10
12.1248864413861
 20
9.902505919153981
 30
0.0
  0
VERTEX
  5
1700
  8
0
  6
CONTINUOUS
 62
     7
 10
12.0600341819861
 20
9.942089654053973
 30
0.0
  0
VERTEX
  5
1701
  8
0
  6
CONTINUOUS
 62
     7
 10
11.98891758628609
 20
9.97964135095397
 30
0.0
  0
VERTEX
  5
1702
  8
0
  6
CONTINUOUS
 62
     7
 10
11.9119040725861
 20
10.01496696265398
 30
0.0
  0
SEQEND
  5
17CD
  8
0
  6
CONTINUOUS
 62
     7
  0
ARC
  5
689
  8
0
  6
CONTINUOUS
 62
     7
 10
12.2846705786861
 20
9.613679713753971
 30
0.0
 40
0.0840737395965135
 50
294.3043652509
 51
14.2532723566
  0
ARC
  5
68A
  8
0
  6
CONTINUOUS
 62
     7
 10
12.22398998138609
 20
9.71739095625397
 30
0.0
 40
0.2039590083704544
 50
263.481004997
 51
297.8508962940999
  0
LINE
  5
68B
  8
0
  6
CONTINUOUS
 62
     7
 10
12.2008339845861
 20
9.51475069155397
 30
0.0
 11
12.2318087804861
 21
9.56477341065398
 31
0.0
  0
POLYLINE
  5
68C
  8
0
  6
CONTINUOUS
 62
     7
 66
     1
 10
0.0
 20
0.0
 30
0.0
 70
   128
  0
VERTEX
  5
1703
  8
0
  6
CONTINUOUS
 62
     7
 10
12.2318087804861
 20
9.56477341065398
 30
0.0
  0
VERTEX
  5
1704
  8
0
  6
CONTINUOUS
 62
     7
 10
12.2321943998861
 20
9.56739950485398
 30
0.0
  0
VERTEX
  5
1705
  8
0
  6
CONTINUOUS
 62
     7
 10
12.2302225143861
 20
9.56992025135397
 30
0.0
  0
VERTEX
  5
1706
  8
0
  6
CONTINUOUS
 62
     7
 10
12.22619327788609
 20
9.57195193025398
 30
0.0
  0
VERTEX
  5
1707
  8
0
  6
CONTINUOUS
 62
     7
 10
12.22072025788609
 20
9.57318511645397
 30
0.0
  0
VERTEX
  5
1708
  8
0
  6
CONTINUOUS
 62
     7
 10
12.2146365393861
 20
9.57343216535398
 30
0.0
  0
VERTEX
  5
1709
  8
0
  6
CONTINUOUS
 62
     7
 10
12.2088683291861
 20
9.572655458853971
 30
0.0
  0
VERTEX
  5
170A
  8
0
  6
CONTINUOUS
 62
     7
 10
12.20429388138609
 20
9.570973169253982
 30
0.0
  0
VERTEX
  5
170B
  8
0
  6
CONTINUOUS
 62
     7
 10
12.2016095155861
 20
9.56864148375398
 30
0.0
  0
SEQEND
  5
17CE
  8
0
  6
CONTINUOUS
 62
     7
  0
LINE
  5
68D
  8
0
  6
CONTINUOUS
 62
     7
 10
12.2016095155861
 20
9.56864148375398
 30
0.0
 11
12.1706347275861
 21
9.51861876645397
 31
0.0
  0
POLYLINE
  5
68E
  8
0
  6
CONTINUOUS
 62
     7
 66
     1
 10
0.0
 20
0.0
 30
0.0
 70
   128
  0
VERTEX
  5
170C
  8
0
  6
CONTINUOUS
 62
     7
 10
12.0950922844861
 20
9.569638314453982
 30
0.0
  0
VERTEX
  5
170D
  8
0
  6
CONTINUOUS
 62
     7
 10
12.09601410128609
 20
9.56170148545398
 30
0.0
  0
VERTEX
  5
170E
  8
0
  6
CONTINUOUS
 62
     7
 10
12.0996808233861
 20
9.553878440753973
 30
0.0
  0
VERTEX
  5
170F
  8
0
  6
CONTINUOUS
 62
     7
 10
12.1060089568861
 20
9.54634717225398
 30
0.0
  0
VERTEX
  5
1710
  8
0
  6
CONTINUOUS
 62
     7
 10
12.1148546094861
 20
9.53927893815398
 30
0.0
  0
VERTEX
  5
1711
  8
0
  6
CONTINUOUS
 62
     7
 10
12.12601663838609
 20
9.53283446515398
 30
0.0
  0
VERTEX
  5
1712
  8
0
  6
CONTINUOUS
 62
     7
 10
12.1392411744861
 20
9.527160330853981
 30
0.0
  0
VERTEX
  5
1713
  8
0
  6
CONTINUOUS
 62
     7
 10
12.1542274556861
 20
9.522385584153982
 30
0.0
  0
VERTEX
  5
1714
  8
0
  6
CONTINUOUS
 62
     7
 10
12.1706347275861
 20
9.51861876645397
 30
0.0
  0
SEQEND
  5
17CF
  8
0
  6
CONTINUOUS
 62
     7
  0
POLYLINE
  5
68F
  8
0
  6
CONTINUOUS
 62
     7
 66
     1
 10
0.0
 20
0.0
 30
0.0
 70
   128
  0
VERTEX
  5
1715
  8
0
  6
CONTINUOUS
 62
     7
 10
11.7550853677861
 20
9.83626965545398
 30
0.0
  0
VERTEX
  5
1716
  8
0
  6
CONTINUOUS
 62
     7
 10
11.8161996669861
 20
9.818266669853982
 30
0.0
  0
VERTEX
  5
1717
  8
0
  6
CONTINUOUS
 62
     7
 10
11.8727050277861
 20
9.79759307315398
 30
0.0
  0
VERTEX
  5
1718
  8
0
  6
CONTINUOUS
 62
     7
 10
11.9239517398861
 20
9.77448656085398
 30
0.0
  0
VERTEX
  5
1719
  8
0
  6
CONTINUOUS
 62
     7
 10
11.9693504693861
 20
9.74921285875398
 30
0.0
  0
VERTEX
  5
171A
  8
0
  6
CONTINUOUS
 62
     7
 10
12.0083792178861
 20
9.722062575053968
 30
0.0
  0
VERTEX
  5
171B
  8
0
  6
CONTINUOUS
 62
     7
 10
12.0405892193861
 20
9.693347871953982
 30
0.0
  0
VERTEX
  5
171C
  8
0
  6
CONTINUOUS
 62
     7
 10
12.06560993598609
 20
9.66339907095398
 30
0.0
  0
VERTEX
  5
171D
  8
0
  6
CONTINUOUS
 62
     7
 10
12.0831538129861
 20
9.632560429853982
 30
0.0
  0
VERTEX
  5
171E
  8
0
  6
CONTINUOUS
 62
     7
 10
12.0930191078861
 20
9.60118656245397
 30
0.0
  0
VERTEX
  5
171F
  8
0
  6
CONTINUOUS
 62
     7
 10
12.0950922844861
 20
9.569638314453982
 30
0.0
  0
SEQEND
  5
17D0
  8
0
  6
CONTINUOUS
 62
     7
  0
ARC
  5
690
  8
0
  6
CONTINUOUS
 62
     7
 10
11.9854695500861
 20
10.82758905965398
 30
0.0
 40
1.017738194516377
 50
235.1461271714999
 51
256.9166179286999
  0
LINE
  5
691
  8
0
  6
CONTINUOUS
 62
     7
 10
11.3370815878861
 20
10.04306862575398
 30
0.0
 11
11.4038470231861
 21
9.992420652153982
 31
0.0
  0
LINE
  5
692
  8
0
  6
CONTINUOUS
 62
     7
 10
11.59240242628609
 20
10.17251901925398
 30
0.0
 11
11.4699638591861
 21
10.14340890555398
 31
0.0
  0
LINE
  5
693
  8
0
  6
CONTINUOUS
 62
     7
 10
11.7897977935861
 20
10.23819954685398
 30
0.0
 11
11.59240242628609
 21
10.17251901925398
 31
0.0
  0
LINE
  5
694
  8
0
  6
CONTINUOUS
 62
     7
 10
12.9789708550861
 20
10.52092878675398
 30
0.0
 11
11.7897977935861
 21
10.23819954685398
 31
0.0
  0
LINE
  5
695
  8
0
  6
CONTINUOUS
 62
     7
 10
12.8409726762861
 20
10.62561361475398
 30
0.0
 11
12.9789708550861
 21
10.52092878675398
 31
0.0
  0
LINE
  5
696
  8
0
  6
CONTINUOUS
 62
     7
 10
11.6517996147861
 20
10.34288437485398
 30
0.0
 11
12.7204056160861
 21
10.59694845715398
 31
0.0
  0
LINE
  5
697
  8
0
  6
CONTINUOUS
 62
     7
 10
12.8101539782861
 20
10.61828638265398
 30
0.0
 11
12.8409726762861
 21
10.62561361475398
 31
0.0
  0
LINE
  5
698
  8
0
  6
CONTINUOUS
 62
     7
 10
11.4300446281861
 20
10.30785163895397
 30
0.0
 11
11.6517996147861
 21
10.34288437485398
 31
0.0
  0
LINE
  5
699
  8
0
  6
CONTINUOUS
 62
     7
 10
11.17352842658609
 20
10.24792327845398
 30
0.0
 11
11.2282001670861
 21
10.26092163855397
 31
0.0
  0
LINE
  5
69A
  8
0
  6
CONTINUOUS
 62
     7
 10
11.1675830552861
 20
10.25243341175398
 30
0.0
 11
11.17352842658609
 21
10.24792327845398
 31
0.0
  0
LINE
  5
69B
  8
0
  6
CONTINUOUS
 62
     7
 10
10.9566839123861
 20
10.33163667505398
 30
0.0
 11
11.0234493475861
 21
10.28098870145398
 31
0.0
  0
POLYLINE
  5
69C
  8
0
  6
CONTINUOUS
 62
     7
 66
     1
 10
0.0
 20
0.0
 30
0.0
 70
   128
  0
VERTEX
  5
1720
  8
0
  6
CONTINUOUS
 62
     7
 10
10.82684782808609
 20
10.54042668185398
 30
0.0
  0
VERTEX
  5
1721
  8
0
  6
CONTINUOUS
 62
     7
 10
10.82913490908609
 20
10.51329312515398
 30
0.0
  0
VERTEX
  5
1722
  8
0
  6
CONTINUOUS
 62
     7
 10
10.8355023859861
 20
10.48622785195398
 30
0.0
  0
VERTEX
  5
1723
  8
0
  6
CONTINUOUS
 62
     7
 10
10.84592317798609
 20
10.45934600395398
 30
0.0
  0
VERTEX
  5
1724
  8
0
  6
CONTINUOUS
 62
     7
 10
10.8603528976861
 20
10.43276198125398
 30
0.0
  0
VERTEX
  5
1725
  8
0
  6
CONTINUOUS
 62
     7
 10
10.87873021878609
 20
10.40658883315398
 30
0.0
  0
VERTEX
  5
1726
  8
0
  6
CONTINUOUS
 62
     7
 10
10.9009769426861
 20
10.38093792595398
 30
0.0
  0
VERTEX
  5
1727
  8
0
  6
CONTINUOUS
 62
     7
 10
10.9269984046861
 20
10.35591839755398
 30
0.0
  0
VERTEX
  5
1728
  8
0
  6
CONTINUOUS
 62
     7
 10
10.9566839123861
 20
10.33163667505398
 30
0.0
  0
SEQEND
  5
17D1
  8
0
  6
CONTINUOUS
 62
     7
  0
POLYLINE
  5
69D
  8
0
  6
CONTINUOUS
 62
     7
 66
     1
 10
0.0
 20
0.0
 30
0.0
 70
   128
  0
VERTEX
  5
1729
  8
0
  6
CONTINUOUS
 62
     7
 10
10.4693700198861
 20
10.80290426925398
 30
0.0
  0
VERTEX
  5
172A
  8
0
  6
CONTINUOUS
 62
     7
 10
10.5316139982861
 20
10.78566179865397
 30
0.0
  0
VERTEX
  5
172B
  8
0
  6
CONTINUOUS
 62
     7
 10
10.5894345941861
 20
10.76568943885397
 30
0.0
  0
VERTEX
  5
172C
  8
0
  6
CONTINUOUS
 62
     7
 10
10.6421668223861
 20
10.74321692725398
 30
0.0
  0
VERTEX
  5
172D
  8
0
  6
CONTINUOUS
 62
     7
 10
10.6892043172861
 20
10.71850267725398
 30
0.0
  0
VERTEX
  5
172E
  8
0
  6
CONTINUOUS
 62
     7
 10
10.7300063597861
 20
10.69183075605398
 30
0.0
  0
VERTEX
  5
172F
  8
0
  6
CONTINUOUS
 62
     7
 10
10.7641035851861
 20
10.66350798885397
 30
0.0
  0
VERTEX
  5
1730
  8
0
  6
CONTINUOUS
 62
     7
 10
10.7911039739861
 20
10.63386002955398
 30
0.0
  0
VERTEX
  5
1731
  8
0
  6
CONTINUOUS
 62
     7
 10
10.8106970554861
 20
10.60322777745398
 30
0.0
  0
VERTEX
  5
1732
  8
0
  6
CONTINUOUS
 62
     7
 10
10.8226575054861
 20
10.57196350295398
 30
0.0
  0
VERTEX
  5
1733
  8
0
  6
CONTINUOUS
 62
     7
 10
10.82684782808609
 20
10.54042668185398
 30
0.0
  0
SEQEND
  5
17D2
  8
0
  6
CONTINUOUS
 62
     7
  0
POLYLINE
  5
69E
  8
0
  6
CONTINUOUS
 62
     7
 66
     1
 10
0.0
 20
0.0
 30
0.0
 70
   128
  0
VERTEX
  5
1734
  8
0
  6
CONTINUOUS
 62
     7
 10
10.4064469081861
 20
10.85692409875398
 30
0.0
  0
VERTEX
  5
1735
  8
0
  6
CONTINUOUS
 62
     7
 10
10.40543122358609
 20
10.84901492415398
 30
0.0
  0
VERTEX
  5
1736
  8
0
  6
CONTINUOUS
 62
     7
 10
10.4071816100861
 20
10.84109330635397
 30
0.0
  0
VERTEX
  5
1737
  8
0
  6
CONTINUOUS
 62
     7
 10
10.4116583193861
 20
10.83333935155398
 30
0.0
  0
VERTEX
  5
1738
  8
0
  6
CONTINUOUS
 62
     7
 10
10.41875953158609
 20
10.82592940795397
 30
0.0
  0
VERTEX
  5
1739
  8
0
  6
CONTINUOUS
 62
     7
 10
10.4283237277861
 20
10.81903200965398
 30
0.0
  0
VERTEX
  5
173A
  8
0
  6
CONTINUOUS
 62
     7
 10
10.4401334240861
 20
10.81280399805398
 30
0.0
  0
VERTEX
  5
173B
  8
0
  6
CONTINUOUS
 62
     7
 10
10.4539200687861
 20
10.80738699345397
 30
0.0
  0
VERTEX
  5
173C
  8
0
  6
CONTINUOUS
 62
     7
 10
10.4693700198861
 20
10.80290426925398
 30
0.0
  0
SEQEND
  5
17D3
  8
0
  6
CONTINUOUS
 62
     7
  0
LINE
  5
69F
  8
0
  6
CONTINUOUS
 62
     7
 10
10.5230511176861
 20
10.84198870325398
 30
0.0
 11
10.4064469081861
 21
10.85692409875398
 31
0.0
  0
POLYLINE
  5
6A0
  8
0
  6
CONTINUOUS
 62
     7
 66
     1
 10
0.0
 20
0.0
 30
0.0
 70
   128
  0
VERTEX
  5
173D
  8
0
  6
CONTINUOUS
 62
     7
 10
10.5310733373861
 20
10.85494404175398
 30
0.0
  0
VERTEX
  5
173E
  8
0
  6
CONTINUOUS
 62
     7
 10
10.5365463573861
 20
10.85371085555398
 30
0.0
  0
VERTEX
  5
173F
  8
0
  6
CONTINUOUS
 62
     7
 10
10.5405755202861
 20
10.85167923255398
 30
0.0
  0
VERTEX
  5
1740
  8
0
  6
CONTINUOUS
 62
     7
 10
10.5425474793861
 20
10.84915843015398
 30
0.0
  0
VERTEX
  5
1741
  8
0
  6
CONTINUOUS
 62
     7
 10
10.5421618599861
 20
10.84653233595398
 30
0.0
  0
VERTEX
  5
1742
  8
0
  6
CONTINUOUS
 62
     7
 10
10.5394774941861
 20
10.84420065045398
 30
0.0
  0
VERTEX
  5
1743
  8
0
  6
CONTINUOUS
 62
     7
 10
10.53490304638609
 20
10.84251836085398
 30
0.0
  0
VERTEX
  5
1744
  8
0
  6
CONTINUOUS
 62
     7
 10
10.52913483618609
 20
10.84174165435398
 30
0.0
  0
VERTEX
  5
1745
  8
0
  6
CONTINUOUS
 62
     7
 10
10.5230511176861
 20
10.84198870325398
 30
0.0
  0
SEQEND
  5
17D4
  8
0
  6
CONTINUOUS
 62
     7
  0
LINE
  5
6A1
  8
0
  6
CONTINUOUS
 62
     7
 10
10.4144691199861
 20
10.86987943545398
 30
0.0
 11
10.5310733373861
 21
10.85494404175398
 31
0.0
  0
ARC
  5
6A2
  8
0
  6
CONTINUOUS
 62
     7
 10
10.5099817944861
 20
10.74138282245398
 30
0.0
 40
0.1601063725094559
 50
85.99633090030001
 51
126.623750218
  0
ARC
  5
6A3
  8
0
  6
CONTINUOUS
 62
     7
 10
10.5338074588861
 20
10.25322027715397
 30
0.0
 40
0.6480016179309365
 50
71.350336392
 51
91.11830681100002
  0
LINE
  5
6A4
  8
0
  6
CONTINUOUS
 62
     7
 10
11.21215129668609
 20
10.58060805995398
 30
0.0
 11
11.2054938181861
 21
10.58809956035398
 31
0.0
  0
ARC
  5
6A5
  8
0
  6
CONTINUOUS
 62
     7
 10
10.30426682368609
 20
9.57586774065397
 30
0.0
 40
1.363190397801919
 50
54.20215621890001
 51
71.3132004041
  0
LINE
  5
6A6
  8
0
  6
CONTINUOUS
 62
     7
 10
12.9945560476861
 20
10.61681787795398
 30
0.0
 11
13.0416008828861
 21
10.58112986735398
 31
0.0
  0
LINE
  5
6A7
  8
0
  6
CONTINUOUS
 62
     7
 10
13.0416008828861
 20
10.58112986735398
 30
0.0
 11
13.14970745558609
 21
10.60683250905397
 31
0.0
  0
LINE
  5
6A8
  8
0
  6
CONTINUOUS
 62
     7
 10
12.2008339845861
 20
9.51475069155397
 30
0.0
 11
12.19946204218609
 21
9.430229533853973
 31
0.0
  0
ARC
  5
6A9
  8
0
  6
CONTINUOUS
 62
     7
 10
12.22261803908609
 20
9.63286979855397
 30
0.0
 40
0.2039590083704086
 50
263.481004997
 51
297.8508962940999
  0
LINE
  5
6AA
  8
0
  6
CONTINUOUS
 62
     7
 10
12.1692627852861
 20
9.434097608753973
 30
0.0
 11
12.1706347275861
 21
9.51861876645397
 31
0.0
  0
POLYLINE
  5
6AB
  8
0
  6
CONTINUOUS
 62
     7
 66
     1
 10
0.0
 20
0.0
 30
0.0
 70
   128
  0
VERTEX
  5
1746
  8
0
  6
CONTINUOUS
 62
     7
 10
12.0937203421861
 20
9.485117156753981
 30
0.0
  0
VERTEX
  5
1747
  8
0
  6
CONTINUOUS
 62
     7
 10
12.0946421589861
 20
9.477180327853981
 30
0.0
  0
VERTEX
  5
1748
  8
0
  6
CONTINUOUS
 62
     7
 10
12.09830888108609
 20
9.46935728315398
 30
0.0
  0
VERTEX
  5
1749
  8
0
  6
CONTINUOUS
 62
     7
 10
12.1046370145861
 20
9.461826014553981
 30
0.0
  0
VERTEX
  5
174A
  8
0
  6
CONTINUOUS
 62
     7
 10
12.1134826670861
 20
9.454757780453981
 30
0.0
  0
VERTEX
  5
174B
  8
0
  6
CONTINUOUS
 62
     7
 10
12.1246446960861
 20
9.448313307453981
 30
0.0
  0
VERTEX
  5
174C
  8
0
  6
CONTINUOUS
 62
     7
 10
12.1378692321861
 20
9.442639173153971
 30
0.0
  0
VERTEX
  5
174D
  8
0
  6
CONTINUOUS
 62
     7
 10
12.1528555133861
 20
9.43786442645397
 30
0.0
  0
VERTEX
  5
174E
  8
0
  6
CONTINUOUS
 62
     7
 10
12.1692627852861
 20
9.434097608753973
 30
0.0
  0
SEQEND
  5
17D5
  8
0
  6
CONTINUOUS
 62
     7
  0
LINE
  5
6AC
  8
0
  6
CONTINUOUS
 62
     7
 10
12.2002375732861
 20
9.48412032605397
 30
0.0
 11
12.1692627852861
 21
9.434097608753973
 31
0.0
  0
ARC
  5
6AD
  8
0
  6
CONTINUOUS
 62
     7
 10
12.2775159948861
 20
9.53495214605398
 30
0.0
 40
0.09177926981445
 50
296.1060720918999
 51
354.7061732819999
  0
LINE
  5
6AE
  8
0
  6
CONTINUOUS
 62
     7
 10
12.2003393870861
 20
9.484276965553981
 30
0.0
 11
12.2002375732861
 21
9.48412032605397
 31
0.0
  0
POLYLINE
  5
6AF
  8
0
  6
CONTINUOUS
 62
     7
 66
     1
 10
0.0
 20
0.0
 30
0.0
 70
   128
  0
VERTEX
  5
174F
  8
0
  6
CONTINUOUS
 62
     7
 10
11.7537134254861
 20
9.751748497753981
 30
0.0
  0
VERTEX
  5
1750
  8
0
  6
CONTINUOUS
 62
     7
 10
11.8148277246861
 20
9.73374551215398
 30
0.0
  0
VERTEX
  5
1751
  8
0
  6
CONTINUOUS
 62
     7
 10
11.8713330854861
 20
9.71307191545398
 30
0.0
  0
VERTEX
  5
1752
  8
0
  6
CONTINUOUS
 62
     7
 10
11.9225797975861
 20
9.68996540315398
 30
0.0
  0
VERTEX
  5
1753
  8
0
  6
CONTINUOUS
 62
     7
 10
11.9679785270861
 20
9.664691701053968
 30
0.0
  0
VERTEX
  5
1754
  8
0
  6
CONTINUOUS
 62
     7
 10
12.0070072755861
 20
9.637541417353981
 30
0.0
  0
VERTEX
  5
1755
  8
0
  6
CONTINUOUS
 62
     7
 10
12.0392172770861
 20
9.608826714253981
 30
0.0
  0
VERTEX
  5
1756
  8
0
  6
CONTINUOUS
 62
     7
 10
12.0642379936861
 20
9.57887791335397
 30
0.0
  0
VERTEX
  5
1757
  8
0
  6
CONTINUOUS
 62
     7
 10
12.0817818706861
 20
9.548039272153982
 30
0.0
  0
VERTEX
  5
1758
  8
0
  6
CONTINUOUS
 62
     7
 10
12.09164716558609
 20
9.516665404753981
 30
0.0
  0
VERTEX
  5
1759
  8
0
  6
CONTINUOUS
 62
     7
 10
12.0938811842861
 20
9.496268180553981
 30
0.0
  0
SEQEND
  5
17D6
  8
0
  6
CONTINUOUS
 62
     7
  0
ARC
  5
6B0
  8
0
  6
CONTINUOUS
 62
     7
 10
11.9840976077861
 20
10.74306790195398
 30
0.0
 40
1.017738194516389
 50
235.1461271714999
 51
256.9166179286999
  0
LINE
  5
6B1
  8
0
  6
CONTINUOUS
 62
     7
 10
11.3370815878861
 20
10.04306862575398
 30
0.0
 11
11.3357096455861
 21
9.95854746805398
 31
0.0
  0
LINE
  5
6B2
  8
0
  6
CONTINUOUS
 62
     7
 10
11.3357096455861
 20
9.95854746805398
 30
0.0
 11
11.4024750808861
 21
9.907899494553982
 31
0.0
  0
ARC
  5
6B3
  8
0
  6
CONTINUOUS
 62
     7
 10
11.9910952507861
 20
9.87075220315398
 30
0.0
 40
0.2067317367434739
 50
101.3852489735
 51
125.4899255878999
  0
LINE
  5
6B4
  8
0
  6
CONTINUOUS
 62
     7
 10
14.82648546978609
 20
10.75724053945398
 30
0.0
 11
14.8278574120861
 21
10.84176169715398
 31
0.0
  0
LINE
  5
6B5
  8
0
  6
CONTINUOUS
 62
     7
 10
11.9502853807861
 20
10.07341587895397
 30
0.0
 11
14.82648546978609
 21
10.75724053945398
 31
0.0
  0
LINE
  5
6B6
  8
0
  6
CONTINUOUS
 62
     7
 10
11.17352842658609
 20
10.24792327845398
 30
0.0
 11
11.1723146848861
 21
10.17314837155398
 31
0.0
  0
LINE
  5
6B7
  8
0
  6
CONTINUOUS
 62
     7
 10
11.1740115253861
 20
10.16384316205398
 30
0.0
 11
11.2593407018861
 21
10.18413041375397
 31
0.0
  0
LINE
  5
6B8
  8
0
  6
CONTINUOUS
 62
     7
 10
11.0234493475861
 20
10.28098870145398
 30
0.0
 11
11.0220774052861
 21
10.19646754375397
 31
0.0
  0
LINE
  5
6B9
  8
0
  6
CONTINUOUS
 62
     7
 10
10.9553119700861
 20
10.24711551735398
 30
0.0
 11
11.0220774052861
 21
10.19646754375397
 31
0.0
  0
LINE
  5
6BA
  8
0
  6
CONTINUOUS
 62
     7
 10
11.6517996147861
 20
10.34288437485398
 30
0.0
 11
11.6504276724861
 21
10.25836321715398
 31
0.0
  0
LINE
  5
6BB
  8
0
  6
CONTINUOUS
 62
     7
 10
11.45272084908609
 20
10.22712959155397
 30
0.0
 11
11.6504276724861
 21
10.25836321715398
 31
0.0
  0
POLYLINE
  5
6BC
  8
0
  6
CONTINUOUS
 62
     7
 66
     1
 10
0.0
 20
0.0
 30
0.0
 70
   128
  0
VERTEX
  5
175A
  8
0
  6
CONTINUOUS
 62
     7
 10
10.8254758857861
 20
10.45590552425398
 30
0.0
  0
VERTEX
  5
175B
  8
0
  6
CONTINUOUS
 62
     7
 10
10.8277629666861
 20
10.42877196745398
 30
0.0
  0
VERTEX
  5
175C
  8
0
  6
CONTINUOUS
 62
     7
 10
10.83413044358609
 20
10.40170669425398
 30
0.0
  0
VERTEX
  5
175D
  8
0
  6
CONTINUOUS
 62
     7
 10
10.8445512356861
 20
10.37482484625397
 30
0.0
  0
VERTEX
  5
175E
  8
0
  6
CONTINUOUS
 62
     7
 10
10.85898095538609
 20
10.34824082355397
 30
0.0
  0
VERTEX
  5
175F
  8
0
  6
CONTINUOUS
 62
     7
 10
10.8773582764861
 20
10.32206767545398
 30
0.0
  0
VERTEX
  5
1760
  8
0
  6
CONTINUOUS
 62
     7
 10
10.8996050003861
 20
10.29641676835398
 30
0.0
  0
VERTEX
  5
1761
  8
0
  6
CONTINUOUS
 62
     7
 10
10.9256264623861
 20
10.27139723985398
 30
0.0
  0
VERTEX
  5
1762
  8
0
  6
CONTINUOUS
 62
     7
 10
10.9553119700861
 20
10.24711551735398
 30
0.0
  0
SEQEND
  5
17D7
  8
0
  6
CONTINUOUS
 62
     7
  0
LINE
  5
6BD
  8
0
  6
CONTINUOUS
 62
     7
 10
12.8409726762861
 20
10.62561361475398
 30
0.0
 11
12.83960073398609
 21
10.54109245705398
 31
0.0
  0
LINE
  5
6BE
  8
0
  6
CONTINUOUS
 62
     7
 10
11.6504276724861
 20
10.25836321715398
 30
0.0
 11
12.6155491572861
 21
10.48782356455398
 31
0.0
  0
LINE
  5
6BF
  8
0
  6
CONTINUOUS
 62
     7
 10
12.82551778918609
 20
10.53774419735398
 30
0.0
 11
12.83960073398609
 21
10.54109245705398
 31
0.0
  0
POLYLINE
  5
6C0
  8
0
  6
CONTINUOUS
 62
     7
 66
     1
 10
0.0
 20
0.0
 30
0.0
 70
   128
  0
VERTEX
  5
1763
  8
0
  6
CONTINUOUS
 62
     7
 10
10.4679980775861
 20
10.71838311155397
 30
0.0
  0
VERTEX
  5
1764
  8
0
  6
CONTINUOUS
 62
     7
 10
10.5302420559861
 20
10.70114064095398
 30
0.0
  0
VERTEX
  5
1765
  8
0
  6
CONTINUOUS
 62
     7
 10
10.5880626518861
 20
10.68116828115398
 30
0.0
  0
VERTEX
  5
1766
  8
0
  6
CONTINUOUS
 62
     7
 10
10.6407948800861
 20
10.65869576955398
 30
0.0
  0
VERTEX
  5
1767
  8
0
  6
CONTINUOUS
 62
     7
 10
10.6878323749861
 20
10.63398151955398
 30
0.0
  0
VERTEX
  5
1768
  8
0
  6
CONTINUOUS
 62
     7
 10
10.7286344174861
 20
10.60730959845398
 30
0.0
  0
VERTEX
  5
1769
  8
0
  6
CONTINUOUS
 62
     7
 10
10.7627316428861
 20
10.57898683115397
 30
0.0
  0
VERTEX
  5
176A
  8
0
  6
CONTINUOUS
 62
     7
 10
10.78973203168609
 20
10.54933887185398
 30
0.0
  0
VERTEX
  5
176B
  8
0
  6
CONTINUOUS
 62
     7
 10
10.80932511318609
 20
10.51870661985398
 30
0.0
  0
VERTEX
  5
176C
  8
0
  6
CONTINUOUS
 62
     7
 10
10.8212855631861
 20
10.48744234535398
 30
0.0
  0
VERTEX
  5
176D
  8
0
  6
CONTINUOUS
 62
     7
 10
10.8254758857861
 20
10.45590552425398
 30
0.0
  0
SEQEND
  5
17D8
  8
0
  6
CONTINUOUS
 62
     7
  0
LINE
  5
6C1
  8
0
  6
CONTINUOUS
 62
     7
 10
12.83960073398609
 20
10.54109245705398
 30
0.0
 11
12.89309537898609
 21
10.50051164825398
 31
0.0
  0
POLYLINE
  5
6C2
  8
0
  6
CONTINUOUS
 62
     7
 66
     1
 10
0.0
 20
0.0
 30
0.0
 70
   128
  0
VERTEX
  5
176E
  8
0
  6
CONTINUOUS
 62
     7
 10
10.4040377370861
 20
10.76591988825398
 30
0.0
  0
VERTEX
  5
176F
  8
0
  6
CONTINUOUS
 62
     7
 10
10.4040592812861
 20
10.76449376645397
 30
0.0
  0
VERTEX
  5
1770
  8
0
  6
CONTINUOUS
 62
     7
 10
10.40580966778609
 20
10.75657214865397
 30
0.0
  0
VERTEX
  5
1771
  8
0
  6
CONTINUOUS
 62
     7
 10
10.4102863770861
 20
10.74881819385398
 30
0.0
  0
VERTEX
  5
1772
  8
0
  6
CONTINUOUS
 62
     7
 10
10.4173875892861
 20
10.74140825035398
 30
0.0
  0
VERTEX
  5
1773
  8
0
  6
CONTINUOUS
 62
     7
 10
10.4269517854861
 20
10.73451085195398
 30
0.0
  0
VERTEX
  5
1774
  8
0
  6
CONTINUOUS
 62
     7
 10
10.4387614817861
 20
10.72828284035398
 30
0.0
  0
VERTEX
  5
1775
  8
0
  6
CONTINUOUS
 62
     7
 10
10.4525481264861
 20
10.72286583575398
 30
0.0
  0
VERTEX
  5
1776
  8
0
  6
CONTINUOUS
 62
     7
 10
10.4679980775861
 20
10.71838311155397
 30
0.0
  0
SEQEND
  5
17D9
  8
0
  6
CONTINUOUS
 62
     7
  0
LINE
  5
6C3
  8
0
  6
CONTINUOUS
 62
     7
 10
10.4144691199861
 20
10.86987943545398
 30
0.0
 11
10.4142426211861
 21
10.85592554185398
 31
0.0
  0
CIRCLE
  5
6C4
  8
0
  6
CONTINUOUS
 62
     7
 10
1.598256363986097
 20
9.243341334553982
 30
0.0
 40
0.0625
  0
LINE
  5
6C5
  8
0
  6
CONTINUOUS
 62
     7
 10
1.598256363986097
 20
8.993341334553982
 30
0.0
 11
0.5045063639860969
 21
8.993341334553982
 31
0.0
  0
LINE
  5
6C6
  8
0
  6
CONTINUOUS
 62
     7
 10
0.5045063639860969
 20
9.493341334553982
 30
0.0
 11
1.598256363986097
 21
9.493341334553982
 31
0.0
  0
ARC
  5
6C7
  8
0
  6
CONTINUOUS
 62
     7
 10
1.598256363986097
 20
9.243341334553982
 30
0.0
 40
0.2500000000000018
 50
270.0
 51
90.0
  0
CIRCLE
  5
6C8
  8
0
  6
CONTINUOUS
 62
     7
 10
0.5045063639860969
 20
9.243341334553982
 30
0.0
 40
0.0625000000000018
  0
ARC
  5
6C9
  8
0
  6
CONTINUOUS
 62
     7
 10
0.5045063639860969
 20
9.243341334553982
 30
0.0
 40
0.2500000000000018
 50
90.0
 51
270.0
  0
TEXT
  5
6CA
  8
0
 62
     7
 10
7.958739566386097
 20
7.798303924453981
 30
0.0
 40
0.1377952756
  1
3/16" sheet
 41
0.75
  7
SLDTEXTSTYLE0
  0
INSERT
  5
6CB
  8
0
  6
CONTINUOUS
 62
     7
  2
SW_CENTERMARKSYMBOL_0
 10
1.598256363986097
 20
9.243341334553982
 30
0.0
  0
INSERT
  5
6CC
  8
0
  6
CONTINUOUS
 62
     7
  2
SW_CENTERMARKSYMBOL_1
 10
0.5045063639860969
 20
9.243341334553982
 30
0.0
  0
CIRCLE
  5
6CD
  8
0
  6
CONTINUOUS
 62
     7
 10
2.597057385886096
 20
9.200979604453982
 30
0.0
 40
0.0625
  0
CIRCLE
  5
6CE
  8
0
  6
CONTINUOUS
 62
     7
 10
2.597057385886096
 20
9.200979604453982
 30
0.0
 40
0.3125
  0
INSERT
  5
6CF
  8
0
  6
CONTINUOUS
 62
     7
  2
SW_CENTERMARKSYMBOL_2
 10
2.597057385886096
 20
9.200979604453982
 30
0.0
  0
CIRCLE
  5
6D0
  8
0
  6
CONTINUOUS
 62
     7
 10
2.611793917286097
 20
10.08501988665398
 30
0.0
 40
0.0625000000000009
  0
CIRCLE
  5
6D1
  8
0
  6
CONTINUOUS
 62
     7
 10
2.611793917286097
 20
10.08501988665398
 30
0.0
 40
0.3125
  0
INSERT
  5
6D2
  8
0
  6
CONTINUOUS
 62
     7
  2
SW_CENTERMARKSYMBOL_3
 10
2.611793917286097
 20
10.08501988665398
 30
0.0
  0
LINE
  5
6D3
  8
0
  6
CONTINUOUS
 62
     7
 10
10.4808446488861
 20
3.70411326895398
 30
0.0
 11
8.043344648886096
 21
3.70411326895398
 31
0.0
  0
LINE
  5
6D4
  8
0
  6
CONTINUOUS
 62
     7
 10
8.043344648886096
 20
3.70411326895398
 30
0.0
 11
8.043344648886096
 21
3.51661326895398
 31
0.0
  0
LINE
  5
6D5
  8
0
  6
CONTINUOUS
 62
     7
 10
8.043344648886096
 20
3.51661326895398
 30
0.0
 11
10.4808446488861
 21
3.51661326895398
 31
0.0
  0
LINE
  5
6D6
  8
0
  6
CONTINUOUS
 62
     7
 10
10.4808446488861
 20
3.23536326895398
 30
0.0
 11
10.4808446488861
 21
3.51661326895398
 31
0.0
  0
LINE
  5
6D7
  8
0
  6
CONTINUOUS
 62
     7
 10
10.4808446488861
 20
3.23536326895398
 30
0.0
 11
10.2933446488861
 21
3.23536326895398
 31
0.0
  0
LINE
  5
6D8
  8
0
  6
CONTINUOUS
 62
     7
 10
10.2933446488861
 20
3.23536326895398
 30
0.0
 11
10.2933446488861
 21
2.86036326895398
 31
0.0
  0
LINE
  5
6D9
  8
0
  6
CONTINUOUS
 62
     7
 10
3.642041835986096
 20
2.86036326895398
 30
0.0
 11
10.2933446488861
 21
2.86036326895398
 31
0.0
  0
ARC
  5
6DA
  8
0
  6
CONTINUOUS
 62
     7
 10
3.642041835986096
 20
2.44215698505398
 30
0.0
 40
0.4182062839632367
 50
90.0
 51
196.0879828202
  0
ARC
  5
6DB
  8
0
  6
CONTINUOUS
 62
     7
 10
0.2838726297860967
 20
1.473634222353981
 30
0.0
 40
3.076838316508486
 50
339.0167954006999
 51
16.0879828202
  0
ARC
  5
6DC
  8
0
  6
CONTINUOUS
 62
     7
 10
2.549599318286096
 20
0.6046651771539806
 30
0.0
 40
0.6501894691784404
 50
297.3428648391
 51
339.0167954006999
  0
ARC
  5
6DD
  8
0
  6
CONTINUOUS
 62
     7
 10
2.736472400186097
 20
0.2432688566539807
 30
0.0
 40
0.2433371014070201
 50
232.378453884
 51
297.3428648391
  0
LINE
  5
6DE
  8
0
  6
CONTINUOUS
 62
     7
 10
2.587928954886097
 20
0.0505312376539795
 30
0.0
 11
2.758569487086097
 21
0.2211717697539797
 31
0.0
  0
ARC
  5
6DF
  8
0
  6
CONTINUOUS
 62
     7
 10
2.736472400186097
 20
0.2432688566539807
 30
0.0
 40
0.0312500000000006
 50
315.0
 51
135.0
  0
LINE
  5
6E0
  8
0
  6
CONTINUOUS
 62
     7
 10
2.714375313286097
 20
0.2653659436539808
 30
0.0
 11
2.543734781086096
 21
0.0947254114539797
 31
0.0
  0
ARC
  5
6E1
  8
0
  6
CONTINUOUS
 62
     7
 10
2.736472400186097
 20
0.2432688566539807
 30
0.0
 40
0.2433371014070209
 50
148.4324384854
 51
217.6215461159999
  0
ARC
  5
6E2
  8
0
  6
CONTINUOUS
 62
     7
 10
1.370408786486097
 20
1.082611045253979
 30
0.0
 40
1.359979806170872
 50
328.4324384854
 51
29.90222972090001
  0
ARC
  5
6E3
  8
0
  6
CONTINUOUS
 62
     7
 10
4.216381977186096
 20
2.719265591253981
 30
0.0
 40
1.923037328319119
 50
180.0
 51
209.9022297209
  0
LINE
  5
6E4
  8
0
  6
CONTINUOUS
 62
     7
 10
2.293344648886096
 20
2.98536326895398
 30
0.0
 11
2.293344648886096
 21
2.719265591253981
 31
0.0
  0
LINE
  5
6E5
  8
0
  6
CONTINUOUS
 62
     7
 10
2.480844648886096
 20
2.98536326895398
 30
0.0
 11
2.293344648886096
 21
2.98536326895398
 31
0.0
  0
LINE
  5
6E6
  8
0
  6
CONTINUOUS
 62
     7
 10
2.480844648886096
 20
3.260363268953981
 30
0.0
 11
2.480844648886096
 21
2.98536326895398
 31
0.0
  0
LINE
  5
6E7
  8
0
  6
CONTINUOUS
 62
     7
 10
3.043344648886096
 20
3.260363268953981
 30
0.0
 11
2.480844648886096
 21
3.260363268953981
 31
0.0
  0
LINE
  5
6E8
  8
0
  6
CONTINUOUS
 62
     7
 10
3.543344648886097
 20
3.335363268953981
 30
0.0
 11
3.043344648886096
 21
3.260363268953981
 31
0.0
  0
LINE
  5
6E9
  8
0
  6
CONTINUOUS
 62
     7
 10
6.293344648886098
 20
3.335363268953981
 30
0.0
 11
3.543344648886097
 21
3.335363268953981
 31
0.0
  0
LINE
  5
6EA
  8
0
  6
CONTINUOUS
 62
     7
 10
6.293344648886098
 20
3.885363268953981
 30
0.0
 11
6.293344648886098
 21
3.335363268953981
 31
0.0
  0
LINE
  5
6EB
  8
0
  6
CONTINUOUS
 62
     7
 10
3.543344648886097
 20
3.885363268953981
 30
0.0
 11
6.293344648886098
 21
3.885363268953981
 31
0.0
  0
LINE
  5
6EC
  8
0
  6
CONTINUOUS
 62
     7
 10
3.043344648886096
 20
3.960363268953981
 30
0.0
 11
3.543344648886097
 21
3.885363268953981
 31
0.0
  0
LINE
  5
6ED
  8
0
  6
CONTINUOUS
 62
     7
 10
2.480844648886096
 20
3.960363268953981
 30
0.0
 11
3.043344648886096
 21
3.960363268953981
 31
0.0
  0
LINE
  5
6EE
  8
0
  6
CONTINUOUS
 62
     7
 10
2.480844648886096
 20
4.23536326895398
 30
0.0
 11
2.480844648886096
 21
3.960363268953981
 31
0.0
  0
LINE
  5
6EF
  8
0
  6
CONTINUOUS
 62
     7
 10
2.293344648886096
 20
4.23536326895398
 30
0.0
 11
2.480844648886096
 21
4.23536326895398
 31
0.0
  0
LINE
  5
6F0
  8
0
  6
CONTINUOUS
 62
     7
 10
2.293344648886096
 20
4.501460946653981
 30
0.0
 11
2.293344648886096
 21
4.23536326895398
 31
0.0
  0
ARC
  5
6F1
  8
0
  6
CONTINUOUS
 62
     7
 10
4.216381977186096
 20
4.501460946653981
 30
0.0
 40
1.923037328319119
 50
150.0977702790999
 51
180.0
  0
ARC
  5
6F2
  8
0
  6
CONTINUOUS
 62
     7
 10
1.370408786486097
 20
6.138115492653981
 30
0.0
 40
1.359979806170872
 50
330.0977702791001
 51
31.56756151460001
  0
LINE
  5
6F3
  8
0
  6
CONTINUOUS
 62
     7
 10
2.714375313286097
 20
6.95536059435398
 30
0.0
 11
2.543734781086096
 21
7.12600112655398
 31
0.0
  0
ARC
  5
6F4
  8
0
  6
CONTINUOUS
 62
     7
 10
2.736472400186097
 20
6.977457681253979
 30
0.0
 40
0.0312500000000015
 50
225.0
 51
45.0
  0
LINE
  5
6F5
  8
0
  6
CONTINUOUS
 62
     7
 10
2.587928954886097
 20
7.170195300353981
 30
0.0
 11
2.758569487086097
 21
6.999554768153981
 31
0.0
  0
ARC
  5
6F6
  8
0
  6
CONTINUOUS
 62
     7
 10
2.549599318286096
 20
6.61606136085398
 30
0.0
 40
0.6501894691784398
 50
20.9832045993
 51
62.6571351609
  0
ARC
  5
6F7
  8
0
  6
CONTINUOUS
 62
     7
 10
0.2838726297860967
 20
5.74709231565398
 30
0.0
 40
3.076838316508488
 50
343.9120171798
 51
20.9832045993
  0
ARC
  5
6F8
  8
0
  6
CONTINUOUS
 62
     7
 10
3.642041835986096
 20
4.77856955295398
 30
0.0
 40
0.4182062839632367
 50
163.9120171797999
 51
270.0
  0
LINE
  5
6F9
  8
0
  6
CONTINUOUS
 62
     7
 10
10.2933446488861
 20
4.36036326895398
 30
0.0
 11
3.642041835986096
 21
4.36036326895398
 31
0.0
  0
LINE
  5
6FA
  8
0
  6
CONTINUOUS
 62
     7
 10
10.2933446488861
 20
4.36036326895398
 30
0.0
 11
10.2933446488861
 21
3.98536326895398
 31
0.0
  0
LINE
  5
6FB
  8
0
  6
CONTINUOUS
 62
     7
 10
10.2933446488861
 20
3.98536326895398
 30
0.0
 11
10.4808446488861
 21
3.98536326895398
 31
0.0
  0
LINE
  5
6FC
  8
0
  6
CONTINUOUS
 62
     7
 10
10.4808446488861
 20
3.70411326895398
 30
0.0
 11
10.4808446488861
 21
3.98536326895398
 31
0.0
  0
LINE
  5
6FD
  8
0
  6
CONTINUOUS
 62
     7
 10
6.793344648886098
 20
3.70411326895398
 30
0.0
 11
6.543344648886098
 21
3.70411326895398
 31
0.0
  0
LINE
  5
6FE
  8
0
  6
CONTINUOUS
 62
     7
 10
6.543344648886098
 20
3.70411326895398
 30
0.0
 11
6.543344648886098
 21
3.51661326895398
 31
0.0
  0
LINE
  5
6FF
  8
0
  6
CONTINUOUS
 62
     7
 10
6.543344648886098
 20
3.51661326895398
 30
0.0
 11
6.793344648886098
 21
3.51661326895398
 31
0.0
  0
LINE
  5
700
  8
0
  6
CONTINUOUS
 62
     7
 10
6.793344648886098
 20
3.51661326895398
 30
0.0
 11
6.793344648886098
 21
3.70411326895398
 31
0.0
  0
ARC
  5
701
  8
0
  6
CONTINUOUS
 62
     7
 10
2.736472400186097
 20
6.977457681253979
 30
0.0
 40
0.2433371014070203
 50
142.378453884
 51
211.5675615146
  0
ARC
  5
702
  8
0
  6
CONTINUOUS
 62
     7
 10
2.736472400186097
 20
6.977457681253979
 30
0.0
 40
0.2433371014070201
 50
62.6571351609
 51
127.621546116
  0
CIRCLE
  5
703
  8
0
  6
CONTINUOUS
 62
     7
 10
1.601424760086096
 20
10.11824498205398
 30
0.0
 40
0.0625
  0
LINE
  5
704
  8
0
  6
CONTINUOUS
 62
     7
 10
1.601424760086096
 20
9.868244982053982
 30
0.0
 11
0.507674760086096
 21
9.868244982053982
 31
0.0
  0
LINE
  5
705
  8
0
  6
CONTINUOUS
 62
     7
 10
0.507674760086096
 20
10.36824498205398
 30
0.0
 11
1.601424760086096
 21
10.36824498205398
 31
0.0
  0
ARC
  5
706
  8
0
  6
CONTINUOUS
 62
     7
 10
1.601424760086096
 20
10.11824498205398
 30
0.0
 40
0.2500000000000018
 50
270.0
 51
90.0
  0
CIRCLE
  5
707
  8
0
  6
CONTINUOUS
 62
     7
 10
0.507674760086096
 20
10.11824498205398
 30
0.0
 40
0.0625000000000018
  0
ARC
  5
708
  8
0
  6
CONTINUOUS
 62
     7
 10
0.507674760086096
 20
10.11824498205398
 30
0.0
 40
0.2500000000000018
 50
90.0
 51
270.0
  0
TEXT
  5
709
  8
0
 62
     7
 10
1.454468026386096
 20
11.22109169775398
 30
0.0
 40
0.1377952756
  1
1/16" sheet
 41
0.75
  7
SLDTEXTSTYLE0
  0
INSERT
  5
70A
  8
0
  6
CONTINUOUS
 62
     7
  2
SW_CENTERMARKSYMBOL_4
 10
1.601424760086096
 20
10.11824498205398
 30
0.0
  0
INSERT
  5
70B
  8
0
  6
CONTINUOUS
 62
     7
  2
SW_CENTERMARKSYMBOL_5
 10
0.507674760086096
 20
10.11824498205398
 30
0.0
  0
CIRCLE
  5
70C
  8
0
  6
CONTINUOUS
 62
     7
 10
11.5905528667861
 20
6.119430996353978
 30
0.0
 40
0.0625000000000018
  0
ARC
  5
70D
  8
0
  6
CONTINUOUS
 62
     7
 10
14.3405528667861
 20
6.119430996353978
 30
0.0
 40
0.0625000000000018
 50
270.0
 51
90.0
  0
LINE
  5
70E
  8
0
  6
CONTINUOUS
 62
     7
 10
13.32118761348609
 20
6.181930996353978
 30
0.0
 11
14.3405528667861
 21
6.181930996353978
 31
0.0
  0
ARC
  5
70F
  8
0
  6
CONTINUOUS
 62
     7
 10
13.32118761348609
 20
2.681930996353981
 30
0.0
 40
3.499999999999998
 50
90.0
 51
103.7277482224
  0
LINE
  5
710
  8
0
  6
CONTINUOUS
 62
     7
 10
11.64988002618609
 20
5.876572419853979
 30
0.0
 11
12.4906073824861
 21
6.081951066853978
 31
0.0
  0
ARC
  5
711
  8
0
  6
CONTINUOUS
 62
     7
 10
11.5905528667861
 20
6.119430996353978
 30
0.0
 40
0.2500000000000003
 50
180.0
 51
283.7277482224
  0
LINE
  5
712
  8
0
  6
CONTINUOUS
 62
     7
 10
11.3405528667861
 20
6.525680996353978
 30
0.0
 11
11.3405528667861
 21
6.119430996353978
 31
0.0
  0
LINE
  5
713
  8
0
  6
CONTINUOUS
 62
     7
 10
11.7155528667861
 20
6.713180996353978
 30
0.0
 11
11.3405528667861
 21
6.525680996353978
 31
0.0
  0
LINE
  5
714
  8
0
  6
CONTINUOUS
 62
     7
 10
11.7155528667861
 20
6.556930996353978
 30
0.0
 11
11.7155528667861
 21
6.713180996353978
 31
0.0
  0
LINE
  5
715
  8
0
  6
CONTINUOUS
 62
     7
 10
11.9655528667861
 20
6.306930996353978
 30
0.0
 11
11.7155528667861
 21
6.556930996353978
 31
0.0
  0
LINE
  5
716
  8
0
  6
CONTINUOUS
 62
     7
 10
14.3405528667861
 20
6.306930996353978
 30
0.0
 11
11.9655528667861
 21
6.306930996353978
 31
0.0
  0
ARC
  5
717
  8
0
  6
CONTINUOUS
 62
     7
 10
14.3405528667861
 20
6.369430996353978
 30
0.0
 40
0.0625
 50
270.0
 51
180.0
  0
LINE
  5
718
  8
0
  6
CONTINUOUS
 62
     7
 10
13.7155528667861
 20
6.369430996353978
 30
0.0
 11
14.2780528667861
 21
6.369430996353978
 31
0.0
  0
LINE
  5
719
  8
0
  6
CONTINUOUS
 62
     7
 10
13.7155528667861
 20
6.544430996353981
 30
0.0
 11
13.7155528667861
 21
6.369430996353978
 31
0.0
  0
LINE
  5
71A
  8
0
  6
CONTINUOUS
 62
     7
 10
12.4655528667861
 20
6.544430996353981
 30
0.0
 11
13.7155528667861
 21
6.544430996353981
 31
0.0
  0
LINE
  5
71B
  8
0
  6
CONTINUOUS
 62
     7
 10
12.2155528667861
 20
6.450680996353981
 30
0.0
 11
12.4655528667861
 21
6.544430996353981
 31
0.0
  0
LINE
  5
71C
  8
0
  6
CONTINUOUS
 62
     7
 10
12.2155528667861
 20
6.544430996353981
 30
0.0
 11
12.2155528667861
 21
6.450680996353981
 31
0.0
  0
LINE
  5
71D
  8
0
  6
CONTINUOUS
 62
     7
 10
11.9843028667861
 20
6.77568099635398
 30
0.0
 11
12.2155528667861
 21
6.544430996353981
 31
0.0
  0
LINE
  5
71E
  8
0
  6
CONTINUOUS
 62
     7
 10
9.465552866786098
 20
6.77568099635398
 30
0.0
 11
11.9843028667861
 21
6.77568099635398
 31
0.0
  0
LINE
  5
71F
  8
0
  6
CONTINUOUS
 62
     7
 10
8.715552866786098
 20
6.87627318505398
 30
0.0
 11
9.465552866786098
 21
6.77568099635398
 31
0.0
  0
LINE
  5
720
  8
0
  6
CONTINUOUS
 62
     7
 10
7.715552866786098
 20
6.87627318505398
 30
0.0
 11
8.715552866786098
 21
6.87627318505398
 31
0.0
  0
LINE
  5
721
  8
0
  6
CONTINUOUS
 62
     7
 10
7.715552866786098
 20
6.999603733453981
 30
0.0
 11
7.715552866786098
 21
6.87627318505398
 31
0.0
  0
LINE
  5
722
  8
0
  6
CONTINUOUS
 62
     7
 10
7.965552866786098
 20
7.138180996353981
 30
0.0
 11
7.715552866786098
 21
6.999603733453981
 31
0.0
  0
LINE
  5
723
  8
0
  6
CONTINUOUS
 62
     7
 10
7.965552866786098
 20
7.013180996353981
 30
0.0
 11
7.965552866786098
 21
7.138180996353981
 31
0.0
  0
LINE
  5
724
  8
0
  6
CONTINUOUS
 62
     7
 10
8.153052866786098
 20
7.013180996353981
 30
0.0
 11
7.965552866786098
 21
7.013180996353981
 31
0.0
  0
LINE
  5
725
  8
0
  6
CONTINUOUS
 62
     7
 10
8.153052866786098
 20
7.138180996353981
 30
0.0
 11
8.153052866786098
 21
7.013180996353981
 31
0.0
  0
LINE
  5
726
  8
0
  6
CONTINUOUS
 62
     7
 10
15.9655528667861
 20
7.138180996353981
 30
0.0
 11
8.153052866786098
 21
7.138180996353981
 31
0.0
  0
LINE
  5
727
  8
0
  6
CONTINUOUS
 62
     7
 10
15.9655528667861
 20
7.138180996353981
 30
0.0
 11
15.9655528667861
 21
6.825680996353981
 31
0.0
  0
LINE
  5
728
  8
0
  6
CONTINUOUS
 62
     7
 10
15.9655528667861
 20
6.825680996353981
 30
0.0
 11
16.1530528667861
 21
6.825680996353981
 31
0.0
  0
LINE
  5
729
  8
0
  6
CONTINUOUS
 62
     7
 10
16.1530528667861
 20
6.075680996353981
 30
0.0
 11
16.1530528667861
 21
6.825680996353981
 31
0.0
  0
LINE
  5
72A
  8
0
  6
CONTINUOUS
 62
     7
 10
16.1530528667861
 20
6.075680996353981
 30
0.0
 11
15.9655528667861
 21
6.075680996353981
 31
0.0
  0
LINE
  5
72B
  8
0
  6
CONTINUOUS
 62
     7
 10
15.9655528667861
 20
6.075680996353981
 30
0.0
 11
15.9655528667861
 21
5.713180996353981
 31
0.0
  0
LINE
  5
72C
  8
0
  6
CONTINUOUS
 62
     7
 10
15.4581399823861
 20
5.713180996353981
 30
0.0
 11
15.9655528667861
 21
5.713180996353981
 31
0.0
  0
ARC
  5
72D
  8
0
  6
CONTINUOUS
 62
     7
 10
15.4581399823861
 20
5.463180996353981
 30
0.0
 40
0.2500000000000018
 50
90.0
 51
214.0
  0
LINE
  5
72E
  8
0
  6
CONTINUOUS
 62
     7
 10
16.6974136388861
 20
3.178809331453981
 30
0.0
 11
15.2508805892861
 21
5.323382770453979
 31
0.0
  0
ARC
  5
72F
  8
0
  6
CONTINUOUS
 62
     7
 10
14.6248197074861
 20
1.780827072753981
 30
0.0
 40
2.5
 50
0.6004477671999953
 51
34.0
  0
LINE
  5
730
  8
0
  6
CONTINUOUS
 62
     7
 10
14.8746824261861
 20
1.807026069553981
 30
0.0
 11
17.1246824261861
 21
1.807026069553981
 31
0.0
  0
ARC
  5
731
  8
0
  6
CONTINUOUS
 62
     7
 10
14.8746824261861
 20
2.057026069553981
 30
0.0
 40
0.25
 50
119.0
 51
270.0
  0
LINE
  5
732
  8
0
  6
CONTINUOUS
 62
     7
 10
13.2805450116861
 20
4.932926093853981
 30
0.0
 11
14.7534800211861
 21
2.275680996353981
 31
0.0
  0
ARC
  5
733
  8
0
  6
CONTINUOUS
 62
     7
 10
13.3352087433861
 20
4.963226695153979
 30
0.0
 40
0.0625000000000007
 50
89.02012593809998
 51
209.0
  0
ARC
  5
734
  8
0
  6
CONTINUOUS
 62
     7
 10
13.3405528667861
 20
5.275680996353981
 30
0.0
 40
0.25
 50
269.0201259381
 51
180.0
  0
LINE
  5
735
  8
0
  6
CONTINUOUS
 62
     7
 10
9.215552866786098
 20
5.275680996353981
 30
0.0
 11
13.0905528667861
 21
5.275680996353981
 31
0.0
  0
LINE
  5
736
  8
0
  6
CONTINUOUS
 62
     7
 10
8.465552866786098
 20
5.650680996353981
 30
0.0
 11
9.215552866786098
 21
5.275680996353981
 31
0.0
  0
LINE
  5
737
  8
0
  6
CONTINUOUS
 62
     7
 10
8.153052866786098
 20
5.650680996353981
 30
0.0
 11
8.465552866786098
 21
5.650680996353981
 31
0.0
  0
LINE
  5
738
  8
0
  6
CONTINUOUS
 62
     7
 10
8.153052866786098
 20
5.650680996353981
 30
0.0
 11
8.153052866786098
 21
5.900680996353978
 31
0.0
  0
LINE
  5
739
  8
0
  6
CONTINUOUS
 62
     7
 10
8.153052866786098
 20
5.900680996353978
 30
0.0
 11
7.965552866786098
 21
5.900680996353978
 31
0.0
  0
LINE
  5
73A
  8
0
  6
CONTINUOUS
 62
     7
 10
7.965552866786098
 20
5.900680996353978
 30
0.0
 11
7.965552866786098
 21
5.650680996353981
 31
0.0
  0
LINE
  5
73B
  8
0
  6
CONTINUOUS
 62
     7
 10
7.715552866786098
 20
6.150680996353978
 30
0.0
 11
7.715552866786098
 21
5.650680996353981
 31
0.0
  0
LINE
  5
73C
  8
0
  6
CONTINUOUS
 62
     7
 10
8.715552866786098
 20
6.150680996353978
 30
0.0
 11
7.715552866786098
 21
6.150680996353978
 31
0.0
  0
LINE
  5
73D
  8
0
  6
CONTINUOUS
 62
     7
 10
9.465552866786098
 20
6.244430996353978
 30
0.0
 11
8.715552866786098
 21
6.150680996353978
 31
0.0
  0
LINE
  5
73E
  8
0
  6
CONTINUOUS
 62
     7
 10
11.0905528667861
 20
6.244430996353978
 30
0.0
 11
9.465552866786098
 21
6.244430996353978
 31
0.0
  0
LINE
  5
73F
  8
0
  6
CONTINUOUS
 62
     7
 10
11.0905528667861
 20
6.119430996353978
 30
0.0
 11
11.0905528667861
 21
6.244430996353978
 31
0.0
  0
ARC
  5
740
  8
0
  6
CONTINUOUS
 62
     7
 10
11.5905528667861
 20
6.119430996353978
 30
0.0
 40
0.5000000000000001
 50
180.0
 51
289.6900751733
  0
LINE
  5
741
  8
0
  6
CONTINUOUS
 62
     7
 10
12.3280060607861
 20
5.85228222555398
 30
0.0
 11
11.7590189522861
 21
5.648666535053981
 31
0.0
  0
ARC
  5
742
  8
0
  6
CONTINUOUS
 62
     7
 10
13.5072686592861
 20
2.556930996353981
 30
0.0
 40
3.500000000000001
 50
90.0
 51
109.6900751733
  0
LINE
  5
743
  8
0
  6
CONTINUOUS
 62
     7
 10
14.3405528667861
 20
6.056930996353978
 30
0.0
 11
13.5072686592861
 21
6.056930996353978
 31
0.0
  0
LINE
  5
744
  8
0
  6
CONTINUOUS
 62
     7
 10
7.715552866786098
 20
5.650680996353981
 30
0.0
 11
7.965552866786098
 21
5.650680996353981
 31
0.0
  0
INSERT
  5
745
  8
0
  6
CONTINUOUS
 62
     7
  2
SW_CENTERMARKSYMBOL_6
 10
11.5905528667861
 20
6.119430996353978
 30
0.0
  0
ARC
  5
746
  8
0
  6
CONTINUOUS
 62
     7
 10
6.215804624386097
 20
1.788753690553981
 30
0.0
 40
0.0624999999999997
 50
300.0
 51
239.9999999999999
  0
LINE
  5
747
  8
0
  6
CONTINUOUS
 62
     7
 10
6.247054624386097
 20
1.734627102853981
 30
0.0
 11
6.295998793686097
 21
1.55196497625398
 31
0.0
  0
ARC
  5
748
  8
0
  6
CONTINUOUS
 62
     7
 10
6.215804624386097
 20
1.788753690553981
 30
0.0
 40
0.2499999999999993
 50
288.7099015242
 51
251.2900984758
  0
LINE
  5
749
  8
0
  6
CONTINUOUS
 62
     7
 10
6.135610455086095
 20
1.55196497625398
 30
0.0
 11
6.184554624386097
 21
1.734627102853981
 31
0.0
  0
LINE
  5
74A
  8
0
  6
CONTINUOUS
 62
     7
 10
5.908060196886097
 20
2.003039404853981
 30
0.0
 11
5.497734293586095
 21
1.41375369055398
 31
0.0
  0
ARC
  5
74B
  8
0
  6
CONTINUOUS
 62
     7
 10
6.215804624386097
 20
1.788753690553981
 30
0.0
 40
0.3750000000000003
 50
34.84990457900001
 51
145.150095421
  0
LINE
  5
74C
  8
0
  6
CONTINUOUS
 62
     7
 10
6.933874955186097
 20
1.41375369055398
 30
0.0
 11
6.523549051886095
 21
2.003039404853981
 31
0.0
  0
ARC
  5
74D
  8
0
  6
CONTINUOUS
 62
     7
 10
6.215804624386097
 20
0.9137536905539796
 30
0.0
 40
0.8750000000000001
 50
2.046713097699993
 51
34.84990457900001
  0
LINE
  5
74E
  8
0
  6
CONTINUOUS
 62
     7
 10
6.840804624386097
 20
0.9450036905539796
 30
0.0
 11
7.090246410586097
 21
0.9450036905539796
 31
0.0
  0
LINE
  5
74F
  8
0
  6
CONTINUOUS
 62
     7
 10
6.840804624386097
 20
0.7575036905539796
 30
0.0
 11
6.840804624386097
 21
0.9450036905539796
 31
0.0
  0
LINE
  5
750
  8
0
  6
CONTINUOUS
 62
     7
 10
7.076740706486097
 20
0.7575036905539796
 30
0.0
 11
6.840804624386097
 21
0.7575036905539796
 31
0.0
  0
ARC
  5
751
  8
0
  6
CONTINUOUS
 62
     7
 10
6.215804624386097
 20
0.9137536905539796
 30
0.0
 40
0.8750000000000001
 50
190.2865606115
 51
349.7134393884999
  0
LINE
  5
752
  8
0
  6
CONTINUOUS
 62
     7
 10
5.590804624386097
 20
0.7575036905539796
 30
0.0
 11
5.354868542286097
 21
0.7575036905539796
 31
0.0
  0
LINE
  5
753
  8
0
  6
CONTINUOUS
 62
     7
 10
5.590804624386097
 20
0.9450036905539796
 30
0.0
 11
5.590804624386097
 21
0.7575036905539796
 31
0.0
  0
LINE
  5
754
  8
0
  6
CONTINUOUS
 62
     7
 10
5.341362838186097
 20
0.9450036905539796
 30
0.0
 11
5.590804624386097
 21
0.9450036905539796
 31
0.0
  0
ARC
  5
755
  8
0
  6
CONTINUOUS
 62
     7
 10
6.215804624386097
 20
0.9137536905539796
 30
0.0
 40
0.8749999999999994
 50
145.150095421
 51
177.9532869022999
  0
LINE
  5
756
  8
0
  6
CONTINUOUS
 62
     7
 10
6.309554624386097
 20
1.276845879253979
 30
0.0
 11
6.309554624386097
 21
1.41375369055398
 31
0.0
  0
LINE
  5
757
  8
0
  6
CONTINUOUS
 62
     7
 10
6.309554624386097
 20
1.41375369055398
 30
0.0
 11
6.122054624386097
 21
1.41375369055398
 31
0.0
  0
LINE
  5
758
  8
0
  6
CONTINUOUS
 62
     7
 10
6.122054624386097
 20
1.41375369055398
 30
0.0
 11
6.122054624386097
 21
1.276845879253979
 31
0.0
  0
ARC
  5
759
  8
0
  6
CONTINUOUS
 62
     7
 10
6.215804624386097
 20
0.9137536905539796
 30
0.0
 40
0.3750000000000003
 50
104.4775121859
 51
255.5224878140999
  0
LINE
  5
75A
  8
0
  6
CONTINUOUS
 62
     7
 10
6.122054624386097
 20
0.5506615018539796
 30
0.0
 11
6.122054624386097
 21
0.3012536905539807
 31
0.0
  0
LINE
  5
75B
  8
0
  6
CONTINUOUS
 62
     7
 10
6.122054624386097
 20
0.3012536905539807
 30
0.0
 11
6.309554624386097
 21
0.3012536905539807
 31
0.0
  0
LINE
  5
75C
  8
0
  6
CONTINUOUS
 62
     7
 10
6.309554624386097
 20
0.3012536905539807
 30
0.0
 11
6.309554624386097
 21
0.5506615018539796
 31
0.0
  0
ARC
  5
75D
  8
0
  6
CONTINUOUS
 62
     7
 10
6.215804624386097
 20
0.9137536905539796
 30
0.0
 40
0.3750000000000003
 50
284.4775121859001
 51
75.5224878141
  0
CIRCLE
  5
75E
  8
0
  6
CONTINUOUS
 62
     7
 10
9.268024658786096
 20
1.810825423153981
 30
0.0
 40
0.125
  0
LINE
  5
75F
  8
0
  6
CONTINUOUS
 62
     7
 10
8.792281701986097
 20
1.839671576953981
 30
0.0
 11
8.554410223586096
 21
1.104094653853981
 31
0.0
  0
ARC
  5
760
  8
0
  6
CONTINUOUS
 62
     7
 10
9.268024658786096
 20
1.68582542315398
 30
0.0
 40
0.500000000000001
 50
17.9202131394
 51
162.0797868606
  0
LINE
  5
761
  8
0
  6
CONTINUOUS
 62
     7
 10
9.98163909398609
 20
1.104094653853981
 30
0.0
 11
9.743767615586098
 21
1.839671576953981
 31
0.0
  0
ARC
  5
762
  8
0
  6
CONTINUOUS
 62
     7
 10
9.268024658786096
 20
0.8733254231539798
 30
0.0
 40
0.7500000000000008
 50
162.0797868606
 51
17.9202131394
  0
LINE
  5
763
  8
0
  6
CONTINUOUS
 62
     7
 10
9.17427465878609
 20
0.7795754231539798
 30
0.0
 11
9.17427465878609
 21
0.4983254231539798
 31
0.0
  0
LINE
  5
764
  8
0
  6
CONTINUOUS
 62
     7
 10
9.17427465878609
 20
0.4983254231539798
 30
0.0
 11
9.36177465878609
 21
0.4983254231539798
 31
0.0
  0
LINE
  5
765
  8
0
  6
CONTINUOUS
 62
     7
 10
9.36177465878609
 20
0.4983254231539798
 30
0.0
 11
9.36177465878609
 21
0.7795754231539798
 31
0.0
  0
LINE
  5
766
  8
0
  6
CONTINUOUS
 62
     7
 10
9.36177465878609
 20
0.7795754231539798
 30
0.0
 11
9.64302465878609
 21
0.7795754231539798
 31
0.0
  0
LINE
  5
767
  8
0
  6
CONTINUOUS
 62
     7
 10
9.64302465878609
 20
0.7795754231539798
 30
0.0
 11
9.64302465878609
 21
0.9670754231539798
 31
0.0
  0
LINE
  5
768
  8
0
  6
CONTINUOUS
 62
     7
 10
9.64302465878609
 20
0.9670754231539798
 30
0.0
 11
9.36177465878609
 21
0.9670754231539798
 31
0.0
  0
LINE
  5
769
  8
0
  6
CONTINUOUS
 62
     7
 10
9.36177465878609
 20
0.9670754231539798
 30
0.0
 11
9.36177465878609
 21
1.24832542315398
 31
0.0
  0
LINE
  5
76A
  8
0
  6
CONTINUOUS
 62
     7
 10
9.36177465878609
 20
1.24832542315398
 30
0.0
 11
9.17427465878609
 21
1.24832542315398
 31
0.0
  0
LINE
  5
76B
  8
0
  6
CONTINUOUS
 62
     7
 10
9.17427465878609
 20
1.24832542315398
 30
0.0
 11
9.17427465878609
 21
0.9670754231539798
 31
0.0
  0
LINE
  5
76C
  8
0
  6
CONTINUOUS
 62
     7
 10
9.17427465878609
 20
0.9670754231539798
 30
0.0
 11
8.89302465878609
 21
0.9670754231539798
 31
0.0
  0
LINE
  5
76D
  8
0
  6
CONTINUOUS
 62
     7
 10
8.89302465878609
 20
0.9670754231539798
 30
0.0
 11
8.89302465878609
 21
0.7795754231539798
 31
0.0
  0
LINE
  5
76E
  8
0
  6
CONTINUOUS
 62
     7
 10
8.89302465878609
 20
0.7795754231539798
 30
0.0
 11
9.17427465878609
 21
0.7795754231539798
 31
0.0
  0
INSERT
  5
76F
  8
0
  6
CONTINUOUS
 62
     7
  2
SW_CENTERMARKSYMBOL_7
 10
9.268024658786096
 20
1.810825423153981
 30
0.0
  0
CIRCLE
  5
770
  8
0
  6
CONTINUOUS
 62
     7
 10
13.2065151869861
 20
1.77611239755398
 30
0.0
 40
0.0625000000000018
  0
LINE
  5
771
  8
0
  6
CONTINUOUS
 62
     7
 10
11.7065151869861
 20
2.02611239755398
 30
0.0
 11
13.4565151869861
 21
2.02611239755398
 31
0.0
  0
LINE
  5
772
  8
0
  6
CONTINUOUS
 62
     7
 10
13.4565151869861
 20
2.02611239755398
 30
0.0
 11
13.4565151869861
 21
1.77611239755398
 31
0.0
  0
ARC
  5
773
  8
0
  6
CONTINUOUS
 62
     7
 10
13.2065151869861
 20
1.77611239755398
 30
0.0
 40
0.2500000000000006
 50
261.8698976457999
 51
0.0
  0
LINE
  5
774
  8
0
  6
CONTINUOUS
 62
     7
 10
13.1711598478861
 20
1.528625024053979
 30
0.0
 11
12.3668705260861
 21
1.64352349865398
 31
0.0
  0
ARC
  5
775
  8
0
  6
CONTINUOUS
 62
     7
 10
13.4558448204861
 20
0.8497917886539792
 30
0.0
 40
1.500000000000001
 50
154.0876631826
 51
196.0281973526999
  0
ARC
  5
776
  8
0
  6
CONTINUOUS
 62
     7
 10
11.8940151869861
 20
0.4011123975539808
 30
0.0
 40
0.1250000000000007
 50
199.4712206345
 51
16.0281973527
  0
ARC
  5
777
  8
0
  6
CONTINUOUS
 62
     7
 10
13.6617821399861
 20
1.026112397553981
 30
0.0
 40
1.999999999999998
 50
159.5107542382
 51
199.4712206345
  0
LINE
  5
778
  8
0
  6
CONTINUOUS
 62
     7
 10
11.7883063287861
 20
1.72617552685398
 30
0.0
 11
11.4211598478861
 21
1.778625024053981
 31
0.0
  0
ARC
  5
779
  8
0
  6
CONTINUOUS
 62
     7
 10
11.4565151869861
 20
2.02611239755398
 30
0.0
 40
0.2499999999999998
 50
0.0
 51
261.8698976457999
  0
CIRCLE
  5
77A
  8
0
  6
CONTINUOUS
 62
     7
 10
11.4565151869861
 20
2.02611239755398
 30
0.0
 40
0.0625
  0
ARC
  5
77B
  8
0
  6
CONTINUOUS
 62
     7
 10
12.3315151869861
 20
1.396036125253979
 30
0.0
 40
0.2500000000000016
 50
81.86989764579998
 51
154.0876631826
  0
INSERT
  5
77C
  8
0
  6
CONTINUOUS
 62
     7
  2
SW_CENTERMARKSYMBOL_8
 10
11.4565151869861
 20
2.02611239755398
 30
0.0
  0
INSERT
  5
77D
  8
0
  6
CONTINUOUS
 62
     7
  2
SW_CENTERMARKSYMBOL_9
 10
13.2065151869861
 20
1.77611239755398
 30
0.0
  0
ENDBLK
  5
77F
  8
0
  0
BLOCK
  8
0
  2
*D20
 70
     1
 10
0.0
 20
0.0
 30
0.0
  3
*D20
  1

  0
LINE
  5
10D1
  8
0
 62
     2
 10
688.4711544141687
 20
1273.720268420574
 30
0.0
 11
688.4711544141687
 21
1219.57828441506
 31
0.0
  0
LINE
  5
10D2
  8
0
 62
     2
 10
1138.471154414169
 20
1273.720268420574
 30
0.0
 11
1138.471154414169
 21
1219.57828441506
 31
0.0
  0
LINE
  5
10D3
  8
0
 62
     2
 10
688.4711544141687
 20
1222.57828441506
 30
0.0
 11
1138.471154414169
 21
1222.57828441506
 31
0.0
  0
INSERT
  5
10D4
  8
0
 62
     2
  2
_OBLIQUE
 10
688.4711544141687
 20
1222.57828441506
 30
0.0
 41
2.5
 42
2.5
 43
2.5
 50
180.0
  0
INSERT
  5
10D5
  8
0
 62
     2
  2
_OBLIQUE
 10
1138.471154414169
 20
1222.57828441506
 30
0.0
 41
2.5
 42
2.5
 43
2.5
  0
TEXT
  5
10D6
  8
0
  6
CONTINUOUS
 62
     2
 10
902.0761544141687
 20
1223.374014292277
 30
0.0
 40
10.0
  1
450
  0
POINT
  5
10D7
  8
DEFPOINTS
 62
     0
 10
688.4711544141687
 20
1283.720268420574
 30
0.0
  0
POINT
  5
10D8
  8
DEFPOINTS
 62
     0
 10
1138.471154414169
 20
1283.720268420574
 30
0.0
  0
POINT
  5
10D9
  8
DEFPOINTS
 62
     0
 10
1138.471154414169
 20
1222.57828441506
 30
0.0
  0
ENDBLK
  5
107C
  8
0
 62
     5
  0
BLOCK
  8
0
  2
*D21
 70
     1
 10
0.0
 20
0.0
 30
0.0
  3
*D21
  1

  0
LINE
  5
10C8
  8
0
 62
     2
 10
678.4711544141687
 20
1583.720268420574
 30
0.0
 11
622.9874706149313
 21
1583.720268420574
 31
0.0
  0
LINE
  5
10C9
  8
0
 62
     2
 10
678.4711544141687
 20
1283.720268420574
 30
0.0
 11
622.9874706149313
 21
1283.720268420574
 31
0.0
  0
LINE
  5
10CA
  8
0
 62
     2
 10
625.9874706149313
 20
1583.720268420574
 30
0.0
 11
625.9874706149313
 21
1283.720268420574
 31
0.0
  0
INSERT
  5
10CB
  8
0
 62
     2
  2
_OBLIQUE
 10
625.9874706149313
 20
1583.720268420574
 30
0.0
 41
2.5
 42
2.5
 43
2.5
 50
90.0
  0
INSERT
  5
10CC
  8
0
 62
     2
  2
_OBLIQUE
 10
625.9874706149313
 20
1283.720268420574
 30
0.0
 41
2.5
 42
2.5
 43
2.5
 50
270.0
  0
TEXT
  5
10CD
  8
0
  6
CONTINUOUS
 62
     2
 10
625.1883300965135
 20
1422.120268420575
 30
0.0
 40
10.0
  1
300
 50
90.0
  0
POINT
  5
10CE
  8
DEFPOINTS
 62
     0
 10
688.4711544141687
 20
1583.720268420574
 30
0.0
  0
POINT
  5
10CF
  8
DEFPOINTS
 62
     0
 10
688.4711544141687
 20
1283.720268420574
 30
0.0
  0
POINT
  5
10D0
  8
DEFPOINTS
 62
     0
 10
625.9874706149313
 20
1283.720268420574
 30
0.0
  0
ENDBLK
  5
1094
  8
0
 62
     5
  0
BLOCK
  8
0
  2
_OBLIQUE
 70
     0
 10
0.0
 20
0.0
 30
0.0
  3
_OBLIQUE
  1

  0
LINE
  5
10C5
  8
0
  6
BYBLOCK
 62
     0
 10
-0.5
 20
-0.5
 30
0.0
 11
0.5
 21
0.5
 31
0.0
  0
ENDBLK
  5
10C7
  8
0
 62
     5
  0
BLOCK
  8
0
  2
*X28
 70
     1
 10
0.0
 20
0.0
 30
0.0
  3
*X28
  1

  0
TEXT
  5
152E
  8
0
  6
CONTINUOUS
 62
     2
 10
725.1775997300372
 20
1670.265558894081
 30
0.0
 40
7.761965999999999
  1
Suction
  0
TEXT
  5
152F
  8
0
  6
CONTINUOUS
 62
     2
 10
725.1310279340372
 20
1657.196995472081
 30
0.0
 40
7.761965999999999
  1
Cup
  0
ENDBLK
  5
1778
  8
0
  0
BLOCK
  8
0
  2
*X29
 70
     1
 10
0.0
 20
0.0
 30
0.0
  3
*X29
  1

  0
TEXT
  5
1531
  8
0
  6
CONTINUOUS
 62
     4
 10
705.322199461277
 20
1184.555768738986
 30
0.0
 40
10.0
  1
If You Want To Increase The Length  Of The Crossbow - Keep In
  0
TEXT
  5
1532
  8
0
  6
CONTINUOUS
 62
     4
 10
705.582199461277
 20
1167.72910207232
 30
0.0
 40
10.0
  1
Mind The Bolt - (Arrow)  Needs to Be Longer Which means The
  0
TEXT
  5
1533
  8
0
  6
CONTINUOUS
 62
     4
 10
706.452199461277
 20
1150.892435405653
 30
0.0
 40
10.0
  1
Weight Is Proportional To The Power. This will Affect The Range -
  0
TEXT
  5
1534
  8
0
  6
CONTINUOUS
 62
     4
 10
706.2921994612769
 20
1134.055768738987
 30
0.0
 40
10.0
  1
This Means More Power At The String - (In This Case Rubber Bands)
  0
ENDBLK
  5
177A
  8
0
  0
BLOCK
  8
0
  2
*X30
 70
     1
 10
0.0
 20
0.0
 30
0.0
  3
*X30
  1

  0
TEXT
  5
1536
  8
0
  6
CONTINUOUS
 62
     1
 10
1205.102248803506
 20
1531.504283736168
 30
0.0
 40
20.0
  1
This Can Be A Very Dangerous Toy.
  0
TEXT
  5
1537
  8
0
  6
CONTINUOUS
 62
     1
 10
1203.682248803506
 20
1497.850950402834
 30
0.0
 40
20.0
  1
Do Not Point At People Or Animals.
  0
TEXT
  5
1538
  8
0
  6
CONTINUOUS
 62
     1
 10
1205.722248803506
 20
1464.197617069501
 30
0.0
 40
20.0
  1
     Loaded Or Unloaded !!!!!!!!!
  0
TEXT
  5
1539
  8
0
  6
CONTINUOUS
 62
     1
 10
1205.722248803506
 20
1397.210950402834
 30
0.0
 40
20.0
  1
    Keep Well Away From Childen
  0
TEXT
  5
153A
  8
0
  6
CONTINUOUS
 62
     1
 10
1203.722248803506
 20
1363.557617069501
 30
0.0
 40
20.0
  1
Unless Crossbow Is  Supervised By
  0
TEXT
  5
153B
  8
0
  6
CONTINUOUS
 62
     1
 10
1205.722248803506
 20
1330.224283736168
 30
0.0
 40
20.0
  1
   By A Responsible Adult - !!!!!!!!!
  0
ENDBLK
  5
177C
  8
0
  0
BLOCK
  8
0
  2
*X31
 70
     1
 10
0.0
 20
0.0
 30
0.0
  3
*X31
  1

  0
TEXT
  5
153D
  8
0
  6
CONTINUOUS
 62
     2
 10
817.5827571626909
 20
1871.111827645089
 30
0.0
 40
10.0
  1
Use 4mm Dowel to assemble Trigger mechanism
  0
TEXT
  5
153E
  8
0
  6
CONTINUOUS
 62
     2
 10
818.1827571626909
 20
1854.275160978422
 30
0.0
 40
10.0
  1
and Crossbow Handle
  0
TEXT
  5
153F
  8
0
  6
CONTINUOUS
 62
     2
 10
818.6827571626909
 20
1820.771827645089
 30
0.0
 40
10.0
  1
 On Trigger Catch Pivot Points Rub With Candle
  0
TEXT
  5
1540
  8
0
  6
CONTINUOUS
 62
     2
 10
818.512757162691
 20
1803.935160978422
 30
0.0
 40
10.0
  1
Wax Or Similar To Avoid The Mechanism From
  0
TEXT
  5
1541
  8
0
  6
CONTINUOUS
 62
     2
 10
817.6627571626909
 20
1787.268494311756
 30
0.0
 40
10.0
  1
Binding Up.
  0
ENDBLK
  5
177E
  8
0
  0
BLOCK
  8
0
  2
*U32
 70
     1
 10
0.0
 20
0.0
 30
0.0
  3
*U32
  1

  0
SOLID
  5
1545
  8
0
 62
     5
 10
988.8114096007156
 20
1675.469004941551
 30
0.0
 11
986.9160134756918
 21
1677.380589651859
 31
0.0
 12
988.8114096007156
 22
1676.988110430588
 32
0.0
 13
988.8114096007156
 23
1676.988110430588
 33
0.0
  0
SOLID
  5
1546
  8
0
 62
     5
 10
988.8114096007156
 20
1675.469004941551
 30
0.0
 11
988.8114096007156
 21
1676.988110430588
 31
0.0
 12
989.049842446434
 22
1675.908669347928
 32
0.0
 13
989.049842446434
 23
1675.908669347928
 33
0.0
  0
SOLID
  5
1547
  8
0
 62
     5
 10
989.049842446434
 20
1675.908669347928
 30
0.0
 11
988.8114096007156
 21
1676.988110430588
 31
0.0
 12
989.049842446434
 22
1676.938738198379
 32
0.0
 13
989.049842446434
 23
1676.938738198379
 33
0.0
  0
SOLID
  5
1548
  8
0
 62
     5
 10
989.049842446434
 20
1675.908669347928
 30
0.0
 11
989.049842446434
 21
1676.938738198379
 31
0.0
 12
989.2882014065334
 22
1675.786636976915
 32
0.0
 13
989.2882014065334
 23
1675.786636976915
 33
0.0
  0
SOLID
  5
1549
  8
0
 62
     5
 10
989.2882014065334
 20
1675.786636976915
 30
0.0
 11
989.049842446434
 21
1676.938738198379
 31
0.0
 12
989.2882014065334
 22
1676.889381265647
 32
0.0
 13
989.2882014065334
 23
1676.889381265647
 33
0.0
  0
SOLID
  5
154A
  8
0
 62
     5
 10
989.2882014065334
 20
1675.786636976915
 30
0.0
 11
989.2882014065334
 21
1676.348197511008
 31
0.0
 12
989.5520589020535
 22
1675.651550149154
 32
0.0
 13
989.5520589020535
 23
1675.651550149154
 33
0.0
  0
SOLID
  5
154B
  8
0
 62
     5
 10
989.5520589020535
 20
1675.651550149154
 30
0.0
 11
989.2882014065334
 21
1676.348197511008
 31
0.0
 12
989.5520589020535
 22
1676.193166970703
 32
0.0
 13
989.5520589020535
 23
1676.193166970703
 33
0.0
  0
SOLID
  5
154C
  8
0
 62
     5
 10
989.2882014065334
 20
1676.348197511008
 30
0.0
 11
989.2882014065334
 21
1676.889381265647
 31
0.0
 12
989.5520589020535
 22
1676.834744357297
 32
0.0
 13
989.5520589020535
 23
1676.834744357297
 33
0.0
  0
SOLID
  5
154D
  8
0
 62
     5
 10
989.5520589020535
 20
1675.651550149154
 30
0.0
 11
989.5520589020535
 21
1676.193166970703
 31
0.0
 12
996.7177086144078
 22
1671.982960456163
 32
0.0
 13
996.7177086144078
 23
1671.982960456163
 33
0.0
  0
ENDBLK
  5
1780
  8
0
  0
BLOCK
  8
0
  2
*U33
 70
     1
 10
0.0
 20
0.0
 30
0.0
  3
*U33
  1

  0
SOLID
  5
1551
  8
0
 62
     5
 10
914.2849353711335
 20
1719.384414459983
 30
0.0
 11
907.0674829336256
 21
1732.901043536736
 31
0.0
 12
914.2849353711335
 22
1720.326472695944
 32
0.0
 13
914.2849353711335
 23
1720.326472695944
 33
0.0
  0
SOLID
  5
1552
  8
0
 62
     5
 10
914.7623498663737
 20
1717.767690150787
 30
0.0
 11
914.2849353711335
 21
1718.210283996999
 31
0.0
 12
914.7623498663737
 22
1718.490326871059
 32
0.0
 13
914.7623498663737
 23
1718.490326871059
 33
0.0
  0
SOLID
  5
1553
  8
0
 62
     5
 10
914.2849353711335
 20
1719.384414459983
 30
0.0
 11
914.2849353711335
 21
1720.326472695944
 31
0.0
 12
914.7623498663737
 22
1718.490326871059
 32
0.0
 13
914.7623498663737
 23
1718.490326871059
 33
0.0
  0
SOLID
  5
1554
  8
0
 62
     5
 10
914.7623498663737
 20
1718.490326871059
 30
0.0
 11
914.2849353711335
 21
1720.326472695944
 31
0.0
 12
914.7623498663737
 22
1719.494699650982
 32
0.0
 13
914.7623498663737
 23
1719.494699650982
 33
0.0
  0
SOLID
  5
1555
  8
0
 62
     5
 10
914.7623498663737
 20
1717.767690150787
 30
0.0
 11
914.7623498663737
 21
1719.494699650982
 31
0.0
 12
915.1936282062109
 22
1717.367867478624
 32
0.0
 13
915.1936282062109
 23
1717.367867478624
 33
0.0
  0
SOLID
  5
1556
  8
0
 62
     5
 10
915.1936282062109
 20
1717.367867478624
 30
0.0
 11
914.7623498663737
 21
1719.494699650982
 31
0.0
 12
915.1936282062109
 22
1718.743307094767
 32
0.0
 13
915.1936282062109
 23
1718.743307094767
 33
0.0
  0
SOLID
  5
1557
  8
0
 62
     5
 10
915.1936282062109
 20
1717.367867478624
 30
0.0
 11
915.1936282062109
 21
1718.743307094767
 31
0.0
 12
915.6250402320953
 22
1716.967920870923
 32
0.0
 13
915.6250402320953
 23
1716.967920870923
 33
0.0
  0
SOLID
  5
1558
  8
0
 62
     5
 10
915.6250402320953
 20
1716.967920870923
 30
0.0
 11
915.1936282062109
 21
1718.743307094767
 31
0.0
 12
915.6250402320953
 22
1718.996365736339
 32
0.0
 13
915.6250402320953
 23
1718.996365736339
 33
0.0
  0
SOLID
  5
1559
  8
0
 62
     5
 10
915.6250402320953
 20
1716.967920870923
 30
0.0
 11
915.6250402320953
 21
1718.996365736339
 31
0.0
 12
916.2590738576218
 22
1716.3801310494
 32
0.0
 13
916.2590738576218
 23
1716.3801310494
 33
0.0
  0
SOLID
  5
155A
  8
0
 62
     5
 10
928.4039784710039
 20
1656.155776636872
 30
0.0
 11
924.4254656233047
 21
1648.059476172272
 31
0.0
 12
928.4039784710039
 22
1657.173628308019
 32
0.0
 13
928.4039784710039
 23
1657.173628308019
 33
0.0
  0
SOLID
  5
155B
  8
0
 62
     5
 10
928.4039784710039
 20
1656.155776636872
 30
0.0
 11
928.4039784710039
 21
1657.173628308019
 31
0.0
 12
928.8563061435167
 22
1657.076266499619
 32
0.0
 13
928.8563061435167
 23
1657.076266499619
 33
0.0
  0
SOLID
  5
155C
  8
0
 62
     5
 10
928.8563061435167
 20
1657.076266499619
 30
0.0
 11
928.4039784710039
 21
1657.173628308019
 31
0.0
 12
928.8563061435167
 22
1658.209840425537
 32
0.0
 13
928.8563061435167
 23
1658.209840425537
 33
0.0
  0
SOLID
  5
155D
  8
0
 62
     5
 10
928.8563061435167
 20
1658.209840425537
 30
0.0
 11
928.4039784710039
 21
1658.423275869715
 31
0.0
 12
928.8563061435167
 22
1658.925052710201
 32
0.0
 13
928.8563061435167
 23
1658.925052710201
 33
0.0
  0
SOLID
  5
155E
  8
0
 62
     5
 10
928.8563061435167
 20
1657.076266499619
 30
0.0
 11
928.8563061435167
 21
1658.925052710201
 31
0.0
 12
929.308493648637
 22
1657.996471120778
 32
0.0
 13
929.308493648637
 23
1657.996471120778
 33
0.0
  0
SOLID
  5
155F
  8
0
 62
     5
 10
929.308493648637
 20
1657.996471120778
 30
0.0
 11
928.8563061435167
 21
1658.925052710201
 31
0.0
 12
929.308493648637
 22
1659.426674059977
 32
0.0
 13
929.308493648637
 23
1659.426674059977
 33
0.0
  0
SOLID
  5
1560
  8
0
 62
     5
 10
929.308493648637
 20
1657.996471120778
 30
0.0
 11
929.308493648637
 21
1659.426674059977
 31
0.0
 12
929.8090540746305
 22
1657.760276557959
 32
0.0
 13
929.8090540746305
 23
1657.760276557959
 33
0.0
  0
SOLID
  5
1561
  8
0
 62
     5
 10
929.8090540746305
 20
1657.760276557959
 30
0.0
 11
929.308493648637
 21
1659.426674059977
 31
0.0
 12
929.8090540746305
 22
1659.981956533924
 32
0.0
 13
929.8090540746305
 23
1659.981956533924
 33
0.0
  0
SOLID
  5
1562
  8
0
 62
     5
 10
929.8090540746305
 20
1657.760276557959
 30
0.0
 11
929.8090540746305
 21
1659.981956533924
 31
0.0
 12
930.2064122687862
 22
1660.422754546784
 32
0.0
 13
930.2064122687862
 23
1660.422754546784
 33
0.0
  0
ENDBLK
  5
1782
  8
0
  0
ENDSEC
  0
SECTION
  2
ENTITIES
  0
LINE
  5
31C
  8
0
  6
CONTINUOUS
 62
     3
 10
972.2674969011919
 20
1673.573224958227
 30
0.0
 11
973.0959546248291
 21
1672.944760470927
 31
0.0
  0
LINE
  5
31D
  8
0
  6
CONTINUOUS
 62
     3
 10
983.0737650041556
 20
1686.097764033512
 30
0.0
 11
982.2453072805342
 21
1686.72622851553
 31
0.0
  0
LINE
  5
31E
  8
0
  6
CONTINUOUS
 62
     2
 10
770.1282621369642
 20
1654.35753241372
 30
0.0
 11
772.4838177618108
 21
1659.083689618854
 31
0.0
  0
LINE
  5
31F
  8
0
  6
CONTINUOUS
 62
     2
 10
771.1445149362503
 20
1664.71686263891
 30
0.0
 11
766.913935604965
 21
1667.877148244036
 31
0.0
  0
LINE
  5
320
  8
0
  6
CONTINUOUS
 62
     3
 10
776.4128535144428
 20
1671.139001826114
 30
0.0
 11
769.2737784380715
 21
1669.441666648898
 31
0.0
  0
LINE
  5
321
  8
0
  6
CONTINUOUS
 62
     3
 10
772.9397270832278
 20
1654.022506915287
 30
0.0
 11
780.078802159599
 21
1655.719842097784
 31
0.0
  0
LINE
  5
322
  8
0
  6
CONTINUOUS
 62
     3
 10
828.1197025647261
 20
1682.074887968377
 30
0.0
 11
778.6701086535227
 21
1670.31810793618
 31
0.0
  0
LINE
  5
323
  8
0
  6
CONTINUOUS
 62
     3
 10
781.7250658137864
 20
1657.468808118549
 30
0.0
 11
831.1746597302945
 21
1669.225588150746
 31
0.0
  0
LINE
  5
324
  8
0
  6
CONTINUOUS
 62
     3
 10
1037.978730778178
 20
1756.549317237709
 30
0.0
 11
1033.695284394701
 21
1755.530915810166
 31
0.0
  0
LINE
  5
325
  8
0
  6
CONTINUOUS
 62
     3
 10
1041.018599238381
 20
1704.058280467163
 30
0.0
 11
1045.302045627147
 21
1705.076681889418
 31
0.0
  0
LINE
  5
326
  8
0
  6
CONTINUOUS
 62
     3
 10
930.7184038580131
 20
1661.204610455866
 30
0.0
 11
933.2037769021249
 21
1659.319217094331
 31
0.0
  0
LINE
  5
327
  8
0
  6
CONTINUOUS
 62
     3
 10
962.2540469557689
 20
1638.325267714703
 30
0.0
 11
964.7394200051699
 21
1636.439874358457
 31
0.0
  0
LINE
  5
328
  8
0
  6
CONTINUOUS
 62
     3
 10
933.2037769021249
 20
1659.319217094331
 30
0.0
 11
934.0322346257626
 21
1658.690752612312
 31
0.0
  0
LINE
  5
329
  8
0
  6
CONTINUOUS
 62
     3
 10
929.8899461343758
 20
1661.833074937884
 30
0.0
 11
930.7184038580131
 21
1661.204610455866
 31
0.0
  0
LINE
  5
32A
  8
0
  6
CONTINUOUS
 62
     3
 10
856.0304328546385
 20
1712.862031594686
 30
0.0
 11
851.7469868884982
 21
1711.84363026753
 31
0.0
  0
LINE
  5
32B
  8
0
  6
CONTINUOUS
 62
     3
 10
859.0461421415293
 20
1658.882581518823
 30
0.0
 11
863.3295881129425
 21
1659.900982845981
 31
0.0
  0
LINE
  5
32C
  8
0
  6
CONTINUOUS
 62
     3
 10
856.5052860046026
 20
1704.490163096762
 30
0.0
 11
853.6563350984875
 21
1703.812817006509
 31
0.0
  0
LINE
  5
32D
  8
0
  6
CONTINUOUS
 62
     3
 10
1004.58297246606
 20
1608.455440515036
 30
0.0
 11
1007.068345515459
 21
1606.570047153508
 31
0.0
  0
LINE
  5
32E
  8
0
  6
CONTINUOUS
 62
     3
 10
902.0403535096511
 20
1650.766635466684
 30
0.0
 11
901.9678739610886
 21
1646.301392756019
 31
0.0
  0
LINE
  5
32F
  8
0
  6
CONTINUOUS
 62
     3
 10
916.5076681889786
 20
1648.537328956576
 30
0.0
 11
916.5801477375398
 21
1653.002571661959
 31
0.0
  0
LINE
  5
330
  8
0
  6
CONTINUOUS
 62
     3
 10
812.7765076197707
 20
1718.481807073122
 30
0.0
 11
812.7040280712085
 21
1714.016564362457
 31
0.0
  0
POLYLINE
  5
331
  8
0
  6
CONTINUOUS
 62
     3
 66
     1
 10
0.0
 20
0.0
 30
0.0
 70
   128
  0
VERTEX
  5
1319
  8
0
  6
CONTINUOUS
 62
     3
 10
982.2453072805342
 20
1686.72622851553
 30
0.0
  0
VERTEX
  5
131A
  8
0
  6
CONTINUOUS
 62
     3
 10
981.5250637230579
 20
1687.18138647451
 30
0.0
  0
VERTEX
  5
131B
  8
0
  6
CONTINUOUS
 62
     3
 10
980.1948602633911
 20
1687.655462047884
 30
0.0
  0
VERTEX
  5
131C
  8
0
  6
CONTINUOUS
 62
     3
 10
978.7272568384255
 20
1687.778576026172
 30
0.0
  0
VERTEX
  5
131D
  8
0
  6
CONTINUOUS
 62
     3
 10
977.1908753640728
 20
1687.544976054181
 30
0.0
  0
VERTEX
  5
131E
  8
0
  6
CONTINUOUS
 62
     3
 10
975.6575722287939
 20
1686.965584350605
 30
0.0
  0
VERTEX
  5
131F
  8
0
  6
CONTINUOUS
 62
     3
 10
974.1990122545562
 20
1686.067485897338
 30
0.0
  0
VERTEX
  5
1320
  8
0
  6
CONTINUOUS
 62
     3
 10
972.8834176411474
 20
1684.892682267218
 30
0.0
  0
VERTEX
  5
1321
  8
0
  6
CONTINUOUS
 62
     3
 10
971.7723048756693
 20
1683.49610504079
 30
0.0
  0
VERTEX
  5
1322
  8
0
  6
CONTINUOUS
 62
     3
 10
970.9176127893079
 20
1681.943050693707
 30
0.0
  0
VERTEX
  5
1323
  8
0
  6
CONTINUOUS
 62
     3
 10
970.3593236488973
 20
1680.306146439366
 30
0.0
  0
VERTEX
  5
1324
  8
0
  6
CONTINUOUS
 62
     3
 10
970.1235317862815
 20
1678.661926704583
 30
0.0
  0
VERTEX
  5
1325
  8
0
  6
CONTINUOUS
 62
     3
 10
970.2212644934748
 20
1677.087277013058
 30
0.0
  0
VERTEX
  5
1326
  8
0
  6
CONTINUOUS
 62
     3
 10
970.6479493601323
 20
1675.65581937008
 30
0.0
  0
VERTEX
  5
1327
  8
0
  6
CONTINUOUS
 62
     3
 10
971.3836391755808
 20
1674.434495125531
 30
0.0
  0
VERTEX
  5
1328
  8
0
  6
CONTINUOUS
 62
     3
 10
972.2674969011919
 20
1673.573224958227
 30
0.0
  0
SEQEND
  5
1784
  8
0
  6
CONTINUOUS
 62
     3
  0
POLYLINE
  5
332
  8
0
  6
CONTINUOUS
 62
     3
 66
     1
 10
0.0
 20
0.0
 30
0.0
 70
   128
  0
VERTEX
  5
1329
  8
0
  6
CONTINUOUS
 62
     3
 10
984.7418208733643
 20
1678.540644792613
 30
0.0
  0
VERTEX
  5
132A
  8
0
  6
CONTINUOUS
 62
     3
 10
985.1412079117799
 20
1680.190882162537
 30
0.0
  0
VERTEX
  5
132B
  8
0
  6
CONTINUOUS
 62
     3
 10
985.2106351400121
 20
1681.809804641583
 30
0.0
  0
VERTEX
  5
132C
  8
0
  6
CONTINUOUS
 62
     3
 10
984.946884732245
 20
1683.321722346659
 30
0.0
  0
VERTEX
  5
132D
  8
0
  6
CONTINUOUS
 62
     3
 10
984.3622663994747
 20
1684.655933169417
 30
0.0
  0
VERTEX
  5
132E
  8
0
  6
CONTINUOUS
 62
     3
 10
983.4841240851206
 20
1685.750051692715
 30
0.0
  0
VERTEX
  5
132F
  8
0
  6
CONTINUOUS
 62
     3
 10
982.3535214466956
 20
1686.55292198721
 30
0.0
  0
VERTEX
  5
1330
  8
0
  6
CONTINUOUS
 62
     3
 10
981.0233179817392
 20
1687.026997565866
 30
0.0
  0
VERTEX
  5
1331
  8
0
  6
CONTINUOUS
 62
     3
 10
979.5557145620483
 20
1687.150111544153
 30
0.0
  0
VERTEX
  5
1332
  8
0
  6
CONTINUOUS
 62
     3
 10
978.0193330877096
 20
1686.916511566889
 30
0.0
  0
VERTEX
  5
1333
  8
0
  6
CONTINUOUS
 62
     3
 10
976.4860299524316
 20
1686.337119868587
 30
0.0
  0
VERTEX
  5
1334
  8
0
  6
CONTINUOUS
 62
     3
 10
975.0274699781935
 20
1685.43902141532
 30
0.0
  0
VERTEX
  5
1335
  8
0
  6
CONTINUOUS
 62
     3
 10
973.7118753594964
 20
1684.264217779918
 30
0.0
  0
VERTEX
  5
1336
  8
0
  6
CONTINUOUS
 62
     3
 10
972.6007625940188
 20
1682.867640553482
 30
0.0
  0
VERTEX
  5
1337
  8
0
  6
CONTINUOUS
 62
     3
 10
971.7460705129452
 20
1681.314586206408
 30
0.0
  0
VERTEX
  5
1338
  8
0
  6
CONTINUOUS
 62
     3
 10
971.1877813672459
 20
1679.677681957347
 30
0.0
  0
VERTEX
  5
1339
  8
0
  6
CONTINUOUS
 62
     3
 10
970.9519895099193
 20
1678.033462222565
 30
0.0
  0
VERTEX
  5
133A
  8
0
  6
CONTINUOUS
 62
     3
 10
971.0497222170984
 20
1676.458812531039
 30
0.0
  0
VERTEX
  5
133B
  8
0
  6
CONTINUOUS
 62
     3
 10
971.4764070784818
 20
1675.02735488278
 30
0.0
  0
VERTEX
  5
133C
  8
0
  6
CONTINUOUS
 62
     3
 10
972.212096899219
 20
1673.806030638231
 30
0.0
  0
VERTEX
  5
133D
  8
0
  6
CONTINUOUS
 62
     3
 10
973.222399717301
 20
1672.851944978873
 30
0.0
  0
VERTEX
  5
133E
  8
0
  6
CONTINUOUS
 62
     3
 10
974.4600510735818
 20
1672.209706764217
 30
0.0
  0
VERTEX
  5
133F
  8
0
  6
CONTINUOUS
 62
     3
 10
975.8672099455825
 20
1671.909351028451
 30
0.0
  0
VERTEX
  5
1340
  8
0
  6
CONTINUOUS
 62
     3
 10
977.378059129333
 20
1671.964921818868
 30
0.0
  0
VERTEX
  5
1341
  8
0
  6
CONTINUOUS
 62
     3
 10
978.9219452626153
 20
1672.373813143084
 30
0.0
  0
VERTEX
  5
1342
  8
0
  6
CONTINUOUS
 62
     3
 10
980.4267055172886
 20
1673.116916200659
 30
0.0
  0
VERTEX
  5
1343
  8
0
  6
CONTINUOUS
 62
     3
 10
981.8219523922326
 20
1674.159476907151
 30
0.0
  0
VERTEX
  5
1344
  8
0
  6
CONTINUOUS
 62
     3
 10
983.0424648686571
 20
1675.452747620354
 30
0.0
  0
VERTEX
  5
1345
  8
0
  6
CONTINUOUS
 62
     3
 10
984.0311624102787
 20
1676.936259902889
 30
0.0
  0
VERTEX
  5
1346
  8
0
  6
CONTINUOUS
 62
     3
 10
984.7418208733643
 20
1678.540644792613
 30
0.0
  0
SEQEND
  5
1785
  8
0
  6
CONTINUOUS
 62
     3
  0
POLYLINE
  5
333
  8
0
  6
CONTINUOUS
 62
     3
 66
     1
 10
0.0
 20
0.0
 30
0.0
 70
   128
  0
VERTEX
  5
1347
  8
0
  6
CONTINUOUS
 62
     3
 10
979.4162573958934
 20
1679.325140732968
 30
0.0
  0
VERTEX
  5
1348
  8
0
  6
CONTINUOUS
 62
     3
 10
979.5125091177501
 20
1679.919444700663
 30
0.0
  0
VERTEX
  5
1349
  8
0
  6
CONTINUOUS
 62
     3
 10
979.3914312981751
 20
1680.45313443638
 30
0.0
  0
VERTEX
  5
134A
  8
0
  6
CONTINUOUS
 62
     3
 10
979.0714236972076
 20
1680.844950450963
 30
0.0
  0
VERTEX
  5
134B
  8
0
  6
CONTINUOUS
 62
     3
 10
978.601235637052
 20
1681.035249742222
 30
0.0
  0
VERTEX
  5
134C
  8
0
  6
CONTINUOUS
 62
     3
 10
978.0524230203264
 20
1680.99505738152
 30
0.0
  0
VERTEX
  5
134D
  8
0
  6
CONTINUOUS
 62
     3
 10
977.5085528186164
 20
1680.730493213962
 30
0.0
  0
VERTEX
  5
134E
  8
0
  6
CONTINUOUS
 62
     3
 10
977.0524247814865
 20
1680.281837060143
 30
0.0
  0
VERTEX
  5
134F
  8
0
  6
CONTINUOUS
 62
     3
 10
976.753475662455
 20
1679.717388705782
 30
0.0
  0
VERTEX
  5
1350
  8
0
  6
CONTINUOUS
 62
     3
 10
976.6572105376504
 20
1679.12308154715
 30
0.0
  0
VERTEX
  5
1351
  8
0
  6
CONTINUOUS
 62
     3
 10
976.7783017865881
 20
1678.589396745745
 30
0.0
  0
VERTEX
  5
1352
  8
0
  6
CONTINUOUS
 62
     3
 10
977.0982959898975
 20
1678.197577545533
 30
0.0
  0
VERTEX
  5
1353
  8
0
  6
CONTINUOUS
 62
     3
 10
977.5684974477113
 20
1678.007281439904
 30
0.0
  0
VERTEX
  5
1354
  8
0
  6
CONTINUOUS
 62
     3
 10
978.1172966350591
 20
1678.047468871583
 30
0.0
  0
VERTEX
  5
1355
  8
0
  6
CONTINUOUS
 62
     3
 10
978.6611668367996
 20
1678.312033033846
 30
0.0
  0
VERTEX
  5
1356
  8
0
  6
CONTINUOUS
 62
     3
 10
979.1173083032618
 20
1678.760694121983
 30
0.0
  0
VERTEX
  5
1357
  8
0
  6
CONTINUOUS
 62
     3
 10
979.4162573958934
 20
1679.325140732968
 30
0.0
  0
SEQEND
  5
1786
  8
0
  6
CONTINUOUS
 62
     3
  0
POLYLINE
  5
334
  8
0
  6
CONTINUOUS
 62
     3
 66
     1
 10
0.0
 20
0.0
 30
0.0
 70
   128
  0
VERTEX
  5
1358
  8
0
  6
CONTINUOUS
 62
     3
 10
978.5877996775444
 20
1679.953605214987
 30
0.0
  0
VERTEX
  5
1359
  8
0
  6
CONTINUOUS
 62
     3
 10
978.6840513941129
 20
1680.547909182691
 30
0.0
  0
VERTEX
  5
135A
  8
0
  6
CONTINUOUS
 62
     3
 10
978.5827160746871
 20
1681.03782446987
 30
0.0
  0
SEQEND
  5
1787
  8
0
  6
CONTINUOUS
 62
     3
  0
ARC
  5
335
  8
0
  6
CONTINUOUS
 62
     3
 10
976.816499893247
 20
1680.480170555951
 30
0.0
 40
1.84791070441331
 50
268.2030877850025
 51
343.4440371828974
  0
ARC
  5
336
  8
0
  6
CONTINUOUS
 62
     2
 10
767.4644285922686
 20
1660.866113664428
 30
0.0
 40
5.326471923363803
 50
340.4496546705942
 51
46.29820592159003
  0
POLYLINE
  5
337
  8
0
  6
CONTINUOUS
 62
     2
 66
     1
 10
0.0
 20
0.0
 30
0.0
 70
   128
  0
VERTEX
  5
135B
  8
0
  6
CONTINUOUS
 62
     2
 10
762.846709641829
 20
1663.730314512704
 30
0.0
  0
VERTEX
  5
135C
  8
0
  6
CONTINUOUS
 62
     2
 10
762.9646097651885
 20
1665.195619705782
 30
0.0
  0
VERTEX
  5
135D
  8
0
  6
CONTINUOUS
 62
     2
 10
763.2629381595416
 20
1666.451354614122
 30
0.0
  0
VERTEX
  5
135E
  8
0
  6
CONTINUOUS
 62
     2
 10
763.7277455966837
 20
1667.43880231698
 30
0.0
  0
VERTEX
  5
135F
  8
0
  6
CONTINUOUS
 62
     2
 10
764.3372980114559
 20
1668.111791294481
 30
0.0
  0
VERTEX
  5
1360
  8
0
  6
CONTINUOUS
 62
     2
 10
765.0630933290536
 20
1668.43885336985
 30
0.0
  0
VERTEX
  5
1361
  8
0
  6
CONTINUOUS
 62
     2
 10
765.8711942995101
 20
1668.404694281939
 30
0.0
  0
VERTEX
  5
1362
  8
0
  6
CONTINUOUS
 62
     2
 10
766.7238149579412
 20
1668.010912345977
 30
0.0
  0
VERTEX
  5
1363
  8
0
  6
CONTINUOUS
 62
     2
 10
767.5810877100384
 20
1667.275921121171
 30
0.0
  0
VERTEX
  5
1364
  8
0
  6
CONTINUOUS
 62
     2
 10
768.4029274503164
 20
1666.234086408187
 30
0.0
  0
VERTEX
  5
1365
  8
0
  6
CONTINUOUS
 62
     2
 10
769.1509058712013
 20
1664.934123242628
 30
0.0
  0
VERTEX
  5
1366
  8
0
  6
CONTINUOUS
 62
     2
 10
769.7900482548143
 20
1663.436817912852
 30
0.0
  0
VERTEX
  5
1367
  8
0
  6
CONTINUOUS
 62
     2
 10
770.290469218196
 20
1661.812181903299
 30
0.0
  0
VERTEX
  5
1368
  8
0
  6
CONTINUOUS
 62
     2
 10
770.6287694824723
 20
1660.136181106771
 30
0.0
  0
VERTEX
  5
1369
  8
0
  6
CONTINUOUS
 62
     2
 10
770.7891304922032
 20
1658.487183759818
 30
0.0
  0
VERTEX
  5
136A
  8
0
  6
CONTINUOUS
 62
     2
 10
770.7640539544172
 20
1656.942295258781
 30
0.0
  0
VERTEX
  5
136B
  8
0
  6
CONTINUOUS
 62
     2
 10
770.5547124230948
 20
1655.573752789878
 30
0.0
  0
VERTEX
  5
136C
  8
0
  6
CONTINUOUS
 62
     2
 10
770.1708944615734
 20
1654.445547893717
 30
0.0
  0
VERTEX
  5
136D
  8
0
  6
CONTINUOUS
 62
     2
 10
769.6305469880167
 20
1653.610434154505
 30
0.0
  0
VERTEX
  5
136E
  8
0
  6
CONTINUOUS
 62
     2
 10
768.9589361941944
 20
1653.107460356176
 30
0.0
  0
VERTEX
  5
136F
  8
0
  6
CONTINUOUS
 62
     2
 10
768.187465640648
 20
1652.960145120307
 30
0.0
  0
VERTEX
  5
1370
  8
0
  6
CONTINUOUS
 62
     2
 10
767.3522085316931
 20
1653.175376987913
 30
0.0
  0
VERTEX
  5
1371
  8
0
  6
CONTINUOUS
 62
     2
 10
766.4922205614475
 20
1653.74309195647
 30
0.0
  0
VERTEX
  5
1372
  8
0
  6
CONTINUOUS
 62
     2
 10
765.6477137591678
 20
1654.636743655243
 30
0.0
  0
VERTEX
  5
1373
  8
0
  6
CONTINUOUS
 62
     2
 10
764.8581763477982
 20
1655.814546654312
 30
0.0
  0
VERTEX
  5
1374
  8
0
  6
CONTINUOUS
 62
     2
 10
764.160526291997
 20
1657.221427857739
 30
0.0
  0
VERTEX
  5
1375
  8
0
  6
CONTINUOUS
 62
     2
 10
763.587384785983
 20
1658.791603381358
 30
0.0
  0
VERTEX
  5
1376
  8
0
  6
CONTINUOUS
 62
     2
 10
763.165551366561
 20
1660.451653151511
 30
0.0
  0
VERTEX
  5
1377
  8
0
  6
CONTINUOUS
 62
     2
 10
762.9147506932195
 20
1662.123955153718
 30
0.0
  0
VERTEX
  5
1378
  8
0
  6
CONTINUOUS
 62
     2
 10
762.846709641829
 20
1663.730314512704
 30
0.0
  0
SEQEND
  5
1788
  8
0
  6
CONTINUOUS
 62
     2
  0
POLYLINE
  5
338
  8
0
  6
CONTINUOUS
 62
     3
 66
     1
 10
0.0
 20
0.0
 30
0.0
 70
   128
  0
VERTEX
  5
1379
  8
0
  6
CONTINUOUS
 62
     3
 10
767.5289541426141
 20
1667.417723648764
 30
0.0
  0
VERTEX
  5
137A
  8
0
  6
CONTINUOUS
 62
     3
 10
767.5463845483073
 20
1667.469756041659
 30
0.0
  0
VERTEX
  5
137B
  8
0
  6
CONTINUOUS
 62
     3
 10
768.0111919854508
 20
1668.457203739235
 30
0.0
  0
VERTEX
  5
137C
  8
0
  6
CONTINUOUS
 62
     3
 10
768.6207444002234
 20
1669.130192716729
 30
0.0
  0
VERTEX
  5
137D
  8
0
  6
CONTINUOUS
 62
     3
 10
769.3465397178197
 20
1669.457254797379
 30
0.0
  0
VERTEX
  5
137E
  8
0
  6
CONTINUOUS
 62
     3
 10
770.1546406882762
 20
1669.423095709475
 30
0.0
  0
VERTEX
  5
137F
  8
0
  6
CONTINUOUS
 62
     3
 10
771.0072613467064
 20
1669.029313773513
 30
0.0
  0
VERTEX
  5
1380
  8
0
  6
CONTINUOUS
 62
     3
 10
771.8645340987887
 20
1668.294322548707
 30
0.0
  0
VERTEX
  5
1381
  8
0
  6
CONTINUOUS
 62
     3
 10
772.6863738390839
 20
1667.252487835723
 30
0.0
  0
VERTEX
  5
1382
  8
0
  6
CONTINUOUS
 62
     3
 10
773.4343522599661
 20
1665.952524670164
 30
0.0
  0
VERTEX
  5
1383
  8
0
  6
CONTINUOUS
 62
     3
 10
774.0734946435805
 20
1664.455219335099
 30
0.0
  0
VERTEX
  5
1384
  8
0
  6
CONTINUOUS
 62
     3
 10
774.573915606963
 20
1662.830583330835
 30
0.0
  0
VERTEX
  5
1385
  8
0
  6
CONTINUOUS
 62
     3
 10
774.9122158712385
 20
1661.154582534307
 30
0.0
  0
VERTEX
  5
1386
  8
0
  6
CONTINUOUS
 62
     3
 10
775.0725768809689
 20
1659.505585187355
 30
0.0
  0
VERTEX
  5
1387
  8
0
  6
CONTINUOUS
 62
     3
 10
775.0475003431998
 20
1657.960696686318
 30
0.0
  0
VERTEX
  5
1388
  8
0
  6
CONTINUOUS
 62
     3
 10
774.8381588118618
 20
1656.592154217415
 30
0.0
  0
VERTEX
  5
1389
  8
0
  6
CONTINUOUS
 62
     3
 10
774.4543408503396
 20
1655.463949321261
 30
0.0
  0
VERTEX
  5
138A
  8
0
  6
CONTINUOUS
 62
     3
 10
773.9139933767842
 20
1654.628835582034
 30
0.0
  0
VERTEX
  5
138B
  8
0
  6
CONTINUOUS
 62
     3
 10
773.2423825829619
 20
1654.125861783712
 30
0.0
  0
VERTEX
  5
138C
  8
0
  6
CONTINUOUS
 62
     3
 10
772.4709120294142
 20
1653.978546542561
 30
0.0
  0
VERTEX
  5
138D
  8
0
  6
CONTINUOUS
 62
     3
 10
771.6356549204606
 20
1654.193778415449
 30
0.0
  0
VERTEX
  5
138E
  8
0
  6
CONTINUOUS
 62
     3
 10
770.7756669502146
 20
1654.761493383999
 30
0.0
  0
VERTEX
  5
138F
  8
0
  6
CONTINUOUS
 62
     3
 10
770.4707002382715
 20
1655.044594806647
 30
0.0
  0
SEQEND
  5
1789
  8
0
  6
CONTINUOUS
 62
     3
  0
POLYLINE
  5
339
  8
0
  6
CONTINUOUS
 62
     3
 66
     1
 10
0.0
 20
0.0
 30
0.0
 70
   128
  0
VERTEX
  5
1390
  8
0
  6
CONTINUOUS
 62
     3
 10
776.4128535144428
 20
1671.139001826114
 30
0.0
  0
VERTEX
  5
1391
  8
0
  6
CONTINUOUS
 62
     3
 10
776.4856147994788
 20
1671.154589974595
 30
0.0
  0
VERTEX
  5
1392
  8
0
  6
CONTINUOUS
 62
     3
 10
777.2937157699362
 20
1671.120430886691
 30
0.0
  0
VERTEX
  5
1393
  8
0
  6
CONTINUOUS
 62
     3
 10
778.1463364283668
 20
1670.726648956017
 30
0.0
  0
VERTEX
  5
1394
  8
0
  6
CONTINUOUS
 62
     3
 10
779.0036091804641
 20
1669.991657725931
 30
0.0
  0
VERTEX
  5
1395
  8
0
  6
CONTINUOUS
 62
     3
 10
779.8254489207429
 20
1668.949823018221
 30
0.0
  0
VERTEX
  5
1396
  8
0
  6
CONTINUOUS
 62
     3
 10
780.5734273363369
 20
1667.649859847388
 30
0.0
  0
VERTEX
  5
1397
  8
0
  6
CONTINUOUS
 62
     3
 10
781.2125697252563
 20
1666.152554517604
 30
0.0
  0
VERTEX
  5
1398
  8
0
  6
CONTINUOUS
 62
     3
 10
781.712990688638
 20
1664.52791850805
 30
0.0
  0
VERTEX
  5
1399
  8
0
  6
CONTINUOUS
 62
     3
 10
782.0512909528984
 20
1662.851917711531
 30
0.0
  0
VERTEX
  5
139A
  8
0
  6
CONTINUOUS
 62
     3
 10
782.2116519626297
 20
1661.202920364571
 30
0.0
  0
VERTEX
  5
139B
  8
0
  6
CONTINUOUS
 62
     3
 10
782.1865754248602
 20
1659.658031868823
 30
0.0
  0
VERTEX
  5
139C
  8
0
  6
CONTINUOUS
 62
     3
 10
781.9772338935213
 20
1658.28948939463
 30
0.0
  0
VERTEX
  5
139D
  8
0
  6
CONTINUOUS
 62
     3
 10
781.5934159319986
 20
1657.161284503758
 30
0.0
  0
VERTEX
  5
139E
  8
0
  6
CONTINUOUS
 62
     3
 10
781.0530684584432
 20
1656.32617075925
 30
0.0
  0
VERTEX
  5
139F
  8
0
  6
CONTINUOUS
 62
     3
 10
780.3814576646205
 20
1655.82319696621
 30
0.0
  0
VERTEX
  5
13A0
  8
0
  6
CONTINUOUS
 62
     3
 10
780.078802159599
 20
1655.719842097784
 30
0.0
  0
SEQEND
  5
178A
  8
0
  6
CONTINUOUS
 62
     3
  0
POLYLINE
  5
33A
  8
0
  6
CONTINUOUS
 62
     3
 66
     1
 10
0.0
 20
0.0
 30
0.0
 70
   128
  0
VERTEX
  5
13A1
  8
0
  6
CONTINUOUS
 62
     3
 10
828.1197025647261
 20
1682.074887968377
 30
0.0
  0
VERTEX
  5
13A2
  8
0
  6
CONTINUOUS
 62
     3
 10
828.5624400126308
 20
1682.10843027799
 30
0.0
  0
VERTEX
  5
13A3
  8
0
  6
CONTINUOUS
 62
     3
 10
829.3436777862985
 20
1681.863498333492
 30
0.0
  0
VERTEX
  5
13A4
  8
0
  6
CONTINUOUS
 62
     3
 10
830.1425540889472
 20
1681.257474183459
 30
0.0
  0
VERTEX
  5
13A5
  8
0
  6
CONTINUOUS
 62
     3
 10
830.912641101891
 20
1680.325577787359
 30
0.0
  0
VERTEX
  5
13A6
  8
0
  6
CONTINUOUS
 62
     3
 10
831.6091842184651
 20
1679.12196765552
 30
0.0
  0
VERTEX
  5
13A7
  8
0
  6
CONTINUOUS
 62
     3
 10
832.1917028910229
 20
1677.716593128606
 30
0.0
  0
VERTEX
  5
13A8
  8
0
  6
CONTINUOUS
 62
     3
 10
832.6263431083262
 20
1676.191130090323
 30
0.0
  0
VERTEX
  5
13A9
  8
0
  6
CONTINUOUS
 62
     3
 10
832.8878453510611
 20
1674.634231867514
 30
0.0
  0
VERTEX
  5
13AA
  8
0
  6
CONTINUOUS
 62
     3
 10
832.9610117990292
 20
1673.136380419407
 30
0.0
  0
VERTEX
  5
13AB
  8
0
  6
CONTINUOUS
 62
     3
 10
832.8415907033891
 20
1671.78462513125
 30
0.0
  0
VERTEX
  5
13AC
  8
0
  6
CONTINUOUS
 62
     3
 10
832.5365219716646
 20
1670.657525362243
 30
0.0
  0
VERTEX
  5
13AD
  8
0
  6
CONTINUOUS
 62
     3
 10
832.0635353436555
 20
1669.820583730268
 30
0.0
  0
VERTEX
  5
13AE
  8
0
  6
CONTINUOUS
 62
     3
 10
831.4501188879935
 20
1669.322440690989
 30
0.0
  0
VERTEX
  5
13AF
  8
0
  6
CONTINUOUS
 62
     3
 10
831.1746597302945
 20
1669.225588150746
 30
0.0
  0
SEQEND
  5
178B
  8
0
  6
CONTINUOUS
 62
     3
  0
POLYLINE
  5
33B
  8
0
  6
CONTINUOUS
 62
     3
 66
     1
 10
0.0
 20
0.0
 30
0.0
 70
   128
  0
VERTEX
  5
13B0
  8
0
  6
CONTINUOUS
 62
     3
 10
1038.455476574506
 20
1744.401515298011
 30
0.0
  0
VERTEX
  5
13B1
  8
0
  6
CONTINUOUS
 62
     3
 10
1038.372078626861
 20
1745.495451616321
 30
0.0
  0
VERTEX
  5
13B2
  8
0
  6
CONTINUOUS
 62
     3
 10
1038.098891301977
 20
1746.609048622427
 30
0.0
  0
VERTEX
  5
13B3
  8
0
  6
CONTINUOUS
 62
     3
 10
1037.668864977049
 20
1747.607987532333
 30
0.0
  0
VERTEX
  5
13B4
  8
0
  6
CONTINUOUS
 62
     3
 10
1037.133867189315
 20
1748.371784545657
 30
0.0
  0
VERTEX
  5
13B5
  8
0
  6
CONTINUOUS
 62
     3
 10
1036.558426542719
 20
1748.808311355005
 30
0.0
  0
VERTEX
  5
13B6
  8
0
  6
CONTINUOUS
 62
     3
 10
1036.011949656558
 20
1748.864916406562
 30
0.0
  0
VERTEX
  5
13B7
  8
0
  6
CONTINUOUS
 62
     3
 10
1035.560349784784
 20
1748.534775358185
 30
0.0
  0
VERTEX
  5
13B8
  8
0
  6
CONTINUOUS
 62
     3
 10
1035.258096457795
 20
1747.857705166707
 30
0.0
  0
VERTEX
  5
13B9
  8
0
  6
CONTINUOUS
 62
     3
 10
1035.141645928269
 20
1746.915373051741
 30
0.0
  0
VERTEX
  5
13BA
  8
0
  6
CONTINUOUS
 62
     3
 10
1035.22504384421
 20
1745.821434990049
 30
0.0
  0
VERTEX
  5
13BB
  8
0
  6
CONTINUOUS
 62
     3
 10
1035.498231169094
 20
1744.707837983934
 30
0.0
  0
VERTEX
  5
13BC
  8
0
  6
CONTINUOUS
 62
     3
 10
1035.928257494023
 20
1743.70889907402
 30
0.0
  0
VERTEX
  5
13BD
  8
0
  6
CONTINUOUS
 62
     3
 10
1036.463255308155
 20
1742.945103809378
 30
0.0
  0
VERTEX
  5
13BE
  8
0
  6
CONTINUOUS
 62
     3
 10
1037.03869596004
 20
1742.50857699474
 30
0.0
  0
VERTEX
  5
13BF
  8
0
  6
CONTINUOUS
 62
     3
 10
1037.585172814511
 20
1742.4519701998
 30
0.0
  0
VERTEX
  5
13C0
  8
0
  6
CONTINUOUS
 62
     3
 10
1038.036772686287
 20
1742.782111248184
 30
0.0
  0
VERTEX
  5
13C1
  8
0
  6
CONTINUOUS
 62
     3
 10
1038.339026013259
 20
1743.459181439654
 30
0.0
  0
VERTEX
  5
13C2
  8
0
  6
CONTINUOUS
 62
     3
 10
1038.455476574506
 20
1744.401515298011
 30
0.0
  0
SEQEND
  5
178C
  8
0
  6
CONTINUOUS
 62
     3
  0
LINE
  5
33C
  8
0
  6
CONTINUOUS
 62
     3
 10
1030.503585407944
 20
1751.129204866958
 30
0.0
 11
1027.702424443953
 21
1738.803279882832
 31
0.0
  0
POLYLINE
  5
33D
  8
0
  6
CONTINUOUS
 62
     3
 66
     1
 10
0.0
 20
0.0
 30
0.0
 70
   128
  0
VERTEX
  5
13C3
  8
0
  6
CONTINUOUS
 62
     3
 10
1043.115838478942
 20
1741.561603647936
 30
0.0
  0
VERTEX
  5
13C4
  8
0
  6
CONTINUOUS
 62
     3
 10
1042.71673890375
 20
1743.727099633711
 30
0.0
  0
VERTEX
  5
13C5
  8
0
  6
CONTINUOUS
 62
     3
 10
1042.150160390474
 20
1745.863249814509
 30
0.0
  0
VERTEX
  5
13C6
  8
0
  6
CONTINUOUS
 62
     3
 10
1041.432006445002
 20
1747.910090642837
 30
0.0
  0
VERTEX
  5
13C7
  8
0
  6
CONTINUOUS
 62
     3
 10
1040.582436368805
 20
1749.810168730185
 30
0.0
  0
VERTEX
  5
13C8
  8
0
  6
CONTINUOUS
 62
     3
 10
1039.625296983835
 20
1751.510149310867
 30
0.0
  0
VERTEX
  5
13C9
  8
0
  6
CONTINUOUS
 62
     3
 10
1038.587454867969
 20
1752.962316409871
 30
0.0
  0
VERTEX
  5
13CA
  8
0
  6
CONTINUOUS
 62
     3
 10
1037.498042525584
 20
1754.125901308333
 30
0.0
  0
VERTEX
  5
13CB
  8
0
  6
CONTINUOUS
 62
     3
 10
1036.387639402764
 20
1754.968248366948
 30
0.0
  0
VERTEX
  5
13CC
  8
0
  6
CONTINUOUS
 62
     3
 10
1035.287414632756
 20
1755.465712811691
 30
0.0
  0
VERTEX
  5
13CD
  8
0
  6
CONTINUOUS
 62
     3
 10
1034.228250979152
 20
1755.604325317851
 30
0.0
  0
VERTEX
  5
13CE
  8
0
  6
CONTINUOUS
 62
     3
 10
1033.239879635639
 20
1755.380200849941
 30
0.0
  0
VERTEX
  5
13CF
  8
0
  6
CONTINUOUS
 62
     3
 10
1032.35004379164
 20
1754.799628657382
 30
0.0
  0
VERTEX
  5
13D0
  8
0
  6
CONTINUOUS
 62
     3
 10
1031.583720537928
 20
1753.878905881511
 30
0.0
  0
VERTEX
  5
13D1
  8
0
  6
CONTINUOUS
 62
     3
 10
1030.962421208909
 20
1752.64387474997
 30
0.0
  0
VERTEX
  5
13D2
  8
0
  6
CONTINUOUS
 62
     3
 10
1030.503585407944
 20
1751.129204866958
 30
0.0
  0
SEQEND
  5
178D
  8
0
  6
CONTINUOUS
 62
     3
  0
LINE
  5
33E
  8
0
  6
CONTINUOUS
 62
     3
 10
1045.984558411098
 20
1721.652212912921
 30
0.0
 11
1043.115838478942
 21
1741.561603647936
 31
0.0
  0
POLYLINE
  5
33F
  8
0
  6
CONTINUOUS
 62
     3
 66
     1
 10
0.0
 20
0.0
 30
0.0
 70
   128
  0
VERTEX
  5
13D3
  8
0
  6
CONTINUOUS
 62
     3
 10
1037.191605436551
 20
1704.778181834922
 30
0.0
  0
VERTEX
  5
13D4
  8
0
  6
CONTINUOUS
 62
     3
 10
1038.218019191772
 20
1704.29414992631
 30
0.0
  0
VERTEX
  5
13D5
  8
0
  6
CONTINUOUS
 62
     3
 10
1039.561485339502
 20
1703.969291527923
 30
0.0
  0
VERTEX
  5
13D6
  8
0
  6
CONTINUOUS
 62
     3
 10
1040.844210088454
 20
1704.020753125662
 30
0.0
  0
VERTEX
  5
13D7
  8
0
  6
CONTINUOUS
 62
     3
 10
1042.041263958073
 20
1704.447537037769
 30
0.0
  0
VERTEX
  5
13D8
  8
0
  6
CONTINUOUS
 62
     3
 10
1043.129381778207
 20
1705.24134744087
 30
0.0
  0
VERTEX
  5
13D9
  8
0
  6
CONTINUOUS
 62
     3
 10
1044.08741611193
 20
1706.386757375716
 30
0.0
  0
VERTEX
  5
13DA
  8
0
  6
CONTINUOUS
 62
     3
 10
1044.896747220881
 20
1707.861505873053
 30
0.0
  0
VERTEX
  5
13DB
  8
0
  6
CONTINUOUS
 62
     3
 10
1045.541644823078
 20
1709.636930228822
 30
0.0
  0
VERTEX
  5
13DC
  8
0
  6
CONTINUOUS
 62
     3
 10
1046.009575832227
 20
1711.678525060521
 30
0.0
  0
VERTEX
  5
13DD
  8
0
  6
CONTINUOUS
 62
     3
 10
1046.29144643486
 20
1713.946610948616
 30
0.0
  0
VERTEX
  5
13DE
  8
0
  6
CONTINUOUS
 62
     3
 10
1046.381778494576
 20
1716.39710787126
 30
0.0
  0
VERTEX
  5
13DF
  8
0
  6
CONTINUOUS
 62
     3
 10
1046.278814942358
 20
1718.982390615174
 30
0.0
  0
VERTEX
  5
13E0
  8
0
  6
CONTINUOUS
 62
     3
 10
1045.984558411098
 20
1721.652212912921
 30
0.0
  0
SEQEND
  5
178E
  8
0
  6
CONTINUOUS
 62
     3
  0
LINE
  5
340
  8
0
  6
CONTINUOUS
 62
     3
 10
1041.443149360488
 20
1721.79406482588
 30
0.0
 11
1037.715089791677
 21
1724.622154865532
 31
0.0
  0
LINE
  5
341
  8
0
  6
CONTINUOUS
 62
     3
 10
1037.715089791677
 20
1724.622154865532
 30
0.0
 11
1037.823809117179
 21
1731.320018928893
 31
0.0
  0
LINE
  5
342
  8
0
  6
CONTINUOUS
 62
     3
 10
1050.26800479985
 20
1722.670614340456
 30
0.0
 11
1047.399284867709
 21
1742.580005070183
 31
0.0
  0
POLYLINE
  5
343
  8
0
  6
CONTINUOUS
 62
     3
 66
     1
 10
0.0
 20
0.0
 30
0.0
 70
   128
  0
VERTEX
  5
13E1
  8
0
  6
CONTINUOUS
 62
     3
 10
1047.399284867709
 20
1742.580005070183
 30
0.0
  0
VERTEX
  5
13E2
  8
0
  6
CONTINUOUS
 62
     3
 10
1047.000185292517
 20
1744.745501061254
 30
0.0
  0
VERTEX
  5
13E3
  8
0
  6
CONTINUOUS
 62
     3
 10
1046.43360677924
 20
1746.881651242045
 30
0.0
  0
VERTEX
  5
13E4
  8
0
  6
CONTINUOUS
 62
     3
 10
1045.715452833752
 20
1748.928492070364
 30
0.0
  0
VERTEX
  5
13E5
  8
0
  6
CONTINUOUS
 62
     3
 10
1044.865882757573
 20
1750.82857015244
 30
0.0
  0
VERTEX
  5
13E6
  8
0
  6
CONTINUOUS
 62
     3
 10
1043.908743367312
 20
1752.528550738404
 30
0.0
  0
VERTEX
  5
13E7
  8
0
  6
CONTINUOUS
 62
     3
 10
1042.870901256736
 20
1753.980717832125
 30
0.0
  0
VERTEX
  5
13E8
  8
0
  6
CONTINUOUS
 62
     3
 10
1041.781488914351
 20
1755.14430273587
 30
0.0
  0
VERTEX
  5
13E9
  8
0
  6
CONTINUOUS
 62
     3
 10
1040.671085791531
 20
1755.986649794484
 30
0.0
  0
VERTEX
  5
13EA
  8
0
  6
CONTINUOUS
 62
     3
 10
1039.570861021522
 20
1756.484114239227
 30
0.0
  0
VERTEX
  5
13EB
  8
0
  6
CONTINUOUS
 62
     3
 10
1038.511697367918
 20
1756.622726745387
 30
0.0
  0
VERTEX
  5
13EC
  8
0
  6
CONTINUOUS
 62
     3
 10
1037.978730778178
 20
1756.549317237709
 30
0.0
  0
SEQEND
  5
178F
  8
0
  6
CONTINUOUS
 62
     3
  0
POLYLINE
  5
344
  8
0
  6
CONTINUOUS
 62
     3
 66
     1
 10
0.0
 20
0.0
 30
0.0
 70
   128
  0
VERTEX
  5
13ED
  8
0
  6
CONTINUOUS
 62
     3
 10
1045.302045627147
 20
1705.076681889418
 30
0.0
  0
VERTEX
  5
13EE
  8
0
  6
CONTINUOUS
 62
     3
 10
1046.32471034684
 20
1705.465938460032
 30
0.0
  0
VERTEX
  5
13EF
  8
0
  6
CONTINUOUS
 62
     3
 10
1047.412828166973
 20
1706.259748868406
 30
0.0
  0
VERTEX
  5
13F0
  8
0
  6
CONTINUOUS
 62
     3
 10
1048.370862500697
 20
1707.405158803252
 30
0.0
  0
VERTEX
  5
13F1
  8
0
  6
CONTINUOUS
 62
     3
 10
1049.180193609649
 20
1708.87990730059
 30
0.0
  0
VERTEX
  5
13F2
  8
0
  6
CONTINUOUS
 62
     3
 10
1049.825091211844
 20
1710.655331656358
 30
0.0
  0
VERTEX
  5
13F3
  8
0
  6
CONTINUOUS
 62
     3
 10
1050.293022220978
 20
1712.696926482776
 30
0.0
  0
VERTEX
  5
13F4
  8
0
  6
CONTINUOUS
 62
     3
 10
1050.574892823627
 20
1714.965012370863
 30
0.0
  0
VERTEX
  5
13F5
  8
0
  6
CONTINUOUS
 62
     3
 10
1050.665224883343
 20
1717.415509298796
 30
0.0
  0
VERTEX
  5
13F6
  8
0
  6
CONTINUOUS
 62
     3
 10
1050.562261331125
 20
1720.000792037429
 30
0.0
  0
VERTEX
  5
13F7
  8
0
  6
CONTINUOUS
 62
     3
 10
1050.26800479985
 20
1722.670614340456
 30
0.0
  0
SEQEND
  5
1790
  8
0
  6
CONTINUOUS
 62
     3
  0
POLYLINE
  5
345
  8
0
  6
CONTINUOUS
 62
     3
 66
     1
 10
0.0
 20
0.0
 30
0.0
 70
   128
  0
VERTEX
  5
13F8
  8
0
  6
CONTINUOUS
 62
     3
 10
938.6227769978432
 20
1664.923968029303
 30
0.0
  0
VERTEX
  5
13F9
  8
0
  6
CONTINUOUS
 62
     3
 10
938.52183743762
 20
1665.467052280883
 30
0.0
  0
VERTEX
  5
13FA
  8
0
  6
CONTINUOUS
 62
     3
 10
938.5212136805048
 20
1665.468514891991
 30
0.0
  0
SEQEND
  5
1791
  8
0
  6
CONTINUOUS
 62
     3
  0
ARC
  5
346
  8
0
  6
CONTINUOUS
 62
     3
 10
936.740995298308
 20
1664.94525142387
 30
0.0
 40
1.881902057208561
 50
268.6620199309856
 51
359.3519988277027
  0
LINE
  5
347
  8
0
  6
CONTINUOUS
 62
     3
 10
969.579155939196
 20
1671.187549998551
 30
0.0
 11
973.4575115853936
 21
1672.694815197881
 31
0.0
  0
ARC
  5
348
  8
0
  6
CONTINUOUS
 62
     3
 10
923.0126908347279
 20
1655.193705983752
 30
0.0
 40
49.23655876714322
 50
340.4610089884029
 51
18.95568518630271
  0
POLYLINE
  5
349
  8
0
  6
CONTINUOUS
 62
     3
 66
     1
 10
0.0
 20
0.0
 30
0.0
 70
   128
  0
VERTEX
  5
13FB
  8
0
  6
CONTINUOUS
 62
     3
 10
964.0014233571055
 20
1639.231498482876
 30
0.0
  0
VERTEX
  5
13FC
  8
0
  6
CONTINUOUS
 62
     3
 10
963.882296819756
 20
1638.198481420437
 30
0.0
  0
VERTEX
  5
13FD
  8
0
  6
CONTINUOUS
 62
     3
 10
964.0943383278286
 20
1637.266690631275
 30
0.0
  0
VERTEX
  5
13FE
  8
0
  6
CONTINUOUS
 62
     3
 10
964.6129296744616
 20
1636.544296453881
 30
0.0
  0
VERTEX
  5
13FF
  8
0
  6
CONTINUOUS
 62
     3
 10
965.3778729113033
 20
1636.115172273124
 30
0.0
  0
VERTEX
  5
1400
  8
0
  6
CONTINUOUS
 62
     3
 10
966.3003541297699
 20
1636.029117283589
 30
0.0
  0
VERTEX
  5
1401
  8
0
  6
CONTINUOUS
 62
     3
 10
967.273297531397
 20
1636.296141812673
 30
0.0
  0
VERTEX
  5
1402
  8
0
  6
CONTINUOUS
 62
     3
 10
968.183747975384
 20
1636.885229225838
 30
0.0
  0
VERTEX
  5
1403
  8
0
  6
CONTINUOUS
 62
     3
 10
968.9260073503324
 20
1637.728001897829
 30
0.0
  0
VERTEX
  5
1404
  8
0
  6
CONTINUOUS
 62
     3
 10
969.4139185465519
 20
1638.726624097883
 30
0.0
  0
SEQEND
  5
1792
  8
0
  6
CONTINUOUS
 62
     3
  0
ARC
  5
34A
  8
0
  6
CONTINUOUS
 62
     3
 10
930.584439034224
 20
1649.402285909974
 30
0.0
 40
34.93049896476279
 50
343.0718578478051
 51
25.02899335589741
  0
ARC
  5
34B
  8
0
  6
CONTINUOUS
 62
     3
 10
958.3028481012316
 20
1661.995424791882
 30
0.0
 40
4.498299589990884
 50
29.0630315341974
 51
115.9493338722958
  0
LINE
  5
34C
  8
0
  6
CONTINUOUS
 62
     3
 10
941.7003031784197
 20
1660.352848087537
 30
0.0
 11
956.3344993532719
 21
1666.040211854716
 31
0.0
  0
ARC
  5
34D
  8
0
  6
CONTINUOUS
 62
     3
 10
936.1410345816507
 20
1662.943461149855
 30
0.0
 40
4.665043156067011
 50
176.7710969034032
 51
230.9770664704986
  0
LINE
  5
34E
  8
0
  6
CONTINUOUS
 62
     3
 10
931.5643623514543
 20
1669.156127613274
 30
0.0
 11
931.4833972832239
 21
1663.206220479611
 31
0.0
  0
LINE
  5
34F
  8
0
  6
CONTINUOUS
 62
     3
 10
970.1170223524878
 20
1678.431977441154
 30
0.0
 11
943.8341017796824
 21
1672.108252603977
 31
0.0
  0
LINE
  5
350
  8
0
  6
CONTINUOUS
 62
     3
 10
931.5704740713413
 20
1669.157598090759
 30
0.0
 11
931.5643623514543
 21
1669.156127613274
 31
0.0
  0
POLYLINE
  5
351
  8
0
  6
CONTINUOUS
 62
     3
 66
     1
 10
0.0
 20
0.0
 30
0.0
 70
   128
  0
VERTEX
  5
1405
  8
0
  6
CONTINUOUS
 62
     3
 10
978.6842860908623
 20
1680.493279202647
 30
0.0
  0
VERTEX
  5
1406
  8
0
  6
CONTINUOUS
 62
     3
 10
978.5833331012773
 20
1681.036358519915
 30
0.0
  0
VERTEX
  5
1407
  8
0
  6
CONTINUOUS
 62
     3
 10
978.5827160746871
 20
1681.03782446987
 30
0.0
  0
SEQEND
  5
1793
  8
0
  6
CONTINUOUS
 62
     3
  0
ARC
  5
352
  8
0
  6
CONTINUOUS
 62
     3
 10
976.8024834072953
 20
1680.514579022028
 30
0.0
 40
1.881923225671741
 50
268.6624682231841
 51
359.3515061582966
  0
LINE
  5
353
  8
0
  6
CONTINUOUS
 62
     3
 10
931.5643623514543
 20
1669.156127613274
 30
0.0
 11
931.4336960669584
 21
1669.255250496537
 31
0.0
  0
LINE
  5
354
  8
0
  6
CONTINUOUS
 62
     3
 10
929.0469651119001
 20
1668.687797638158
 30
0.0
 11
928.998024239112
 21
1665.091613841139
 31
0.0
  0
ARC
  5
355
  8
0
  6
CONTINUOUS
 62
     3
 10
933.6556615375393
 20
1664.828854511385
 30
0.0
 40
4.665043156066307
 50
176.7710969034032
 51
230.9770664704986
  0
LINE
  5
356
  8
0
  6
CONTINUOUS
 62
     3
 10
959.6214905655838
 20
1666.29916760738
 30
0.0
 11
959.7493750134513
 21
1666.065963901761
 31
0.0
  0
ARC
  5
357
  8
0
  6
CONTINUOUS
 62
     3
 10
928.0990659901117
 20
1651.28767926622
 30
0.0
 40
34.93049896476309
 50
343.0718578478051
 51
25.02899335589741
  0
ARC
  5
358
  8
0
  6
CONTINUOUS
 62
     3
 10
963.875191512443
 20
1640.247196013705
 30
0.0
 40
2.514342468847943
 50
159.7636251587981
 51
229.852402819297
  0
POLYLINE
  5
359
  8
0
  6
CONTINUOUS
 62
     3
 66
     1
 10
0.0
 20
0.0
 30
0.0
 70
   128
  0
VERTEX
  5
1408
  8
0
  6
CONTINUOUS
 62
     3
 10
939.4512156234719
 20
1664.293915930117
 30
0.0
  0
VERTEX
  5
1409
  8
0
  6
CONTINUOUS
 62
     3
 10
939.350854291577
 20
1664.837255946998
 30
0.0
  0
VERTEX
  5
140A
  8
0
  6
CONTINUOUS
 62
     3
 10
939.0484008819922
 20
1665.245823165175
 30
0.0
  0
VERTEX
  5
140B
  8
0
  6
CONTINUOUS
 62
     3
 10
938.5898862391641
 20
1665.457405935535
 30
0.0
  0
VERTEX
  5
140C
  8
0
  6
CONTINUOUS
 62
     3
 10
938.0451316757931
 20
1665.439800451629
 30
0.0
  0
VERTEX
  5
140D
  8
0
  6
CONTINUOUS
 62
     3
 10
937.4970541657372
 20
1665.195682346168
 30
0.0
  0
VERTEX
  5
140E
  8
0
  6
CONTINUOUS
 62
     3
 10
937.029110540805
 20
1664.762220599727
 30
0.0
  0
VERTEX
  5
140F
  8
0
  6
CONTINUOUS
 62
     3
 10
936.7125290210302
 20
1664.205400985848
 30
0.0
  0
VERTEX
  5
1410
  8
0
  6
CONTINUOUS
 62
     3
 10
936.5955060269043
 20
1663.60999798756
 30
0.0
  0
VERTEX
  5
1411
  8
0
  6
CONTINUOUS
 62
     3
 10
936.6958673059539
 20
1663.066654478621
 30
0.0
  0
VERTEX
  5
1412
  8
0
  6
CONTINUOUS
 62
     3
 10
936.9983207736582
 20
1662.658090752502
 30
0.0
  0
VERTEX
  5
1413
  8
0
  6
CONTINUOUS
 62
     3
 10
937.4568353583977
 20
1662.446504484803
 30
0.0
  0
VERTEX
  5
1414
  8
0
  6
CONTINUOUS
 62
     3
 10
938.0015899217528
 20
1662.464109973992
 30
0.0
  0
VERTEX
  5
1415
  8
0
  6
CONTINUOUS
 62
     3
 10
938.5496674318092
 20
1662.708228079452
 30
0.0
  0
VERTEX
  5
1416
  8
0
  6
CONTINUOUS
 62
     3
 10
939.0176111095557
 20
1663.14169331795
 30
0.0
  0
VERTEX
  5
1417
  8
0
  6
CONTINUOUS
 62
     3
 10
939.3341925765162
 20
1663.698509439772
 30
0.0
  0
VERTEX
  5
1418
  8
0
  6
CONTINUOUS
 62
     3
 10
939.4512156234719
 20
1664.293915930117
 30
0.0
  0
SEQEND
  5
1794
  8
0
  6
CONTINUOUS
 62
     3
  0
LINE
  5
35A
  8
0
  6
CONTINUOUS
 62
     3
 10
932.6623185640942
 20
1686.530510452787
 30
0.0
 11
932.3119449603055
 21
1662.58412013337
 31
0.0
  0
LINE
  5
35B
  8
0
  6
CONTINUOUS
 62
     3
 10
943.7347766372409
 20
1665.319790292249
 30
0.0
 11
944.084860136305
 21
1689.246251838651
 31
0.0
  0
POLYLINE
  5
35C
  8
0
  6
CONTINUOUS
 62
     3
 66
     1
 10
0.0
 20
0.0
 30
0.0
 70
   128
  0
VERTEX
  5
1419
  8
0
  6
CONTINUOUS
 62
     3
 10
932.3119449603055
 20
1662.58412013337
 30
0.0
  0
VERTEX
  5
141A
  8
0
  6
CONTINUOUS
 62
     3
 10
932.4570678248037
 20
1661.199611486477
 30
0.0
  0
VERTEX
  5
141B
  8
0
  6
CONTINUOUS
 62
     3
 10
932.9256875137062
 20
1659.975055389804
 30
0.0
  0
VERTEX
  5
141C
  8
0
  6
CONTINUOUS
 62
     3
 10
933.690562705649
 20
1658.981625997248
 30
0.0
  0
VERTEX
  5
141D
  8
0
  6
CONTINUOUS
 62
     3
 10
934.7072452284747
 20
1658.277050657237
 30
0.0
  0
VERTEX
  5
141E
  8
0
  6
CONTINUOUS
 62
     3
 10
935.916642746995
 20
1657.902280647565
 30
0.0
  0
VERTEX
  5
141F
  8
0
  6
CONTINUOUS
 62
     3
 10
937.2484844559908
 20
1657.879100311585
 30
0.0
  0
VERTEX
  5
1420
  8
0
  6
CONTINUOUS
 62
     3
 10
938.6253521586982
 20
1658.208844755491
 30
0.0
  0
VERTEX
  5
1421
  8
0
  6
CONTINUOUS
 62
     3
 10
939.9672389043153
 20
1658.872363363974
 30
0.0
  0
VERTEX
  5
1422
  8
0
  6
CONTINUOUS
 62
     3
 10
941.1961522457996
 20
1659.831089890656
 30
0.0
  0
VERTEX
  5
1423
  8
0
  6
CONTINUOUS
 62
     3
 10
942.2406700933661
 20
1661.029301611658
 30
0.0
  0
VERTEX
  5
1424
  8
0
  6
CONTINUOUS
 62
     3
 10
943.0400987588441
 20
1662.397369456911
 30
0.0
  0
VERTEX
  5
1425
  8
0
  6
CONTINUOUS
 62
     3
 10
943.5479760788066
 20
1663.855784878031
 30
0.0
  0
VERTEX
  5
1426
  8
0
  6
CONTINUOUS
 62
     3
 10
943.7347766372409
 20
1665.319790292249
 30
0.0
  0
SEQEND
  5
1795
  8
0
  6
CONTINUOUS
 62
     3
  0
LINE
  5
35D
  8
0
  6
CONTINUOUS
 62
     3
 10
931.8217440906419
 20
1686.330661595242
 30
0.0
 11
931.4834872366678
 21
1663.212584615389
 31
0.0
  0
ARC
  5
35E
  8
0
  6
CONTINUOUS
 62
     3
 10
936.0995590306788
 20
1662.925462225967
 30
0.0
 40
4.624992763798992
 50
176.4407541069022
 51
231.2358516472984
  0
POLYLINE
  5
35F
  8
0
  6
CONTINUOUS
 62
     3
 66
     1
 10
0.0
 20
0.0
 30
0.0
 70
   128
  0
VERTEX
  5
1427
  8
0
  6
CONTINUOUS
 62
     3
 10
938.622757899835
 20
1664.922380412135
 30
0.0
  0
VERTEX
  5
1428
  8
0
  6
CONTINUOUS
 62
     3
 10
938.5223965679384
 20
1665.465720429017
 30
0.0
  0
VERTEX
  5
1429
  8
0
  6
CONTINUOUS
 62
     3
 10
938.5212136805048
 20
1665.468514891991
 30
0.0
  0
SEQEND
  5
1796
  8
0
  6
CONTINUOUS
 62
     3
  0
ARC
  5
360
  8
0
  6
CONTINUOUS
 62
     3
 10
936.7410445093478
 20
1664.945199962285
 30
0.0
 40
1.881851755525422
 50
268.6604854225163
 51
359.3052078450991
  0
LINE
  5
361
  8
0
  6
CONTINUOUS
 62
     3
 10
929.3000073835283
 20
1685.731111736569
 30
0.0
 11
929.2301615524552
 21
1680.957250908059
 31
0.0
  0
ARC
  5
362
  8
0
  6
CONTINUOUS
 62
     3
 10
933.6141859812788
 20
1664.810855587504
 30
0.0
 40
4.624992763798178
 50
176.4407541069022
 51
231.2358516472984
  0
LINE
  5
363
  8
0
  6
CONTINUOUS
 62
     3
 10
928.4594329100591
 20
1685.531262879015
 30
0.0
 11
928.3984647337088
 21
1681.364368585241
 31
0.0
  0
LINE
  5
364
  8
0
  6
CONTINUOUS
 62
     3
 10
928.210076293964
 20
1668.488826797373
 30
0.0
 11
928.1696564689196
 21
1665.726442458934
 31
0.0
  0
ARC
  5
365
  8
0
  6
CONTINUOUS
 62
     3
 10
932.7857282629302
 20
1665.439320069522
 30
0.0
 40
4.624992763797989
 50
176.4407541069022
 51
231.2358516472984
  0
POLYLINE
  5
366
  8
0
  6
CONTINUOUS
 62
     3
 66
     1
 10
0.0
 20
0.0
 30
0.0
 70
   128
  0
VERTEX
  5
142A
  8
0
  6
CONTINUOUS
 62
     3
 10
853.6030528668298
 20
1701.231881976906
 30
0.0
  0
VERTEX
  5
142B
  8
0
  6
CONTINUOUS
 62
     3
 10
853.3613864112408
 20
1701.814921958865
 30
0.0
  0
VERTEX
  5
142C
  8
0
  6
CONTINUOUS
 62
     3
 10
853.2280386985735
 20
1702.460656243738
 30
0.0
  0
VERTEX
  5
142D
  8
0
  6
CONTINUOUS
 62
     3
 10
853.2243508770302
 20
1703.065738547934
 30
0.0
  0
VERTEX
  5
142E
  8
0
  6
CONTINUOUS
 62
     3
 10
853.3509131937203
 20
1703.533333992239
 30
0.0
  0
VERTEX
  5
142F
  8
0
  6
CONTINUOUS
 62
     3
 10
853.5874703024515
 20
1703.788603381451
 30
0.0
  0
VERTEX
  5
1430
  8
0
  6
CONTINUOUS
 62
     3
 10
853.8961635232654
 20
1703.790697901337
 30
0.0
  0
VERTEX
  5
1431
  8
0
  6
CONTINUOUS
 62
     3
 10
854.227589151345
 20
1703.539279842149
 30
0.0
  0
VERTEX
  5
1432
  8
0
  6
CONTINUOUS
 62
     3
 10
854.5287055053186
 20
1703.074586385474
 30
0.0
  0
VERTEX
  5
1433
  8
0
  6
CONTINUOUS
 62
     3
 10
854.7513215533222
 20
1702.470990201685
 30
0.0
  0
VERTEX
  5
1434
  8
0
  6
CONTINUOUS
 62
     3
 10
854.859809626591
 20
1701.825086538934
 30
0.0
  0
VERTEX
  5
1435
  8
0
  6
CONTINUOUS
 62
     3
 10
854.8368071371087
 20
1701.240251387043
 30
0.0
  0
VERTEX
  5
1436
  8
0
  6
CONTINUOUS
 62
     3
 10
854.6859953714106
 20
1700.810079267485
 30
0.0
  0
VERTEX
  5
1437
  8
0
  6
CONTINUOUS
 62
     3
 10
854.431510527073
 20
1700.603417542429
 30
0.0
  0
SEQEND
  5
1797
  8
0
  6
CONTINUOUS
 62
     3
  0
LINE
  5
367
  8
0
  6
CONTINUOUS
 62
     3
 10
854.431510527073
 20
1700.603417542429
 30
0.0
 11
855.0096718755435
 21
1695.76123222493
 31
0.0
  0
POLYLINE
  5
368
  8
0
  6
CONTINUOUS
 62
     3
 66
     1
 10
0.0
 20
0.0
 30
0.0
 70
   128
  0
VERTEX
  5
1438
  8
0
  6
CONTINUOUS
 62
     3
 10
855.0096718755435
 20
1695.76123222493
 30
0.0
  0
VERTEX
  5
1439
  8
0
  6
CONTINUOUS
 62
     3
 10
855.748887942922
 20
1695.839176422432
 30
0.0
  0
VERTEX
  5
143A
  8
0
  6
CONTINUOUS
 62
     3
 10
856.386110029056
 20
1696.296761333334
 30
0.0
  0
VERTEX
  5
143B
  8
0
  6
CONTINUOUS
 62
     3
 10
856.883346137763
 20
1697.106705305891
 30
0.0
  0
VERTEX
  5
143C
  8
0
  6
CONTINUOUS
 62
     3
 10
857.210949629608
 20
1698.220715378277
 30
0.0
  0
VERTEX
  5
143D
  8
0
  6
CONTINUOUS
 62
     3
 10
857.3493884680961
 20
1699.572375694157
 30
0.0
  0
VERTEX
  5
143E
  8
0
  6
CONTINUOUS
 62
     3
 10
857.2904088296068
 20
1701.081094671436
 30
0.0
  0
VERTEX
  5
143F
  8
0
  6
CONTINUOUS
 62
     3
 10
857.0375270551658
 20
1702.656922331953
 30
0.0
  0
VERTEX
  5
1440
  8
0
  6
CONTINUOUS
 62
     3
 10
856.6058204019109
 20
1704.205904879343
 30
0.0
  0
VERTEX
  5
1441
  8
0
  6
CONTINUOUS
 62
     3
 10
856.02102793127
 20
1705.635688533575
 30
0.0
  0
VERTEX
  5
1442
  8
0
  6
CONTINUOUS
 62
     3
 10
855.3180160493348
 20
1706.861025550983
 30
0.0
  0
VERTEX
  5
1443
  8
0
  6
CONTINUOUS
 62
     3
 10
854.5386996297689
 20
1707.808862227867
 30
0.0
  0
VERTEX
  5
1444
  8
0
  6
CONTINUOUS
 62
     3
 10
853.7295427854579
 20
1708.422685151359
 30
0.0
  0
VERTEX
  5
1445
  8
0
  6
CONTINUOUS
 62
     3
 10
852.9387889449449
 20
1708.665897055302
 30
0.0
  0
VERTEX
  5
1446
  8
0
  6
CONTINUOUS
 62
     3
 10
852.2135841808931
 20
1708.523999074681
 30
0.0
  0
VERTEX
  5
1447
  8
0
  6
CONTINUOUS
 62
     3
 10
851.5971664702438
 20
1708.005448322524
 30
0.0
  0
VERTEX
  5
1448
  8
0
  6
CONTINUOUS
 62
     3
 10
851.1262877967406
 20
1707.141163143333
 30
0.0
  0
VERTEX
  5
1449
  8
0
  6
CONTINUOUS
 62
     3
 10
850.8290227675025
 20
1705.982674495207
 30
0.0
  0
VERTEX
  5
144A
  8
0
  6
CONTINUOUS
 62
     3
 10
850.7230948408628
 20
1704.599053691446
 30
0.0
  0
VERTEX
  5
144B
  8
0
  6
CONTINUOUS
 62
     3
 10
850.8148194328619
 20
1703.072792383091
 30
0.0
  0
VERTEX
  5
144C
  8
0
  6
CONTINUOUS
 62
     3
 10
851.0987279956867
 20
1701.494891884071
 30
0.0
  0
VERTEX
  5
144D
  8
0
  6
CONTINUOUS
 62
     3
 10
851.5578935502276
 20
1699.959425697983
 30
0.0
  0
VERTEX
  5
144E
  8
0
  6
CONTINUOUS
 62
     3
 10
852.1649393826046
 20
1698.557944463876
 30
0.0
  0
VERTEX
  5
144F
  8
0
  6
CONTINUOUS
 62
     3
 10
852.8836726552786
 20
1697.374006135243
 30
0.0
  0
SEQEND
  5
1798
  8
0
  6
CONTINUOUS
 62
     3
  0
LINE
  5
369
  8
0
  6
CONTINUOUS
 62
     3
 10
852.8836726552786
 20
1697.374006135243
 30
0.0
 11
853.6030528668298
 21
1701.231881976906
 31
0.0
  0
LINE
  5
36A
  8
0
  6
CONTINUOUS
 62
     3
 10
850.0417866997204
 20
1710.404291653086
 30
0.0
 11
844.3749919139118
 21
1700.496675671084
 31
0.0
  0
POLYLINE
  5
36B
  8
0
  6
CONTINUOUS
 62
     3
 66
     1
 10
0.0
 20
0.0
 30
0.0
 70
   128
  0
VERTEX
  5
1450
  8
0
  6
CONTINUOUS
 62
     3
 10
858.200290316905
 20
1704.215285712271
 30
0.0
  0
VERTEX
  5
1451
  8
0
  6
CONTINUOUS
 62
     3
 10
857.6027248066735
 20
1705.992606243421
 30
0.0
  0
VERTEX
  5
1452
  8
0
  6
CONTINUOUS
 62
     3
 10
856.8734650217166
 20
1707.630050577643
 30
0.0
  0
VERTEX
  5
1453
  8
0
  6
CONTINUOUS
 62
     3
 10
856.0394540956895
 20
1709.067121152459
 30
0.0
  0
VERTEX
  5
1454
  8
0
  6
CONTINUOUS
 62
     3
 10
855.1315054371357
 20
1710.250730118487
 30
0.0
  0
VERTEX
  5
1455
  8
0
  6
CONTINUOUS
 62
     3
 10
854.1831638439498
 20
1711.13713994999
 30
0.0
  0
VERTEX
  5
1456
  8
0
  6
CONTINUOUS
 62
     3
 10
853.2294666585585
 20
1711.693608599113
 30
0.0
  0
VERTEX
  5
1457
  8
0
  6
CONTINUOUS
 62
     3
 10
852.3056488863681
 20
1711.89956981051
 30
0.0
  0
VERTEX
  5
1458
  8
0
  6
CONTINUOUS
 62
     3
 10
851.4458418637487
 20
1711.747422283534
 30
0.0
  0
VERTEX
  5
1459
  8
0
  6
CONTINUOUS
 62
     3
 10
850.6818118812289
 20
1711.242781179444
 30
0.0
  0
VERTEX
  5
145A
  8
0
  6
CONTINUOUS
 62
     3
 10
850.0417866997204
 20
1710.404291653086
 30
0.0
  0
SEQEND
  5
1799
  8
0
  6
CONTINUOUS
 62
     3
  0
LINE
  5
36C
  8
0
  6
CONTINUOUS
 62
     3
 10
863.4114993801882
 20
1686.05566254882
 30
0.0
 11
858.200290316905
 21
1704.215285712271
 31
0.0
  0
ARC
  5
36D
  8
0
  6
CONTINUOUS
 62
     3
 10
817.7834797016117
 20
1672.770482358832
 30
0.0
 40
47.52275446928408
 50
0.662749638898016
 51
16.23359298010326
  0
LINE
  5
36E
  8
0
  6
CONTINUOUS
 62
     3
 10
861.9966237583972
 20
1675.82841812063
 30
0.0
 11
865.30305495111
 21
1673.320173562889
 31
0.0
  0
LINE
  5
36F
  8
0
  6
CONTINUOUS
 62
     3
 10
861.92414420982
 20
1671.363175409965
 30
0.0
 11
861.9966237583972
 21
1675.82841812063
 31
0.0
  0
LINE
  5
370
  8
0
  6
CONTINUOUS
 62
     3
 10
865.0515527603347
 20
1668.990736665291
 30
0.0
 11
861.92414420982
 21
1671.363175409965
 31
0.0
  0
ARC
  5
371
  8
0
  6
CONTINUOUS
 62
     3
 10
890.5614982109923
 20
1690.154021821265
 30
0.0
 40
48.48693842274021
 50
184.5531959524982
 51
204.8518970553082
  0
POLYLINE
  5
372
  8
0
  6
CONTINUOUS
 62
     3
 66
     1
 10
0.0
 20
0.0
 30
0.0
 70
   128
  0
VERTEX
  5
145B
  8
0
  6
CONTINUOUS
 62
     3
 10
854.3899368445882
 20
1659.833901290886
 30
0.0
  0
VERTEX
  5
145C
  8
0
  6
CONTINUOUS
 62
     3
 10
854.8274703009056
 20
1659.587648086916
 30
0.0
  0
VERTEX
  5
145D
  8
0
  6
CONTINUOUS
 62
     3
 10
856.2751993729271
 20
1658.992203738677
 30
0.0
  0
VERTEX
  5
145E
  8
0
  6
CONTINUOUS
 62
     3
 10
857.6817879621926
 20
1658.754237778532
 30
0.0
  0
VERTEX
  5
145F
  8
0
  6
CONTINUOUS
 62
     3
 10
859.024764910524
 20
1658.87754992698
 30
0.0
  0
VERTEX
  5
1460
  8
0
  6
CONTINUOUS
 62
     3
 10
860.2826757443186
 20
1659.360170833997
 30
0.0
  0
VERTEX
  5
1461
  8
0
  6
CONTINUOUS
 62
     3
 10
861.4354247534238
 20
1660.194391616156
 30
0.0
  0
VERTEX
  5
1462
  8
0
  6
CONTINUOUS
 62
     3
 10
862.4645967091951
 20
1661.366883120122
 30
0.0
  0
VERTEX
  5
1463
  8
0
  6
CONTINUOUS
 62
     3
 10
863.3537487760486
 20
1662.858916429273
 30
0.0
  0
VERTEX
  5
1464
  8
0
  6
CONTINUOUS
 62
     3
 10
864.088677968
 20
1664.6466541307
 30
0.0
  0
VERTEX
  5
1465
  8
0
  6
CONTINUOUS
 62
     3
 10
864.6576419247549
 20
1666.70153702994
 30
0.0
  0
VERTEX
  5
1466
  8
0
  6
CONTINUOUS
 62
     3
 10
865.0515527603347
 20
1668.990736665291
 30
0.0
  0
SEQEND
  5
179A
  8
0
  6
CONTINUOUS
 62
     3
  0
LINE
  5
373
  8
0
  6
CONTINUOUS
 62
     3
 10
845.3549902495761
 20
1683.932464717523
 30
0.0
 11
842.2275816990464
 21
1686.304903467479
 31
0.0
  0
LINE
  5
374
  8
0
  6
CONTINUOUS
 62
     3
 10
845.4274697981377
 20
1688.397707428196
 30
0.0
 11
845.3549902495761
 21
1683.932464717523
 31
0.0
  0
LINE
  5
375
  8
0
  6
CONTINUOUS
 62
     3
 10
842.1210386054245
 20
1690.905951985929
 30
0.0
 11
845.4274697981377
 21
1688.397707428196
 31
0.0
  0
ARC
  5
376
  8
0
  6
CONTINUOUS
 62
     3
 10
863.4692855388334
 20
1690.949034389435
 30
0.0
 40
21.34829040400435
 50
153.4337618410969
 51
180.1156271331987
  0
LINE
  5
377
  8
0
  6
CONTINUOUS
 62
     3
 10
855.0830094236553
 20
1689.073064367756
 30
0.0
 11
855.1359321690989
 21
1692.333472429191
 31
0.0
  0
ARC
  5
378
  8
0
  6
CONTINUOUS
 62
     3
 10
866.8802000303863
 20
1684.481657075427
 30
0.0
 40
18.14102272120023
 50
169.0025435650981
 51
216.6034659436968
  0
LINE
  5
379
  8
0
  6
CONTINUOUS
 62
     3
 10
854.7058868571112
 20
1665.839699865932
 30
0.0
 11
854.8022973327547
 21
1671.779253727045
 31
0.0
  0
POLYLINE
  5
37A
  8
0
  6
CONTINUOUS
 62
     3
 66
     1
 10
0.0
 20
0.0
 30
0.0
 70
   128
  0
VERTEX
  5
1467
  8
0
  6
CONTINUOUS
 62
     3
 10
854.8022973327547
 20
1671.779253727045
 30
0.0
  0
VERTEX
  5
1468
  8
0
  6
CONTINUOUS
 62
     3
 10
855.7563276475394
 20
1671.690082239442
 30
0.0
  0
VERTEX
  5
1469
  8
0
  6
CONTINUOUS
 62
     3
 10
856.6260841533581
 20
1671.997565344277
 30
0.0
  0
VERTEX
  5
146A
  8
0
  6
CONTINUOUS
 62
     3
 10
857.3759231105855
 20
1672.689101271147
 30
0.0
  0
VERTEX
  5
146B
  8
0
  6
CONTINUOUS
 62
     3
 10
857.9751147192724
 20
1673.73634929828
 30
0.0
  0
VERTEX
  5
146C
  8
0
  6
CONTINUOUS
 62
     3
 10
858.3991024514371
 20
1675.096392353275
 30
0.0
  0
VERTEX
  5
146D
  8
0
  6
CONTINUOUS
 62
     3
 10
858.6305108761835
 20
1676.713492491988
 30
0.0
  0
VERTEX
  5
146E
  8
0
  6
CONTINUOUS
 62
     3
 10
858.6598563694752
 20
1678.521378289694
 30
0.0
  0
VERTEX
  5
146F
  8
0
  6
CONTINUOUS
 62
     3
 10
858.485936285474
 20
1680.445958791373
 30
0.0
  0
VERTEX
  5
1470
  8
0
  6
CONTINUOUS
 62
     3
 10
858.1158782944162
 20
1682.408361536221
 30
0.0
  0
VERTEX
  5
1471
  8
0
  6
CONTINUOUS
 62
     3
 10
857.564847662682
 20
1684.328163458924
 30
0.0
  0
VERTEX
  5
1472
  8
0
  6
CONTINUOUS
 62
     3
 10
856.8554272044694
 20
1686.126687331525
 30
0.0
  0
VERTEX
  5
1473
  8
0
  6
CONTINUOUS
 62
     3
 10
856.0166902863402
 20
1687.730225791455
 30
0.0
  0
VERTEX
  5
1474
  8
0
  6
CONTINUOUS
 62
     3
 10
855.0830094236553
 20
1689.073064367756
 30
0.0
  0
SEQEND
  5
179B
  8
0
  6
CONTINUOUS
 62
     3
  0
LINE
  5
37B
  8
0
  6
CONTINUOUS
 62
     3
 10
867.6949453515872
 20
1687.074063875985
 30
0.0
 11
862.4837362883186
 21
1705.233687039436
 31
0.0
  0
LINE
  5
37C
  8
0
  6
CONTINUOUS
 62
     3
 10
865.30305495111
 20
1673.320173562889
 30
0.0
 11
869.5865009225245
 21
1674.338574890054
 31
0.0
  0
ARC
  5
37D
  8
0
  6
CONTINUOUS
 62
     3
 10
822.0669256730253
 20
1673.788883685989
 30
0.0
 40
47.52275446927992
 50
0.662749638898016
 51
16.23359298010326
  0
POLYLINE
  5
37E
  8
0
  6
CONTINUOUS
 62
     3
 66
     1
 10
0.0
 20
0.0
 30
0.0
 70
   128
  0
VERTEX
  5
1475
  8
0
  6
CONTINUOUS
 62
     3
 10
862.4837362883186
 20
1705.233687039436
 30
0.0
  0
VERTEX
  5
1476
  8
0
  6
CONTINUOUS
 62
     3
 10
861.886170772812
 20
1707.01100757057
 30
0.0
  0
VERTEX
  5
1477
  8
0
  6
CONTINUOUS
 62
     3
 10
861.1569109931156
 20
1708.648451904794
 30
0.0
  0
VERTEX
  5
1478
  8
0
  6
CONTINUOUS
 62
     3
 10
860.3229000671026
 20
1710.085522479625
 30
0.0
  0
VERTEX
  5
1479
  8
0
  6
CONTINUOUS
 62
     3
 10
859.4149514085493
 20
1711.269131445643
 30
0.0
  0
VERTEX
  5
147A
  8
0
  6
CONTINUOUS
 62
     3
 10
858.4666098100893
 20
1712.155541277148
 30
0.0
  0
VERTEX
  5
147B
  8
0
  6
CONTINUOUS
 62
     3
 10
857.5129126299717
 20
1712.712009926271
 30
0.0
  0
VERTEX
  5
147C
  8
0
  6
CONTINUOUS
 62
     3
 10
856.5890948577812
 20
1712.917971137667
 30
0.0
  0
VERTEX
  5
147D
  8
0
  6
CONTINUOUS
 62
     3
 10
856.0304328546385
 20
1712.862031594686
 30
0.0
  0
SEQEND
  5
179C
  8
0
  6
CONTINUOUS
 62
     3
  0
LINE
  5
37F
  8
0
  6
CONTINUOUS
 62
     3
 10
855.0096718755435
 20
1695.76123222493
 30
0.0
 11
856.0715480846729
 21
1696.013696278777
 31
0.0
  0
ARC
  5
380
  8
0
  6
CONTINUOUS
 62
     3
 10
864.9914223391261
 20
1705.498673381131
 30
0.0
 40
9.991506855695615
 50
170.6542095544915
 51
187.7351632765994
  0
POLYLINE
  5
381
  8
0
  6
CONTINUOUS
 62
     3
 66
     1
 10
0.0
 20
0.0
 30
0.0
 70
   128
  0
VERTEX
  5
147E
  8
0
  6
CONTINUOUS
 62
     3
 10
863.3295881129425
 20
1659.900982845981
 30
0.0
  0
VERTEX
  5
147F
  8
0
  6
CONTINUOUS
 62
     3
 10
864.5661217157317
 20
1660.378572161162
 30
0.0
  0
VERTEX
  5
1480
  8
0
  6
CONTINUOUS
 62
     3
 10
865.7188707195328
 20
1661.212792943313
 30
0.0
  0
VERTEX
  5
1481
  8
0
  6
CONTINUOUS
 62
     3
 10
866.7480426753032
 20
1662.385284447272
 30
0.0
  0
VERTEX
  5
1482
  8
0
  6
CONTINUOUS
 62
     3
 10
867.6371947474468
 20
1663.877317756422
 30
0.0
  0
VERTEX
  5
1483
  8
0
  6
CONTINUOUS
 62
     3
 10
868.3721239341244
 20
1665.665055457859
 30
0.0
  0
VERTEX
  5
1484
  8
0
  6
CONTINUOUS
 62
     3
 10
868.6466904358986
 20
1666.549334417246
 30
0.0
  0
SEQEND
  5
179D
  8
0
  6
CONTINUOUS
 62
     3
  0
LINE
  5
382
  8
0
  6
CONTINUOUS
 62
     3
 10
854.431510527073
 20
1700.603417542429
 30
0.0
 11
857.2690018606559
 21
1701.278039084768
 31
0.0
  0
LINE
  5
383
  8
0
  6
CONTINUOUS
 62
     3
 10
854.8022973327547
 20
1671.779253727045
 30
0.0
 11
857.031535269678
 21
1672.309261315146
 31
0.0
  0
ARC
  5
384
  8
0
  6
CONTINUOUS
 62
     3
 10
871.5799851928346
 20
1685.619880381931
 30
0.0
 40
18.54732210080791
 50
170.6141404596025
 51
216.1337183737048
  0
LINE
  5
385
  8
0
  6
CONTINUOUS
 62
     3
 10
944.064084172735
 20
1687.826326779095
 30
0.0
 11
949.6651531185676
 21
1690.572982277787
 31
0.0
  0
LINE
  5
386
  8
0
  6
CONTINUOUS
 62
     3
 10
932.0495132233646
 20
1699.055065736284
 30
0.0
 11
932.0177553697813
 21
1697.098561801605
 31
0.0
  0
LINE
  5
387
  8
0
  6
CONTINUOUS
 62
     3
 10
940.6888855441857
 20
1705.55711119108
 30
0.0
 11
932.0495132233646
 21
1699.055065736284
 31
0.0
  0
LINE
  5
388
  8
0
  6
CONTINUOUS
 62
     3
 10
940.6284859230082
 20
1701.836075740613
 30
0.0
 11
940.6888855441857
 21
1705.55711119108
 31
0.0
  0
LINE
  5
389
  8
0
  6
CONTINUOUS
 62
     3
 10
943.1754010450354
 20
1699.751323444716
 30
0.0
 11
940.6284859230082
 21
1701.836075740613
 31
0.0
  0
LINE
  5
38A
  8
0
  6
CONTINUOUS
 62
     3
 10
957.7574328051123
 20
1705.611997036803
 30
0.0
 11
986.3137465347158
 21
1712.401340941875
 31
0.0
  0
LINE
  5
38B
  8
0
  6
CONTINUOUS
 62
     3
 10
946.8526460817866
 20
1708.505233045077
 30
0.0
 11
952.0461754245844
 21
1704.254129532155
 31
0.0
  0
LINE
  5
38C
  8
0
  6
CONTINUOUS
 62
     3
 10
889.3116920884954
 20
1694.824709399918
 30
0.0
 11
946.8526460817866
 21
1708.505233045077
 31
0.0
  0
LINE
  5
38D
  8
0
  6
CONTINUOUS
 62
     3
 10
872.2167928813624
 20
1693.146669576021
 30
0.0
 11
889.3116920884954
 21
1694.824709399918
 31
0.0
  0
LINE
  5
38E
  8
0
  6
CONTINUOUS
 62
     3
 10
849.3717482710808
 20
1687.715195970282
 30
0.0
 11
855.0830094236553
 21
1689.073064367756
 31
0.0
  0
LINE
  5
38F
  8
0
  6
CONTINUOUS
 62
     3
 10
866.3524191530946
 20
1691.752398231248
 30
0.0
 11
872.2167928813624
 21
1693.146669576021
 31
0.0
  0
LINE
  5
390
  8
0
  6
CONTINUOUS
 62
     3
 10
849.4194226267114
 20
1690.652266801081
 30
0.0
 11
849.3717482710808
 21
1687.715195970282
 31
0.0
  0
LINE
  5
391
  8
0
  6
CONTINUOUS
 62
     3
 10
855.1842518628605
 20
1695.310300614162
 30
0.0
 11
849.4194226267114
 21
1690.652266801081
 31
0.0
  0
LINE
  5
392
  8
0
  6
CONTINUOUS
 62
     3
 10
855.1359321690989
 20
1692.333472429191
 30
0.0
 11
855.1842518628605
 21
1695.310300614162
 31
0.0
  0
LINE
  5
393
  8
0
  6
CONTINUOUS
 62
     3
 10
1037.944608354214
 20
1738.76208938605
 30
0.0
 11
864.6833241412587
 21
1697.568731762246
 31
0.0
  0
LINE
  5
394
  8
0
  6
CONTINUOUS
 62
     3
 10
1037.944608354214
 20
1738.76208938605
 30
0.0
 11
1037.823809117179
 21
1731.320018928893
 31
0.0
  0
LINE
  5
395
  8
0
  6
CONTINUOUS
 62
     3
 10
1037.501382319733
 20
1711.456292811026
 30
0.0
 11
1037.393763805176
 21
1704.826246365642
 31
0.0
  0
LINE
  5
396
  8
0
  6
CONTINUOUS
 62
     3
 10
1025.801897936572
 20
1702.070247654175
 30
0.0
 11
1037.393763805176
 21
1704.826246365642
 31
0.0
  0
POLYLINE
  5
397
  8
0
  6
CONTINUOUS
 62
     3
 66
     1
 10
0.0
 20
0.0
 30
0.0
 70
   128
  0
VERTEX
  5
1485
  8
0
  6
CONTINUOUS
 62
     3
 10
1020.916370171036
 20
1691.661624180896
 30
0.0
  0
VERTEX
  5
1486
  8
0
  6
CONTINUOUS
 62
     3
 10
1020.312634025051
 20
1692.784466632797
 30
0.0
  0
VERTEX
  5
1487
  8
0
  6
CONTINUOUS
 62
     3
 10
1020.019233263874
 20
1694.099062819573
 30
0.0
  0
VERTEX
  5
1488
  8
0
  6
CONTINUOUS
 62
     3
 10
1020.053043262506
 20
1695.529761297153
 30
0.0
  0
VERTEX
  5
1489
  8
0
  6
CONTINUOUS
 62
     3
 10
1020.412126865403
 20
1696.994232005267
 30
0.0
  0
VERTEX
  5
148A
  8
0
  6
CONTINUOUS
 62
     3
 10
1021.075797787714
 20
1698.408194066343
 30
0.0
  0
VERTEX
  5
148B
  8
0
  6
CONTINUOUS
 62
     3
 10
1022.005887819228
 20
1699.690283620484
 30
0.0
  0
VERTEX
  5
148C
  8
0
  6
CONTINUOUS
 62
     3
 10
1023.148851809835
 20
1700.766717272405
 30
0.0
  0
VERTEX
  5
148D
  8
0
  6
CONTINUOUS
 62
     3
 10
1024.438934165744
 20
1701.575553809152
 30
0.0
  0
VERTEX
  5
148E
  8
0
  6
CONTINUOUS
 62
     3
 10
1025.801897936572
 20
1702.070247654175
 30
0.0
  0
SEQEND
  5
179E
  8
0
  6
CONTINUOUS
 62
     3
  0
LINE
  5
398
  8
0
  6
CONTINUOUS
 62
     3
 10
1053.133483888225
 20
1648.446211776148
 30
0.0
 11
1020.916370171036
 21
1691.661624180896
 31
0.0
  0
ARC
  5
399
  8
0
  6
CONTINUOUS
 62
     3
 10
1012.506009082143
 20
1619.511093366022
 30
0.0
 40
49.87817946058001
 50
358.3770031450971
 51
35.45868559369034
  0
LINE
  5
39A
  8
0
  6
CONTINUOUS
 62
     3
 10
1010.962822131185
 20
1605.877584014672
 30
0.0
 11
1062.364178796367
 21
1618.098401129257
 31
0.0
  0
POLYLINE
  5
39B
  8
0
  6
CONTINUOUS
 62
     3
 66
     1
 10
0.0
 20
0.0
 30
0.0
 70
   128
  0
VERTEX
  5
148F
  8
0
  6
CONTINUOUS
 62
     3
 10
1008.375115198369
 20
1616.380122153225
 30
0.0
  0
VERTEX
  5
1490
  8
0
  6
CONTINUOUS
 62
     3
 10
1007.255319329485
 20
1615.283429145302
 30
0.0
  0
VERTEX
  5
1491
  8
0
  6
CONTINUOUS
 62
     3
 10
1006.352833196105
 20
1613.989514435851
 30
0.0
  0
VERTEX
  5
1492
  8
0
  6
CONTINUOUS
 62
     3
 10
1005.719228419492
 20
1612.572306300858
 30
0.0
  0
VERTEX
  5
1493
  8
0
  6
CONTINUOUS
 62
     3
 10
1005.390704044715
 20
1611.112759570114
 30
0.0
  0
VERTEX
  5
1494
  8
0
  6
CONTINUOUS
 62
     3
 10
1005.386009401866
 20
1609.694263178463
 30
0.0
  0
VERTEX
  5
1495
  8
0
  6
CONTINUOUS
 62
     3
 10
1005.705445087664
 20
1608.39784476585
 30
0.0
  0
VERTEX
  5
1496
  8
0
  6
CONTINUOUS
 62
     3
 10
1006.3307215558
 20
1607.297572242925
 30
0.0
  0
VERTEX
  5
1497
  8
0
  6
CONTINUOUS
 62
     3
 10
1007.226144915196
 20
1606.456291729789
 30
0.0
  0
VERTEX
  5
1498
  8
0
  6
CONTINUOUS
 62
     3
 10
1008.340561708982
 20
1605.922067910398
 30
0.0
  0
VERTEX
  5
1499
  8
0
  6
CONTINUOUS
 62
     3
 10
1009.610304682189
 20
1605.72542593757
 30
0.0
  0
VERTEX
  5
149A
  8
0
  6
CONTINUOUS
 62
     3
 10
1010.962822131185
 20
1605.877584014672
 30
0.0
  0
SEQEND
  5
179F
  8
0
  6
CONTINUOUS
 62
     3
  0
LINE
  5
39C
  8
0
  6
CONTINUOUS
 62
     3
 10
975.7530227749453
 20
1671.661217270897
 30
0.0
 11
1008.375115198369
 21
1616.380122153225
 31
0.0
  0
LINE
  5
39D
  8
0
  6
CONTINUOUS
 62
     3
 10
975.6371754886859
 20
1671.933178704811
 30
0.0
 11
975.7530227749453
 21
1671.661217270897
 31
0.0
  0
LINE
  5
39E
  8
0
  6
CONTINUOUS
 62
     3
 10
883.0205949700226
 20
1657.744900294446
 30
0.0
 11
888.5079272044904
 21
1659.049528961893
 31
0.0
  0
LINE
  5
39F
  8
0
  6
CONTINUOUS
 62
     3
 10
909.3402136559348
 20
1664.002463661757
 30
0.0
 11
931.5723807704358
 21
1669.288223918136
 31
0.0
  0
LINE
  5
3A0
  8
0
  6
CONTINUOUS
 62
     3
 10
943.8354994100418
 20
1672.203814864183
 30
0.0
 11
970.1173270382478
 21
1678.452393300406
 31
0.0
  0
LINE
  5
3A1
  8
0
  6
CONTINUOUS
 62
     3
 10
866.7550333840454
 20
1662.395007718208
 30
0.0
 11
883.0205949700226
 21
1657.744900294446
 31
0.0
  0
LINE
  5
3A2
  8
0
  6
CONTINUOUS
 62
     3
 10
854.7058868571112
 20
1665.839699865932
 30
0.0
 11
854.6092474537336
 21
1659.886042629574
 31
0.0
  0
LINE
  5
3A3
  8
0
  6
CONTINUOUS
 62
     3
 10
848.897986301175
 20
1658.52817422681
 30
0.0
 11
854.6092474537336
 21
1659.886042629574
 31
0.0
  0
LINE
  5
3A4
  8
0
  6
CONTINUOUS
 62
     3
 10
849.0912650973346
 20
1670.435488266339
 30
0.0
 11
848.897986301175
 21
1658.52817422681
 31
0.0
  0
LINE
  5
3A5
  8
0
  6
CONTINUOUS
 62
     3
 10
857.0514502382548
 20
1672.328044667672
 30
0.0
 11
849.0912650973346
 21
1670.435488266339
 31
0.0
  0
ARC
  5
3A6
  8
0
  6
CONTINUOUS
 62
     3
 10
934.7188233987981
 20
1686.934711260169
 30
0.0
 40
8.416900384711846
 50
192.8127250172994
 51
249.0951864078007
  0
LINE
  5
3A7
  8
0
  6
CONTINUOUS
 62
     3
 10
954.3476143751009
 20
1688.381649986593
 30
0.0
 11
943.9801074578968
 21
1682.087319399392
 31
0.0
  0
ARC
  5
3A8
  8
0
  6
CONTINUOUS
 62
     3
 10
1006.450082092543
 20
1602.770487903631
 30
0.0
 40
100.2194502872293
 50
113.8274470022984
 51
121.3244567317038
  0
LINE
  5
3A9
  8
0
  6
CONTINUOUS
 62
     3
 10
855.1842518628605
 20
1695.310300614162
 30
0.0
 11
852.6988788187491
 21
1697.195693975698
 31
0.0
  0
LINE
  5
3AA
  8
0
  6
CONTINUOUS
 62
     3
 10
849.4194226267114
 20
1690.652266801081
 30
0.0
 11
846.9340495773108
 21
1692.537660162609
 31
0.0
  0
LINE
  5
3AB
  8
0
  6
CONTINUOUS
 62
     3
 10
852.6988788187491
 20
1697.195693975698
 30
0.0
 11
846.9340495773108
 21
1692.537660162609
 31
0.0
  0
LINE
  5
3AC
  8
0
  6
CONTINUOUS
 62
     3
 10
849.3717482710808
 20
1687.715195970282
 30
0.0
 11
846.8863752216816
 21
1689.600589326529
 31
0.0
  0
LINE
  5
3AD
  8
0
  6
CONTINUOUS
 62
     3
 10
846.9340495773108
 20
1692.537660162609
 30
0.0
 11
846.8863752216816
 21
1689.600589326529
 31
0.0
  0
LINE
  5
3AE
  8
0
  6
CONTINUOUS
 62
     3
 10
1035.459235310103
 20
1740.647482747586
 30
0.0
 11
1037.944608354214
 21
1738.76208938605
 31
0.0
  0
LINE
  5
3AF
  8
0
  6
CONTINUOUS
 62
     3
 10
1035.459235310103
 20
1740.647482747586
 30
0.0
 11
864.0180951600851
 21
1699.886869493263
 31
0.0
  0
LINE
  5
3B0
  8
0
  6
CONTINUOUS
 62
     3
 10
849.0912650973346
 20
1670.435488266339
 30
0.0
 11
846.6058920532232
 21
1672.320881622587
 31
0.0
  0
LINE
  5
3B1
  8
0
  6
CONTINUOUS
 62
     3
 10
848.897986301175
 20
1658.52817422681
 30
0.0
 11
846.4126132517745
 21
1660.413567588346
 31
0.0
  0
LINE
  5
3B2
  8
0
  6
CONTINUOUS
 62
     3
 10
846.6058920532232
 20
1672.320881622587
 30
0.0
 11
846.4126132517745
 21
1660.413567588346
 31
0.0
  0
LINE
  5
3B3
  8
0
  6
CONTINUOUS
 62
     3
 10
858.4056376239569
 20
1675.126304320256
 30
0.0
 11
846.6058920532232
 21
1672.320881622587
 31
0.0
  0
LINE
  5
3B4
  8
0
  6
CONTINUOUS
 62
     3
 10
940.6888855441857
 20
1705.55711119108
 30
0.0
 11
939.2007816317664
 21
1706.685980454684
 31
0.0
  0
LINE
  5
3B5
  8
0
  6
CONTINUOUS
 62
     3
 10
932.0495132233646
 20
1699.055065736284
 30
0.0
 11
929.564140173964
 21
1700.940459097804
 31
0.0
  0
LINE
  5
3B6
  8
0
  6
CONTINUOUS
 62
     3
 10
936.2735843570786
 20
1705.990031066714
 30
0.0
 11
929.564140173964
 21
1700.940459097804
 31
0.0
  0
LINE
  5
3B7
  8
0
  6
CONTINUOUS
 62
     3
 10
929.564140173964
 20
1700.940459097804
 30
0.0
 11
929.4920314858896
 21
1696.498063805056
 31
0.0
  0
ARC
  5
3B8
  8
0
  6
CONTINUOUS
 62
     3
 10
932.2676411616549
 20
1689.178655799763
 30
0.0
 40
8.76268546845452
 50
244.3289262570053
 51
266.5180000202984
  0
LINE
  5
3B9
  8
0
  6
CONTINUOUS
 62
     3
 10
952.0461754245844
 20
1704.254129532155
 30
0.0
 11
949.5608023751984
 21
1706.139522888403
 31
0.0
  0
LINE
  5
3BA
  8
0
  6
CONTINUOUS
 62
     3
 10
946.7116084674781
 20
1708.471700656915
 30
0.0
 11
949.5608023751984
 21
1706.139522888403
 31
0.0
  0
LINE
  5
3BB
  8
0
  6
CONTINUOUS
 62
     3
 10
951.8622413257003
 20
1690.26704334812
 30
0.0
 11
944.0302183857561
 21
1685.512057563667
 31
0.0
  0
LINE
  5
3BC
  8
0
  6
CONTINUOUS
 62
     3
 10
951.8622413257003
 20
1690.26704334812
 30
0.0
 11
954.2183951274565
 21
1691.655528505441
 31
0.0
  0
LINE
  5
3BD
  8
0
  6
CONTINUOUS
 62
     3
 10
1008.375115198369
 20
1616.380122153225
 30
0.0
 11
1005.889742154258
 21
1618.265515514761
 31
0.0
  0
LINE
  5
3BE
  8
0
  6
CONTINUOUS
 62
     3
 10
973.923245521285
 20
1672.435659568651
 30
0.0
 11
1005.889742154258
 21
1618.265515514761
 31
0.0
  0
POLYLINE
  5
3BF
  8
0
  6
CONTINUOUS
 62
     3
 66
     1
 10
0.0
 20
0.0
 30
0.0
 70
   128
  0
VERTEX
  5
149B
  8
0
  6
CONTINUOUS
 62
     3
 10
1005.889742154258
 20
1618.265515514761
 30
0.0
  0
VERTEX
  5
149C
  8
0
  6
CONTINUOUS
 62
     3
 10
1004.769946280084
 20
1617.168822506839
 30
0.0
  0
VERTEX
  5
149D
  8
0
  6
CONTINUOUS
 62
     3
 10
1003.867460146704
 20
1615.874907797387
 30
0.0
  0
VERTEX
  5
149E
  8
0
  6
CONTINUOUS
 62
     3
 10
1003.23385537538
 20
1614.457699662394
 30
0.0
  0
VERTEX
  5
149F
  8
0
  6
CONTINUOUS
 62
     3
 10
1002.905331000603
 20
1612.998152931634
 30
0.0
  0
VERTEX
  5
14A0
  8
0
  6
CONTINUOUS
 62
     3
 10
1002.90063635774
 20
1611.579656539992
 30
0.0
  0
VERTEX
  5
14A1
  8
0
  6
CONTINUOUS
 62
     3
 10
1003.220072038279
 20
1610.283238127379
 30
0.0
  0
VERTEX
  5
14A2
  8
0
  6
CONTINUOUS
 62
     3
 10
1003.845348506399
 20
1609.182965604445
 30
0.0
  0
VERTEX
  5
14A3
  8
0
  6
CONTINUOUS
 62
     3
 10
1004.58297246606
 20
1608.455440515036
 30
0.0
  0
SEQEND
  5
17A0
  8
0
  6
CONTINUOUS
 62
     3
  0
LINE
  5
3C0
  8
0
  6
CONTINUOUS
 62
     3
 10
986.3137465347158
 20
1712.401340941875
 30
0.0
 11
1037.715089791677
 21
1724.622154865532
 31
0.0
  0
LINE
  5
3C1
  8
0
  6
CONTINUOUS
 62
     3
 10
1041.443149360488
 20
1721.79406482588
 30
0.0
 11
1046.413895454
 21
1718.023278108106
 31
0.0
  0
LINE
  5
3C2
  8
0
  6
CONTINUOUS
 62
     3
 10
894.4645867682711
 20
1681.896902609185
 30
0.0
 11
1046.413895454
 21
1718.023278108106
 31
0.0
  0
POLYLINE
  5
3C3
  8
0
  6
CONTINUOUS
 62
     3
 66
     1
 10
0.0
 20
0.0
 30
0.0
 70
   128
  0
VERTEX
  5
14A4
  8
0
  6
CONTINUOUS
 62
     3
 10
892.3644272715101
 20
1674.3438106007
 30
0.0
  0
VERTEX
  5
14A5
  8
0
  6
CONTINUOUS
 62
     3
 10
891.0270694414189
 20
1675.029026314554
 30
0.0
  0
VERTEX
  5
14A6
  8
0
  6
CONTINUOUS
 62
     3
 10
889.9967316622415
 20
1675.805266439582
 30
0.0
  0
VERTEX
  5
14A7
  8
0
  6
CONTINUOUS
 62
     3
 10
889.3086401907922
 20
1676.645993755174
 30
0.0
  0
VERTEX
  5
14A8
  8
0
  6
CONTINUOUS
 62
     3
 10
888.9863168342413
 20
1677.522468409807
 30
0.0
  0
VERTEX
  5
14A9
  8
0
  6
CONTINUOUS
 62
     3
 10
889.0407809179014
 20
1678.404727159816
 30
0.0
  0
VERTEX
  5
14AA
  8
0
  6
CONTINUOUS
 62
     3
 10
889.4701673514737
 20
1679.262609230631
 30
0.0
  0
VERTEX
  5
14AB
  8
0
  6
CONTINUOUS
 62
     3
 10
890.2598014362347
 20
1680.066786187703
 30
0.0
  0
VERTEX
  5
14AC
  8
0
  6
CONTINUOUS
 62
     3
 10
891.3826876577023
 20
1680.789768187342
 30
0.0
  0
VERTEX
  5
14AD
  8
0
  6
CONTINUOUS
 62
     3
 10
892.8004384295323
 20
1681.406838600605
 30
0.0
  0
VERTEX
  5
14AE
  8
0
  6
CONTINUOUS
 62
     3
 10
894.4645867682711
 20
1681.896902609185
 30
0.0
  0
SEQEND
  5
17A1
  8
0
  6
CONTINUOUS
 62
     3
  0
POLYLINE
  5
3C4
  8
0
  6
CONTINUOUS
 62
     3
 66
     1
 10
0.0
 20
0.0
 30
0.0
 70
   128
  0
VERTEX
  5
14AF
  8
0
  6
CONTINUOUS
 62
     3
 10
916.3625165110643
 20
1654.237414687425
 30
0.0
  0
VERTEX
  5
14B0
  8
0
  6
CONTINUOUS
 62
     3
 10
915.2280187836272
 20
1656.730506536412
 30
0.0
  0
VERTEX
  5
14B1
  8
0
  6
CONTINUOUS
 62
     3
 10
913.6848929938405
 20
1659.187344973077
 30
0.0
  0
VERTEX
  5
14B2
  8
0
  6
CONTINUOUS
 62
     3
 10
911.741108851531
 20
1661.595239250939
 30
0.0
  0
VERTEX
  5
14B3
  8
0
  6
CONTINUOUS
 62
     3
 10
909.4067104159321
 20
1663.941747763939
 30
0.0
  0
VERTEX
  5
14B4
  8
0
  6
CONTINUOUS
 62
     3
 10
906.6937551829146
 20
1666.214752636974
 30
0.0
  0
VERTEX
  5
14B5
  8
0
  6
CONTINUOUS
 62
     3
 10
903.6162604889573
 20
1668.402507045621
 30
0.0
  0
VERTEX
  5
14B6
  8
0
  6
CONTINUOUS
 62
     3
 10
900.1901233365952
 20
1670.493711053377
 30
0.0
  0
VERTEX
  5
14B7
  8
0
  6
CONTINUOUS
 62
     3
 10
896.4330420424085
 20
1672.477562735247
 30
0.0
  0
VERTEX
  5
14B8
  8
0
  6
CONTINUOUS
 62
     3
 10
892.3644272715101
 20
1674.3438106007
 30
0.0
  0
SEQEND
  5
17A2
  8
0
  6
CONTINUOUS
 62
     3
  0
ARC
  5
3C5
  8
0
  6
CONTINUOUS
 62
     3
 10
912.0576374621924
 20
1653.14385295938
 30
0.0
 40
4.441605665465248
 50
294.3043652508989
 51
14.25327235659667
  0
ARC
  5
3C6
  8
0
  6
CONTINUOUS
 62
     3
 10
908.8518887225027
 20
1658.622905568091
 30
0.0
 40
10.77513015893552
 50
263.4810049970035
 51
297.8508962940882
  0
LINE
  5
3C7
  8
0
  6
CONTINUOUS
 62
     3
 10
907.6285601650939
 20
1647.917444480457
 30
0.0
 11
909.2649549492053
 21
1650.56013878218
 31
0.0
  0
POLYLINE
  5
3C8
  8
0
  6
CONTINUOUS
 62
     3
 66
     1
 10
0.0
 20
0.0
 30
0.0
 70
   128
  0
VERTEX
  5
14B9
  8
0
  6
CONTINUOUS
 62
     3
 10
909.2649549492053
 20
1650.56013878218
 30
0.0
  0
VERTEX
  5
14BA
  8
0
  6
CONTINUOUS
 62
     3
 10
909.2853271762478
 20
1650.698875026489
 30
0.0
  0
VERTEX
  5
14BB
  8
0
  6
CONTINUOUS
 62
     3
 10
909.1811526997672
 20
1650.832045764339
 30
0.0
  0
VERTEX
  5
14BC
  8
0
  6
CONTINUOUS
 62
     3
 10
908.9682886145874
 20
1650.939379119032
 30
0.0
  0
VERTEX
  5
14BD
  8
0
  6
CONTINUOUS
 62
     3
 10
908.6791496188025
 20
1651.004528199336
 30
0.0
  0
VERTEX
  5
14BE
  8
0
  6
CONTINUOUS
 62
     3
 10
908.3577474938847
 20
1651.017579763348
 30
0.0
  0
VERTEX
  5
14BF
  8
0
  6
CONTINUOUS
 62
     3
 10
908.0530136349216
 20
1650.976546451311
 30
0.0
  0
VERTEX
  5
14C0
  8
0
  6
CONTINUOUS
 62
     3
 10
907.8113461016151
 20
1650.887671291789
 30
0.0
  0
VERTEX
  5
14C1
  8
0
  6
CONTINUOUS
 62
     3
 10
907.6695313756095
 20
1650.764488624085
 30
0.0
  0
SEQEND
  5
17A3
  8
0
  6
CONTINUOUS
 62
     3
  0
LINE
  5
3C9
  8
0
  6
CONTINUOUS
 62
     3
 10
907.6695313756095
 20
1650.764488624085
 30
0.0
 11
906.0331370088652
 21
1648.121794417459
 31
0.0
  0
POLYLINE
  5
3CA
  8
0
  6
CONTINUOUS
 62
     3
 66
     1
 10
0.0
 20
0.0
 30
0.0
 70
   128
  0
VERTEX
  5
14C2
  8
0
  6
CONTINUOUS
 62
     3
 10
902.0422387228259
 20
1650.817151071431
 30
0.0
  0
VERTEX
  5
14C3
  8
0
  6
CONTINUOUS
 62
     3
 10
902.0909381947522
 20
1650.397849339152
 30
0.0
  0
VERTEX
  5
14C4
  8
0
  6
CONTINUOUS
 62
     3
 10
902.2846506872856
 20
1649.984558817907
 30
0.0
  0
VERTEX
  5
14C5
  8
0
  6
CONTINUOUS
 62
     3
 10
902.6189652275848
 20
1649.586682798611
 30
0.0
  0
VERTEX
  5
14C6
  8
0
  6
CONTINUOUS
 62
     3
 10
903.086280002583
 20
1649.213268831617
 30
0.0
  0
VERTEX
  5
14C7
  8
0
  6
CONTINUOUS
 62
     3
 10
903.6759686620653
 20
1648.872808089355
 30
0.0
  0
VERTEX
  5
14C8
  8
0
  6
CONTINUOUS
 62
     3
 10
904.3746193316751
 20
1648.573044249016
 30
0.0
  0
VERTEX
  5
14C9
  8
0
  6
CONTINUOUS
 62
     3
 10
905.1663427854128
 20
1648.320794948626
 30
0.0
  0
VERTEX
  5
14CA
  8
0
  6
CONTINUOUS
 62
     3
 10
906.0331370088652
 20
1648.121794417459
 30
0.0
  0
SEQEND
  5
17A4
  8
0
  6
CONTINUOUS
 62
     3
  0
POLYLINE
  5
3CB
  8
0
  6
CONTINUOUS
 62
     3
 66
     1
 10
0.0
 20
0.0
 30
0.0
 70
   128
  0
VERTEX
  5
14CB
  8
0
  6
CONTINUOUS
 62
     3
 10
884.0797137446407
 20
1664.903253110663
 30
0.0
  0
VERTEX
  5
14CC
  8
0
  6
CONTINUOUS
 62
     3
 10
887.3083749041139
 20
1663.952157522202
 30
0.0
  0
VERTEX
  5
14CD
  8
0
  6
CONTINUOUS
 62
     3
 10
890.2935463959884
 20
1662.859973866886
 30
0.0
  0
VERTEX
  5
14CE
  8
0
  6
CONTINUOUS
 62
     3
 10
893.0009041023627
 20
1661.63925956973
 30
0.0
  0
VERTEX
  5
14CF
  8
0
  6
CONTINUOUS
 62
     3
 10
895.3993135833712
 20
1660.304052893141
 30
0.0
  0
VERTEX
  5
14D0
  8
0
  6
CONTINUOUS
 62
     3
 10
897.46119772562
 20
1658.869706633785
 30
0.0
  0
VERTEX
  5
14D1
  8
0
  6
CONTINUOUS
 62
     3
 10
899.1628482746892
 20
1657.352712283549
 30
0.0
  0
VERTEX
  5
14D2
  8
0
  6
CONTINUOUS
 62
     3
 10
900.4846897573975
 20
1655.770520688007
 30
0.0
  0
VERTEX
  5
14D3
  8
0
  6
CONTINUOUS
 62
     3
 10
901.4115306931203
 20
1654.141318945795
 30
0.0
  0
VERTEX
  5
14D4
  8
0
  6
CONTINUOUS
 62
     3
 10
901.9327130495694
 20
1652.483841261792
 30
0.0
  0
VERTEX
  5
14D5
  8
0
  6
CONTINUOUS
 62
     3
 10
902.0422387228259
 20
1650.817151071431
 30
0.0
  0
SEQEND
  5
17A5
  8
0
  6
CONTINUOUS
 62
     3
  0
ARC
  5
3CC
  8
0
  6
CONTINUOUS
 62
     3
 10
896.2508826999856
 20
1717.274539354284
 30
0.0
 40
53.76698779450714
 50
235.1461271715048
 51
256.9166179287017
  0
LINE
  5
3CD
  8
0
  6
CONTINUOUS
 62
     3
 10
861.9966237583972
 20
1675.82841812063
 30
0.0
 11
865.5238337660458
 21
1673.152691698021
 31
0.0
  0
LINE
  5
3CE
  8
0
  6
CONTINUOUS
 62
     3
 10
875.4851932902266
 20
1682.667267015966
 30
0.0
 11
869.0167783498077
 21
1681.129383170751
 31
0.0
  0
LINE
  5
3CF
  8
0
  6
CONTINUOUS
 62
     3
 10
885.9135670719038
 20
1686.137161478833
 30
0.0
 11
875.4851932902266
 21
1682.667267015966
 31
0.0
  0
LINE
  5
3D0
  8
0
  6
CONTINUOUS
 62
     3
 10
948.7374385034159
 20
1701.073713602713
 30
0.0
 11
885.9135670719038
 21
1686.137161478833
 31
0.0
  0
LINE
  5
3D1
  8
0
  6
CONTINUOUS
 62
     3
 10
941.4470111271185
 20
1706.604200617621
 30
0.0
 11
948.7374385034159
 21
1701.073713602713
 31
0.0
  0
LINE
  5
3D2
  8
0
  6
CONTINUOUS
 62
     3
 10
878.623139695605
 20
1691.66764849374
 30
0.0
 11
935.0774676736842
 21
1705.089823750256
 31
0.0
  0
LINE
  5
3D3
  8
0
  6
CONTINUOUS
 62
     3
 10
939.81886297651
 20
1706.217103817081
 30
0.0
 11
941.4470111271185
 21
1706.604200617621
 31
0.0
  0
LINE
  5
3D4
  8
0
  6
CONTINUOUS
 62
     3
 10
866.907850122976
 20
1689.816873221972
 30
0.0
 11
878.623139695605
 21
1691.66764849374
 31
0.0
  0
LINE
  5
3D5
  8
0
  6
CONTINUOUS
 62
     3
 10
853.3561296954281
 20
1686.650865062993
 30
0.0
 11
856.2444312449015
 21
1687.33756688141
 31
0.0
  0
LINE
  5
3D6
  8
0
  6
CONTINUOUS
 62
     3
 10
853.0420364366428
 20
1686.889134868917
 30
0.0
 11
853.3561296954281
 21
1686.650865062993
 31
0.0
  0
LINE
  5
3D7
  8
0
  6
CONTINUOUS
 62
     3
 10
841.9002597957628
 20
1691.073433850806
 30
0.0
 11
845.4274697981377
 21
1688.397707428196
 31
0.0
  0
POLYLINE
  5
3D8
  8
0
  6
CONTINUOUS
 62
     3
 66
     1
 10
0.0
 20
0.0
 30
0.0
 70
   128
  0
VERTEX
  5
14D6
  8
0
  6
CONTINUOUS
 62
     3
 10
835.0410349013332
 20
1702.103785082307
 30
0.0
  0
VERTEX
  5
14D7
  8
0
  6
CONTINUOUS
 62
     3
 10
835.1618611186059
 20
1700.670322508366
 30
0.0
  0
VERTEX
  5
14D8
  8
0
  6
CONTINUOUS
 62
     3
 10
835.4982541660629
 20
1699.240467343609
 30
0.0
  0
VERTEX
  5
14D9
  8
0
  6
CONTINUOUS
 62
     3
 10
836.04878336825
 20
1697.820302510354
 30
0.0
  0
VERTEX
  5
14DA
  8
0
  6
CONTINUOUS
 62
     3
 10
836.8111037441336
 20
1696.415871752287
 30
0.0
  0
VERTEX
  5
14DB
  8
0
  6
CONTINUOUS
 62
     3
 10
837.7819754325519
 20
1695.033147450475
 30
0.0
  0
VERTEX
  5
14DC
  8
0
  6
CONTINUOUS
 62
     3
 10
838.957267210777
 20
1693.678013073311
 30
0.0
  0
VERTEX
  5
14DD
  8
0
  6
CONTINUOUS
 62
     3
 10
840.3319779539556
 20
1692.356234363074
 30
0.0
  0
VERTEX
  5
14DE
  8
0
  6
CONTINUOUS
 62
     3
 10
841.9002597957628
 20
1691.073433850806
 30
0.0
  0
SEQEND
  5
17A6
  8
0
  6
CONTINUOUS
 62
     3
  0
POLYLINE
  5
3D9
  8
0
  6
CONTINUOUS
 62
     3
 66
     1
 10
0.0
 20
0.0
 30
0.0
 70
   128
  0
VERTEX
  5
14DF
  8
0
  6
CONTINUOUS
 62
     3
 10
816.1555248027043
 20
1715.970444812778
 30
0.0
  0
VERTEX
  5
14E0
  8
0
  6
CONTINUOUS
 62
     3
 10
819.4438667799932
 20
1715.059527141331
 30
0.0
  0
VERTEX
  5
14E1
  8
0
  6
CONTINUOUS
 62
     3
 10
822.4985219858049
 20
1714.00438974806
 30
0.0
  0
VERTEX
  5
14E2
  8
0
  6
CONTINUOUS
 62
     3
 10
825.284359331084
 20
1712.817169632491
 30
0.0
  0
VERTEX
  5
14E3
  8
0
  6
CONTINUOUS
 62
     3
 10
827.769344593305
 20
1711.511518743827
 30
0.0
  0
VERTEX
  5
14E4
  8
0
  6
CONTINUOUS
 62
     3
 10
829.9249116467067
 20
1710.102444318453
 30
0.0
  0
VERTEX
  5
14E5
  8
0
  6
CONTINUOUS
 62
     3
 10
831.7262640100053
 20
1708.606155895208
 30
0.0
  0
VERTEX
  5
14E6
  8
0
  6
CONTINUOUS
 62
     3
 10
833.1526913396215
 20
1707.0398577309
 30
0.0
  0
VERTEX
  5
14E7
  8
0
  6
CONTINUOUS
 62
     3
 10
834.1877915053992
 20
1705.42155949502
 30
0.0
  0
VERTEX
  5
14E8
  8
0
  6
CONTINUOUS
 62
     3
 10
834.8196606566621
 20
1703.769871590899
 30
0.0
  0
VERTEX
  5
14E9
  8
0
  6
CONTINUOUS
 62
     3
 10
835.0410349013332
 20
1702.103785082307
 30
0.0
  0
SEQEND
  5
17A7
  8
0
  6
CONTINUOUS
 62
     3
  0
POLYLINE
  5
3DA
  8
0
  6
CONTINUOUS
 62
     3
 66
     1
 10
0.0
 20
0.0
 30
0.0
 70
   128
  0
VERTEX
  5
14EA
  8
0
  6
CONTINUOUS
 62
     3
 10
812.8313042939412
 20
1718.824305981631
 30
0.0
  0
VERTEX
  5
14EB
  8
0
  6
CONTINUOUS
 62
     3
 10
812.7776457973018
 20
1718.40646522801
 30
0.0
  0
VERTEX
  5
14EC
  8
0
  6
CONTINUOUS
 62
     3
 10
812.8701185079494
 20
1717.987967101622
 30
0.0
  0
VERTEX
  5
14ED
  8
0
  6
CONTINUOUS
 62
     3
 10
813.106622527936
 20
1717.578326591573
 30
0.0
  0
VERTEX
  5
14EE
  8
0
  6
CONTINUOUS
 62
     3
 10
813.4817787240418
 20
1717.186860152324
 30
0.0
  0
VERTEX
  5
14EF
  8
0
  6
CONTINUOUS
 62
     3
 10
813.9870540719826
 20
1716.822471420318
 30
0.0
  0
VERTEX
  5
14F0
  8
0
  6
CONTINUOUS
 62
     3
 10
814.6109589232005
 20
1716.493446308085
 30
0.0
  0
VERTEX
  5
14F1
  8
0
  6
CONTINUOUS
 62
     3
 10
815.3393057232906
 20
1716.207266599216
 30
0.0
  0
VERTEX
  5
14F2
  8
0
  6
CONTINUOUS
 62
     3
 10
816.1555248027043
 20
1715.970444812778
 30
0.0
  0
SEQEND
  5
17A8
  8
0
  6
CONTINUOUS
 62
     3
  0
LINE
  5
3DB
  8
0
  6
CONTINUOUS
 62
     3
 10
818.9914908161322
 20
1718.035270813369
 30
0.0
 11
812.8313042939412
 21
1718.824305981631
 31
0.0
  0
POLYLINE
  5
3DC
  8
0
  6
CONTINUOUS
 62
     3
 66
     1
 10
0.0
 20
0.0
 30
0.0
 70
   128
  0
VERTEX
  5
14F3
  8
0
  6
CONTINUOUS
 62
     3
 10
819.415303728937
 20
1718.719699805773
 30
0.0
  0
VERTEX
  5
14F4
  8
0
  6
CONTINUOUS
 62
     3
 10
819.7044427247229
 20
1718.654550725478
 30
0.0
  0
VERTEX
  5
14F5
  8
0
  6
CONTINUOUS
 62
     3
 10
819.9173029216172
 20
1718.547220323969
 30
0.0
  0
VERTEX
  5
14F6
  8
0
  6
CONTINUOUS
 62
     3
 10
820.0214812863819
 20
1718.414046632935
 30
0.0
  0
VERTEX
  5
14F7
  8
0
  6
CONTINUOUS
 62
     3
 10
820.0011090593262
 20
1718.27531038862
 30
0.0
  0
VERTEX
  5
14F8
  8
0
  6
CONTINUOUS
 62
     3
 10
819.8592943333183
 20
1718.152127720923
 30
0.0
  0
VERTEX
  5
14F9
  8
0
  6
CONTINUOUS
 62
     3
 10
819.6176268000131
 20
1718.063252561401
 30
0.0
  0
VERTEX
  5
14FA
  8
0
  6
CONTINUOUS
 62
     3
 10
819.3128929410509
 20
1718.022219249362
 30
0.0
  0
VERTEX
  5
14FB
  8
0
  6
CONTINUOUS
 62
     3
 10
818.9914908161322
 20
1718.035270813369
 30
0.0
  0
SEQEND
  5
17A9
  8
0
  6
CONTINUOUS
 62
     3
  0
LINE
  5
3DD
  8
0
  6
CONTINUOUS
 62
     3
 10
813.2551167893935
 20
1719.508734878939
 30
0.0
 11
819.415303728937
 21
1718.719699805773
 31
0.0
  0
ARC
  5
3DE
  8
0
  6
CONTINUOUS
 62
     3
 10
818.3010400255803
 20
1712.720274094001
 30
0.0
 40
8.45840062102553
 50
85.9963309002957
 51
126.6237502179986
  0
ARC
  5
3DF
  8
0
  6
CONTINUOUS
 62
     3
 10
819.5597470426669
 20
1686.930704874438
 30
0.0
 40
34.23384841979898
 50
71.35033639199617
 51
91.11830681100344
  0
LINE
  5
3E0
  8
0
  6
CONTINUOUS
 62
     3
 10
855.3965713300745
 20
1704.226562509259
 30
0.0
 11
855.0448575325777
 21
1704.622337584562
 31
0.0
  0
ARC
  5
3E1
  8
0
  6
CONTINUOUS
 62
     3
 10
807.4331425802961
 20
1651.146250916821
 30
0.0
 40
72.01718661549722
 50
54.20215621890502
 51
71.31320040410085
  0
LINE
  5
3E2
  8
0
  6
CONTINUOUS
 62
     3
 10
949.5608023751984
 20
1706.139522888403
 30
0.0
 11
952.0461754245844
 21
1704.254129532155
 31
0.0
  0
LINE
  5
3E3
  8
0
  6
CONTINUOUS
 62
     3
 10
952.0461754245844
 20
1704.254129532155
 30
0.0
 11
957.7574328051123
 21
1705.611997036803
 31
0.0
  0
LINE
  5
3E4
  8
0
  6
CONTINUOUS
 62
     3
 10
907.6285601650939
 20
1647.917444480457
 30
0.0
 11
907.5560806112585
 21
1643.452201769785
 31
0.0
  0
ARC
  5
3E5
  8
0
  6
CONTINUOUS
 62
     3
 10
908.7794091739406
 20
1654.157662857426
 30
0.0
 40
10.77513015893311
 50
263.4810049970035
 51
297.8508962940882
  0
LINE
  5
3E6
  8
0
  6
CONTINUOUS
 62
     3
 10
905.9606574602885
 20
1643.656551706787
 30
0.0
 11
906.0331370088652
 21
1648.121794417459
 31
0.0
  0
POLYLINE
  5
3E7
  8
0
  6
CONTINUOUS
 62
     3
 66
     1
 10
0.0
 20
0.0
 30
0.0
 70
   128
  0
VERTEX
  5
14FC
  8
0
  6
CONTINUOUS
 62
     3
 10
901.9697591742488
 20
1646.351908360767
 30
0.0
  0
VERTEX
  5
14FD
  8
0
  6
CONTINUOUS
 62
     3
 10
902.0184586461914
 20
1645.932606633768
 30
0.0
  0
VERTEX
  5
14FE
  8
0
  6
CONTINUOUS
 62
     3
 10
902.2121711387085
 20
1645.519316112523
 30
0.0
  0
VERTEX
  5
14FF
  8
0
  6
CONTINUOUS
 62
     3
 10
902.5464856790231
 20
1645.121440087947
 30
0.0
  0
VERTEX
  5
1500
  8
0
  6
CONTINUOUS
 62
     3
 10
903.0138004487321
 20
1644.748026120945
 30
0.0
  0
VERTEX
  5
1501
  8
0
  6
CONTINUOUS
 62
     3
 10
903.6034891135032
 20
1644.407565378683
 30
0.0
  0
VERTEX
  5
1502
  8
0
  6
CONTINUOUS
 62
     3
 10
904.3021397830971
 20
1644.107801538344
 30
0.0
  0
VERTEX
  5
1503
  8
0
  6
CONTINUOUS
 62
     3
 10
905.0938632368357
 20
1643.85555223796
 30
0.0
  0
VERTEX
  5
1504
  8
0
  6
CONTINUOUS
 62
     3
 10
905.9606574602885
 20
1643.656551706787
 30
0.0
  0
SEQEND
  5
17AA
  8
0
  6
CONTINUOUS
 62
     3
  0
LINE
  5
3E8
  8
0
  6
CONTINUOUS
 62
     3
 10
907.5970518270319
 20
1646.29924591342
 30
0.0
 11
905.9606574602885
 21
1643.656551706787
 31
0.0
  0
ARC
  5
3E9
  8
0
  6
CONTINUOUS
 62
     3
 10
911.6796616508072
 20
1648.984684919482
 30
0.0
 40
4.848687910594971
 50
296.1060720919053
 51
354.706173281993
  0
LINE
  5
3EA
  8
0
  6
CONTINUOUS
 62
     3
 10
907.6024306379941
 20
1646.307521159574
 30
0.0
 11
907.5970518270319
 21
1646.29924591342
 31
0.0
  0
POLYLINE
  5
3EB
  8
0
  6
CONTINUOUS
 62
     3
 66
     1
 10
0.0
 20
0.0
 30
0.0
 70
   128
  0
VERTEX
  5
1505
  8
0
  6
CONTINUOUS
 62
     3
 10
884.007234196079
 20
1660.438010399998
 30
0.0
  0
VERTEX
  5
1506
  8
0
  6
CONTINUOUS
 62
     3
 10
887.2358953555522
 20
1659.486914811529
 30
0.0
  0
VERTEX
  5
1507
  8
0
  6
CONTINUOUS
 62
     3
 10
890.2210668474263
 20
1658.394731156213
 30
0.0
  0
VERTEX
  5
1508
  8
0
  6
CONTINUOUS
 62
     3
 10
892.9284245537851
 20
1657.174016859066
 30
0.0
  0
VERTEX
  5
1509
  8
0
  6
CONTINUOUS
 62
     3
 10
895.326834034795
 20
1655.838810182477
 30
0.0
  0
VERTEX
  5
150A
  8
0
  6
CONTINUOUS
 62
     3
 10
897.3887181770428
 20
1654.404463923112
 30
0.0
  0
VERTEX
  5
150B
  8
0
  6
CONTINUOUS
 62
     3
 10
899.0903687261266
 20
1652.887469572877
 30
0.0
  0
VERTEX
  5
150C
  8
0
  6
CONTINUOUS
 62
     3
 10
900.4122102088199
 20
1651.305277982616
 30
0.0
  0
VERTEX
  5
150D
  8
0
  6
CONTINUOUS
 62
     3
 10
901.3390511445427
 20
1649.676076235122
 30
0.0
  0
VERTEX
  5
150E
  8
0
  6
CONTINUOUS
 62
     3
 10
901.8602335010073
 20
1648.018598551128
 30
0.0
  0
VERTEX
  5
150F
  8
0
  6
CONTINUOUS
 62
     3
 10
901.9782564432744
 20
1646.941015622127
 30
0.0
  0
SEQEND
  5
17AB
  8
0
  6
CONTINUOUS
 62
     3
  0
ARC
  5
3EC
  8
0
  6
CONTINUOUS
 62
     3
 10
896.1784031514235
 20
1712.80929664361
 30
0.0
 40
53.76698779450777
 50
235.1461271715048
 51
256.9166179287017
  0
LINE
  5
3ED
  8
0
  6
CONTINUOUS
 62
     3
 10
861.9966237583972
 20
1675.82841812063
 30
0.0
 11
861.92414420982
 21
1671.363175409965
 31
0.0
  0
LINE
  5
3EE
  8
0
  6
CONTINUOUS
 62
     3
 10
861.92414420982
 20
1671.363175409965
 30
0.0
 11
865.4513542174841
 21
1668.687448992629
 31
0.0
  0
ARC
  5
3EF
  8
0
  6
CONTINUOUS
 62
     3
 10
896.5480877990021
 20
1666.724962005251
 30
0.0
 40
10.92161306917008
 50
101.3852489734957
 51
125.4899255879009
  0
LINE
  5
3F0
  8
0
  6
CONTINUOUS
 62
     3
 10
1046.341415905424
 20
1713.558035397432
 30
0.0
 11
1046.413895454
 21
1718.023278108106
 31
0.0
  0
LINE
  5
3F1
  8
0
  6
CONTINUOUS
 62
     3
 10
894.3921072197095
 20
1677.43165989852
 30
0.0
 11
1046.341415905424
 21
1713.558035397432
 31
0.0
  0
LINE
  5
3F2
  8
0
  6
CONTINUOUS
 62
     3
 10
853.3561296954281
 20
1686.650865062993
 30
0.0
 11
853.2920078657598
 21
1682.700515623138
 31
0.0
  0
LINE
  5
3F3
  8
0
  6
CONTINUOUS
 62
     3
 10
853.3816517475966
 20
1682.208922511759
 30
0.0
 11
857.889581995375
 21
1683.280695606665
 31
0.0
  0
LINE
  5
3F4
  8
0
  6
CONTINUOUS
 62
     3
 10
845.4274697981377
 20
1688.397707428196
 30
0.0
 11
845.3549902495761
 21
1683.932464717523
 31
0.0
  0
LINE
  5
3F5
  8
0
  6
CONTINUOUS
 62
     3
 10
841.8277802472016
 20
1686.608191140133
 30
0.0
 11
845.3549902495761
 21
1683.932464717523
 31
0.0
  0
LINE
  5
3F6
  8
0
  6
CONTINUOUS
 62
     3
 10
878.623139695605
 20
1691.66764849374
 30
0.0
 11
878.5506601470433
 21
1687.202405783075
 31
0.0
  0
LINE
  5
3F7
  8
0
  6
CONTINUOUS
 62
     3
 10
868.1058321766377
 20
1685.552337056695
 30
0.0
 11
878.5506601470433
 21
1687.202405783075
 31
0.0
  0
POLYLINE
  5
3F8
  8
0
  6
CONTINUOUS
 62
     3
 66
     1
 10
0.0
 20
0.0
 30
0.0
 70
   128
  0
VERTEX
  5
1510
  8
0
  6
CONTINUOUS
 62
     3
 10
834.9685553527561
 20
1697.638542376923
 30
0.0
  0
VERTEX
  5
1511
  8
0
  6
CONTINUOUS
 62
     3
 10
835.08938156474
 20
1696.205079797692
 30
0.0
  0
VERTEX
  5
1512
  8
0
  6
CONTINUOUS
 62
     3
 10
835.4257746122121
 20
1694.775224632936
 30
0.0
  0
VERTEX
  5
1513
  8
0
  6
CONTINUOUS
 62
     3
 10
835.9763038196879
 20
1693.35505979969
 30
0.0
  0
VERTEX
  5
1514
  8
0
  6
CONTINUOUS
 62
     3
 10
836.7386241955555
 20
1691.950629041615
 30
0.0
  0
VERTEX
  5
1515
  8
0
  6
CONTINUOUS
 62
     3
 10
837.7094958839748
 20
1690.567904739811
 30
0.0
  0
VERTEX
  5
1516
  8
0
  6
CONTINUOUS
 62
     3
 10
838.8847876621999
 20
1689.212770367928
 30
0.0
  0
VERTEX
  5
1517
  8
0
  6
CONTINUOUS
 62
     3
 10
840.2594984053935
 20
1687.890991652409
 30
0.0
  0
VERTEX
  5
1518
  8
0
  6
CONTINUOUS
 62
     3
 10
841.8277802472016
 20
1686.608191140133
 30
0.0
  0
SEQEND
  5
17AC
  8
0
  6
CONTINUOUS
 62
     3
  0
LINE
  5
3F9
  8
0
  6
CONTINUOUS
 62
     3
 10
941.4470111271185
 20
1706.604200617621
 30
0.0
 11
941.3745315785422
 21
1702.138957906955
 31
0.0
  0
LINE
  5
3FA
  8
0
  6
CONTINUOUS
 62
     3
 10
878.5506601470433
 20
1687.202405783075
 30
0.0
 11
929.5379134240293
 21
1699.324768650514
 31
0.0
  0
LINE
  5
3FB
  8
0
  6
CONTINUOUS
 62
     3
 10
940.6305312794102
 20
1701.962069745147
 30
0.0
 11
941.3745315785422
 21
1702.138957906955
 31
0.0
  0
POLYLINE
  5
3FC
  8
0
  6
CONTINUOUS
 62
     3
 66
     1
 10
0.0
 20
0.0
 30
0.0
 70
   128
  0
VERTEX
  5
1519
  8
0
  6
CONTINUOUS
 62
     3
 10
816.0830452541427
 20
1711.505202102113
 30
0.0
  0
VERTEX
  5
151A
  8
0
  6
CONTINUOUS
 62
     3
 10
819.3713872314315
 20
1710.594284430658
 30
0.0
  0
VERTEX
  5
151B
  8
0
  6
CONTINUOUS
 62
     3
 10
822.4260424372283
 20
1709.539147037387
 30
0.0
  0
VERTEX
  5
151C
  8
0
  6
CONTINUOUS
 62
     3
 10
825.2118797825065
 20
1708.351926921826
 30
0.0
  0
VERTEX
  5
151D
  8
0
  6
CONTINUOUS
 62
     3
 10
827.6968650447275
 20
1707.046276033161
 30
0.0
  0
VERTEX
  5
151E
  8
0
  6
CONTINUOUS
 62
     3
 10
829.8524320981301
 20
1705.63720161307
 30
0.0
  0
VERTEX
  5
151F
  8
0
  6
CONTINUOUS
 62
     3
 10
831.6537844614268
 20
1704.140913184543
 30
0.0
  0
VERTEX
  5
1520
  8
0
  6
CONTINUOUS
 62
     3
 10
833.080211791043
 20
1702.574615020234
 30
0.0
  0
VERTEX
  5
1521
  8
0
  6
CONTINUOUS
 62
     3
 10
834.115311956838
 20
1700.956316789636
 30
0.0
  0
VERTEX
  5
1522
  8
0
  6
CONTINUOUS
 62
     3
 10
834.7471811080854
 20
1699.304628885514
 30
0.0
  0
VERTEX
  5
1523
  8
0
  6
CONTINUOUS
 62
     3
 10
834.9685553527561
 20
1697.638542376923
 30
0.0
  0
SEQEND
  5
17AD
  8
0
  6
CONTINUOUS
 62
     3
  0
LINE
  5
3FD
  8
0
  6
CONTINUOUS
 62
     3
 10
941.3745315785422
 20
1702.138957906955
 30
0.0
 11
944.2006473127112
 21
1699.995078603617
 31
0.0
  0
POLYLINE
  5
3FE
  8
0
  6
CONTINUOUS
 62
     3
 66
     1
 10
0.0
 20
0.0
 30
0.0
 70
   128
  0
VERTEX
  5
1524
  8
0
  6
CONTINUOUS
 62
     3
 10
812.7040280712085
 20
1714.016564362457
 30
0.0
  0
VERTEX
  5
1525
  8
0
  6
CONTINUOUS
 62
     3
 10
812.7051662487393
 20
1713.941222517345
 30
0.0
  0
VERTEX
  5
1526
  8
0
  6
CONTINUOUS
 62
     3
 10
812.7976389593882
 20
1713.522724390949
 30
0.0
  0
VERTEX
  5
1527
  8
0
  6
CONTINUOUS
 62
     3
 10
813.0341429793589
 20
1713.113083880907
 30
0.0
  0
VERTEX
  5
1528
  8
0
  6
CONTINUOUS
 62
     3
 10
813.4092991754655
 20
1712.72161744694
 30
0.0
  0
VERTEX
  5
1529
  8
0
  6
CONTINUOUS
 62
     3
 10
813.9145745234055
 20
1712.357228709654
 30
0.0
  0
VERTEX
  5
152A
  8
0
  6
CONTINUOUS
 62
     3
 10
814.5384793746234
 20
1712.028203597412
 30
0.0
  0
VERTEX
  5
152B
  8
0
  6
CONTINUOUS
 62
     3
 10
815.2668261747131
 20
1711.742023888542
 30
0.0
  0
VERTEX
  5
152C
  8
0
  6
CONTINUOUS
 62
     3
 10
816.0830452541427
 20
1711.505202102113
 30
0.0
  0
SEQEND
  5
17AE
  8
0
  6
CONTINUOUS
 62
     3
  0
LINE
  5
3FF
  8
0
  6
CONTINUOUS
 62
     3
 10
813.2551167893935
 20
1719.508734878939
 30
0.0
 11
813.2431508847208
 21
1718.771552339345
 31
0.0
  0
CIRCLE
  5
400
  8
0
  6
CONTINUOUS
 10
919.0665839221142
 20
1503.979033534213
 30
0.0
 40
2.001131859375
  0
LINE
  5
401
  8
0
  6
CONTINUOUS
 10
919.0665839221142
 20
1495.974506096712
 30
0.0
 11
884.0467763830516
 21
1495.974506096712
 31
0.0
  0
LINE
  5
402
  8
0
  6
CONTINUOUS
 10
884.0467763830516
 20
1511.983560971713
 30
0.0
 11
919.0665839221142
 21
1511.983560971713
 31
0.0
  0
ARC
  5
403
  8
0
  6
CONTINUOUS
 10
919.0665839221142
 20
1503.979033534213
 30
0.0
 40
8.004527437500053
 50
270.0
 51
90.0
  0
CIRCLE
  5
404
  8
0
  6
CONTINUOUS
 10
884.0467763830516
 20
1503.979033534213
 30
0.0
 40
2.001131859375057
  0
ARC
  5
405
  8
0
  6
CONTINUOUS
 10
884.0467763830516
 20
1503.979033534213
 30
0.0
 40
8.004527437500053
 50
90.0
 51
270.0
  0
CIRCLE
  5
408
  8
0
  6
CONTINUOUS
 10
834.5187653416237
 20
1502.940639373505
 30
0.0
 40
2.001131859375
  0
CIRCLE
  5
409
  8
0
  6
CONTINUOUS
 10
834.5187653416237
 20
1502.940639373505
 30
0.0
 40
10.005659296875
  0
CIRCLE
  5
40B
  8
0
  6
CONTINUOUS
 10
741.3603370641181
 20
1561.734736100362
 30
0.0
 40
2.001131859375029
  0
CIRCLE
  5
40C
  8
0
  6
CONTINUOUS
 10
741.3603370641181
 20
1561.734736100362
 30
0.0
 40
10.005659296875
  0
LINE
  5
40E
  8
0
  6
CONTINUOUS
 10
954.49717533185
 20
1466.297625015452
 30
0.0
 11
876.453032816225
 21
1466.297625015452
 31
0.0
  0
LINE
  5
410
  8
0
  6
CONTINUOUS
 10
876.453032816225
 20
1460.294229437327
 30
0.0
 11
954.49717533185
 21
1460.294229437327
 31
0.0
  0
LINE
  5
411
  8
0
  6
CONTINUOUS
 10
954.49717533185
 20
1451.28913607014
 30
0.0
 11
954.49717533185
 21
1460.294229437327
 31
0.0
  0
LINE
  5
412
  8
0
  6
CONTINUOUS
 10
954.49717533185
 20
1451.28913607014
 30
0.0
 11
948.493779753725
 21
1451.28913607014
 31
0.0
  0
LINE
  5
413
  8
0
  6
CONTINUOUS
 10
948.493779753725
 20
1451.28913607014
 30
0.0
 11
948.493779753725
 21
1439.28234491389
 31
0.0
  0
LINE
  5
414
  8
0
  6
CONTINUOUS
 10
735.5316363098145
 20
1439.28234491389
 30
0.0
 11
948.493779753725
 21
1439.28234491389
 31
0.0
  0
ARC
  5
415
  8
0
  6
CONTINUOUS
 10
735.5316363098145
 20
1425.892170217842
 30
0.0
 40
13.39017469807457
 50
90.0
 51
196.0879828201964
  0
ARC
  5
416
  8
0
  6
CONTINUOUS
 10
628.0094061066297
 20
1394.88190210634
 30
0.0
 40
98.51454690097395
 50
339.0167954007011
 51
16.0879828201964
  0
ARC
  5
417
  8
0
  6
CONTINUOUS
 10
700.5536918825314
 20
1367.059155847772
 30
0.0
 40
20.81783778244955
 50
297.3428648391061
 51
339.0167954007011
  0
ARC
  5
418
  8
0
  6
CONTINUOUS
 10
706.537014728121
 20
1355.48792879476
 30
0.0
 40
7.791194019097127
 50
238.4425266125759
 51
297.3428648391048
  0
ARC
  5
41C
  8
0
  6
CONTINUOUS
 10
706.537014728121
 20
1355.487928794759
 30
0.0
 40
7.791194019096871
 50
148.4324384854013
 51
211.5574733874307
  0
ARC
  5
41D
  8
0
  6
CONTINUOUS
 10
662.7982400191895
 20
1382.362079107159
 30
0.0
 40
43.54398269176271
 50
328.4324384854013
 51
29.9022297208958
  0
ARC
  5
41E
  8
0
  6
CONTINUOUS
 10
753.9209219845852
 20
1434.76466398382
 30
0.0
 40
61.57202023146832
 50
180.0
 51
209.9022297208958
  0
LINE
  5
41F
  8
0
  6
CONTINUOUS
 62
     7
 10
692.3489017537249
 20
1443.28460863264
 30
0.0
 11
692.3489017537249
 21
1434.76466398382
 31
0.0
  0
LINE
  5
420
  8
0
  6
CONTINUOUS
 10
698.35229733185
 20
1443.28460863264
 30
0.0
 11
692.3489017537249
 21
1443.28460863264
 31
0.0
  0
LINE
  5
421
  8
0
  6
CONTINUOUS
 10
698.35229733185
 20
1452.08958881389
 30
0.0
 11
698.35229733185
 21
1443.28460863264
 31
0.0
  0
LINE
  5
422
  8
0
  6
CONTINUOUS
 10
716.3624840662251
 20
1452.08958881389
 30
0.0
 11
698.35229733185
 21
1452.08958881389
 31
0.0
  0
LINE
  5
423
  8
0
  6
CONTINUOUS
 10
732.371538941225
 20
1454.49094704514
 30
0.0
 11
716.3624840662251
 21
1452.08958881389
 31
0.0
  0
LINE
  5
424
  8
0
  6
CONTINUOUS
 10
820.421340753725
 20
1454.49094704514
 30
0.0
 11
732.371538941225
 21
1454.49094704514
 31
0.0
  0
LINE
  5
425
  8
0
  6
CONTINUOUS
 10
820.421340753725
 20
1472.10090740764
 30
0.0
 11
820.421340753725
 21
1454.49094704514
 31
0.0
  0
LINE
  5
426
  8
0
  6
CONTINUOUS
 10
732.371538941225
 20
1472.10090740764
 30
0.0
 11
820.421340753725
 21
1472.10090740764
 31
0.0
  0
LINE
  5
427
  8
0
  6
CONTINUOUS
 10
716.3624840662251
 20
1474.50226563889
 30
0.0
 11
732.371538941225
 21
1472.10090740764
 31
0.0
  0
LINE
  5
428
  8
0
  6
CONTINUOUS
 10
698.35229733185
 20
1474.50226563889
 30
0.0
 11
716.3624840662251
 21
1474.50226563889
 31
0.0
  0
LINE
  5
429
  8
0
  6
CONTINUOUS
 10
698.35229733185
 20
1483.30724582014
 30
0.0
 11
698.35229733185
 21
1474.50226563889
 31
0.0
  0
LINE
  5
42A
  8
0
  6
CONTINUOUS
 10
692.3489017537249
 20
1483.30724582014
 30
0.0
 11
698.35229733185
 21
1483.30724582014
 31
0.0
  0
LINE
  5
42B
  8
0
  6
CONTINUOUS
 62
     7
 10
692.3489017537249
 20
1491.82719046896
 30
0.0
 11
692.3489017537249
 21
1483.30724582014
 31
0.0
  0
ARC
  5
42C
  8
0
  6
CONTINUOUS
 10
753.9209219845852
 20
1491.82719046896
 30
0.0
 40
61.57202023146832
 50
150.0977702791042
 51
180.0
  0
ARC
  5
42D
  8
0
  6
CONTINUOUS
 10
662.7982400191895
 20
1544.229775345621
 30
0.0
 40
43.54398269176271
 50
330.0977702791042
 51
31.56756151459872
  0
ARC
  5
42F
  8
0
  6
CONTINUOUS
 10
700.5536918825314
 20
1559.532698608214
 30
0.0
 40
20.81783778244952
 50
20.98320459929888
 51
62.65713516089384
  0
ARC
  5
430
  8
0
  6
CONTINUOUS
 10
628.0094061066297
 20
1531.709952349645
 30
0.0
 40
98.51454690097395
 50
343.9120171798036
 51
20.98320459929888
  0
ARC
  5
431
  8
0
  6
CONTINUOUS
 10
735.5316363098145
 20
1500.699684238143
 30
0.0
 40
13.39017469807457
 50
163.9120171798036
 51
270.0
  0
LINE
  5
432
  8
0
  6
CONTINUOUS
 10
948.493779753725
 20
1487.30950953889
 30
0.0
 11
735.5316363098145
 21
1487.30950953889
 31
0.0
  0
LINE
  5
433
  8
0
  6
CONTINUOUS
 10
948.493779753725
 20
1487.30950953889
 30
0.0
 11
948.493779753725
 21
1475.30271838264
 31
0.0
  0
LINE
  5
434
  8
0
  6
CONTINUOUS
 10
948.493779753725
 20
1475.30271838264
 30
0.0
 11
954.49717533185
 21
1475.30271838264
 31
0.0
  0
LINE
  5
435
  8
0
  6
CONTINUOUS
 10
954.49717533185
 20
1466.297625015452
 30
0.0
 11
954.49717533185
 21
1475.30271838264
 31
0.0
  0
LINE
  5
436
  8
0
  6
CONTINUOUS
 10
836.4303956287249
 20
1466.297625015452
 30
0.0
 11
828.4258681912252
 21
1466.297625015452
 31
0.0
  0
LINE
  5
437
  8
0
  6
CONTINUOUS
 10
828.4258681912252
 20
1466.297625015452
 30
0.0
 11
828.4258681912252
 21
1460.294229437327
 31
0.0
  0
LINE
  5
438
  8
0
  6
CONTINUOUS
 10
828.4258681912252
 20
1460.294229437327
 30
0.0
 11
836.4303956287249
 21
1460.294229437327
 31
0.0
  0
LINE
  5
439
  8
0
  6
CONTINUOUS
 10
836.4303956287249
 20
1460.294229437327
 30
0.0
 11
836.4303956287249
 21
1466.297625015452
 31
0.0
  0
ARC
  5
43A
  8
0
  6
CONTINUOUS
 10
706.512809888959
 20
1571.097769289134
 30
0.0
 40
7.767351596806216
 50
148.4845672171945
 51
211.6223389573121
  0
ARC
  5
43B
  8
0
  6
CONTINUOUS
 10
706.537014728121
 20
1571.103925658025
 30
0.0
 40
7.791194019096848
 50
62.65713516089384
 51
121.719744196103
  0
CIRCLE
  5
43C
  8
0
  6
CONTINUOUS
 10
783.057323201705
 20
1504.217639209358
 30
0.0
 40
2.001131859375
  0
LINE
  5
43D
  8
0
  6
CONTINUOUS
 10
783.057323201705
 20
1496.213111771858
 30
0.0
 11
748.0375156626424
 21
1496.213111771858
 31
0.0
  0
LINE
  5
43E
  8
0
  6
CONTINUOUS
 10
748.0375156626424
 20
1512.222166646858
 30
0.0
 11
783.057323201705
 21
1512.222166646858
 31
0.0
  0
ARC
  5
43F
  8
0
  6
CONTINUOUS
 10
783.057323201705
 20
1504.217639209358
 30
0.0
 40
8.004527437500053
 50
270.0
 51
90.0
  0
CIRCLE
  5
440
  8
0
  6
CONTINUOUS
 10
748.0375156626424
 20
1504.217639209358
 30
0.0
 40
2.001131859375057
  0
ARC
  5
441
  8
0
  6
CONTINUOUS
 10
748.0375156626424
 20
1504.217639209358
 30
0.0
 40
8.004527437500053
 50
90.0
 51
270.0
  0
ARC
  5
445
  8
0
  6
CONTINUOUS
 10
973.5542020264052
 20
1547.00619123593
 30
0.0
 40
2.001131859375057
 50
270.0
 51
90.0
  0
LINE
  5
446
  8
0
  6
CONTINUOUS
 10
940.9160534709163
 20
1549.007323095305
 30
0.0
 11
973.5542020264052
 21
1549.007323095305
 31
0.0
  0
ARC
  5
447
  8
0
  6
CONTINUOUS
 10
940.9160534709163
 20
1436.943938970305
 30
0.0
 40
112.0633841249999
 50
90.0
 51
103.7277482224082
  0
LINE
  5
448
  8
0
  6
CONTINUOUS
 10
887.4039437147294
 20
1539.230318679823
 30
0.0
 11
914.3224444785706
 21
1545.806154739773
 31
0.0
  0
ARC
  5
449
  8
0
  6
CONTINUOUS
 10
885.5044002139043
 20
1547.00619123593
 30
0.0
 40
8.004527437500006
 50
180.0
 51
283.7277482224081
  0
LINE
  5
44A
  8
0
  6
CONTINUOUS
 10
877.4998727764046
 20
1560.013548321867
 30
0.0
 11
877.4998727764046
 21
1547.00619123593
 31
0.0
  0
LINE
  5
44B
  8
0
  6
CONTINUOUS
 10
889.5066639326551
 20
1566.016943899992
 30
0.0
 11
877.4998727764046
 21
1560.013548321867
 31
0.0
  0
LINE
  5
44C
  8
0
  6
CONTINUOUS
 10
889.5066639326551
 20
1561.014114251555
 30
0.0
 11
889.5066639326551
 21
1566.016943899992
 31
0.0
  0
LINE
  5
44D
  8
0
  6
CONTINUOUS
 10
897.5111913701553
 20
1553.009586814055
 30
0.0
 11
889.5066639326551
 21
1561.014114251555
 31
0.0
  0
LINE
  5
44E
  8
0
  6
CONTINUOUS
 10
973.5542020264052
 20
1553.009586814055
 30
0.0
 11
897.5111913701553
 21
1553.009586814055
 31
0.0
  0
ARC
  5
44F
  8
0
  6
CONTINUOUS
 10
973.5542020264052
 20
1555.01071867343
 30
0.0
 40
2.001131859375
 50
270.0
 51
180.0
  0
LINE
  5
450
  8
0
  6
CONTINUOUS
 10
953.5428834326553
 20
1555.01071867343
 30
0.0
 11
971.5530701670295
 21
1555.01071867343
 31
0.0
  0
LINE
  5
451
  8
0
  6
CONTINUOUS
 10
953.5428834326553
 20
1560.613887879675
 30
0.0
 11
953.5428834326553
 21
1555.01071867343
 31
0.0
  0
LINE
  5
452
  8
0
  6
CONTINUOUS
 10
913.5202462451543
 20
1560.613887879675
 30
0.0
 11
953.5428834326553
 21
1560.613887879675
 31
0.0
  0
LINE
  5
453
  8
0
  6
CONTINUOUS
 10
905.5157188076546
 20
1557.612190090612
 30
0.0
 11
913.5202462451543
 21
1560.613887879675
 31
0.0
  0
LINE
  5
454
  8
0
  6
CONTINUOUS
 10
905.5157188076546
 20
1560.613887879675
 30
0.0
 11
905.5157188076546
 21
1557.612190090612
 31
0.0
  0
LINE
  5
455
  8
0
  6
CONTINUOUS
 10
898.1115309279762
 20
1568.018075759368
 30
0.0
 11
905.5157188076546
 21
1560.613887879675
 31
0.0
  0
LINE
  5
456
  8
0
  6
CONTINUOUS
 10
817.4659169951547
 20
1568.018075759368
 30
0.0
 11
898.1115309279762
 21
1568.018075759368
 31
0.0
  0
LINE
  5
457
  8
0
  6
CONTINUOUS
 10
793.4523346826545
 20
1571.238847497155
 30
0.0
 11
817.4659169951547
 21
1568.018075759368
 31
0.0
  0
LINE
  5
458
  8
0
  6
CONTINUOUS
 10
761.4342249326546
 20
1571.238847497155
 30
0.0
 11
793.4523346826545
 21
1571.238847497155
 31
0.0
  0
LINE
  5
459
  8
0
  6
CONTINUOUS
 10
761.4342249326546
 20
1575.187658531353
 30
0.0
 11
761.4342249326546
 21
1571.238847497155
 31
0.0
  0
LINE
  5
45A
  8
0
  6
CONTINUOUS
 62
     7
 10
769.4387523701553
 20
1579.624640543737
 30
0.0
 11
761.4342249326546
 21
1575.187658531353
 31
0.0
  0
LINE
  5
45B
  8
0
  6
CONTINUOUS
 62
     7
 10
769.4387523701553
 20
1575.622376824987
 30
0.0
 11
769.4387523701553
 21
1579.624640543737
 31
0.0
  0
LINE
  5
45C
  8
0
  6
CONTINUOUS
 62
     7
 10
775.4421479482794
 20
1575.622376824987
 30
0.0
 11
769.4387523701553
 21
1575.622376824987
 31
0.0
  0
LINE
  5
45D
  8
0
  6
CONTINUOUS
 62
     7
 10
775.4421479482794
 20
1579.624640543737
 30
0.0
 11
775.4421479482794
 21
1575.622376824987
 31
0.0
  0
LINE
  5
45E
  8
0
  6
CONTINUOUS
 62
     7
 10
1025.583630370154
 20
1579.624640543737
 30
0.0
 11
775.4421479482794
 21
1579.624640543737
 31
0.0
  0
LINE
  5
45F
  8
0
  6
CONTINUOUS
 10
1025.583630370154
 20
1579.624640543737
 30
0.0
 11
1025.583630370154
 21
1569.618981246862
 31
0.0
  0
LINE
  5
460
  8
0
  6
CONTINUOUS
 10
1025.583630370154
 20
1569.618981246862
 30
0.0
 11
1031.587025948279
 21
1569.618981246862
 31
0.0
  0
LINE
  5
461
  8
0
  6
CONTINUOUS
 10
1031.587025948279
 20
1545.605398934362
 30
0.0
 11
1031.587025948279
 21
1569.618981246862
 31
0.0
  0
LINE
  5
462
  8
0
  6
CONTINUOUS
 10
1031.587025948279
 20
1545.605398934362
 30
0.0
 11
1025.583630370154
 21
1545.605398934362
 31
0.0
  0
LINE
  5
463
  8
0
  6
CONTINUOUS
 10
1025.583630370154
 20
1545.605398934362
 30
0.0
 11
1025.583630370154
 21
1533.998834149992
 31
0.0
  0
LINE
  5
464
  8
0
  6
CONTINUOUS
 10
1009.337228948877
 20
1533.998834149992
 30
0.0
 11
1025.583630370154
 21
1533.998834149992
 31
0.0
  0
ARC
  5
465
  8
0
  6
CONTINUOUS
 10
1009.337228948877
 20
1525.994306712492
 30
0.0
 40
8.004527437500053
 50
90.0
 51
213.9999999999979
  0
LINE
  5
466
  8
0
  6
CONTINUOUS
 10
1060.200286962252
 20
1436.272292584731
 30
0.0
 11
1002.701211541863
 21
1521.518177528532
 31
0.0
  0
ARC
  5
467
  8
0
  6
CONTINUOUS
 10
993.8397469998977
 20
1391.511543197865
 30
0.0
 40
80.04527437499999
 50
0.6004477671976539
 51
33.99999999999789
  0
LINE
  5
468
  8
0
  6
CONTINUOUS
 10
1001.83987894966
 20
1392.35038555275
 30
0.0
 11
1073.88062588716
 21
1392.35038555275
 31
0.0
  0
ARC
  5
469
  8
0
  6
CONTINUOUS
 10
1001.83987894966
 20
1400.35491299025
 30
0.0
 40
8.004527437499998
 50
118.9999999999992
 51
270.0
  0
LINE
  5
46A
  8
0
  6
CONTINUOUS
 10
939.6147541860714
 20
1509.016547049873
 30
0.0
 11
997.9592070440117
 21
1407.355830433168
 31
0.0
  0
ARC
  5
46B
  8
0
  6
CONTINUOUS
 10
941.3649835468655
 20
1509.98671502668
 30
0.0
 40
2.001131859375022
 50
89.02012593809684
 51
208.9999999999992
  0
ARC
  5
46C
  8
0
  6
CONTINUOUS
 10
941.5360922764044
 20
1519.990911134367
 30
0.0
 40
8.004527437499998
 50
269.0201259380968
 51
180.0
  0
LINE
  5
46D
  8
0
  6
CONTINUOUS
 10
809.4613895576554
 20
1519.990911134367
 30
0.0
 11
933.5315648389051
 21
1519.990911134367
 31
0.0
  0
LINE
  5
46E
  8
0
  6
CONTINUOUS
 10
785.4478072451543
 20
1531.997702290617
 30
0.0
 11
809.4613895576554
 21
1519.990911134367
 31
0.0
  0
LINE
  5
46F
  8
0
  6
CONTINUOUS
 10
775.4421479482794
 20
1531.997702290617
 30
0.0
 11
785.4478072451543
 21
1531.997702290617
 31
0.0
  0
LINE
  5
470
  8
0
  6
CONTINUOUS
 10
775.4421479482794
 20
1531.997702290617
 30
0.0
 11
775.4421479482794
 21
1540.002229728118
 31
0.0
  0
LINE
  5
471
  8
0
  6
CONTINUOUS
 10
775.4421479482794
 20
1540.002229728118
 30
0.0
 11
769.4387523701553
 21
1540.002229728118
 31
0.0
  0
LINE
  5
472
  8
0
  6
CONTINUOUS
 10
769.4387523701553
 20
1540.002229728118
 30
0.0
 11
769.4387523701553
 21
1531.997702290617
 31
0.0
  0
LINE
  5
473
  8
0
  6
CONTINUOUS
 10
761.4342249326546
 20
1548.006757165617
 30
0.0
 11
761.4342249326546
 21
1531.997702290617
 31
0.0
  0
LINE
  5
474
  8
0
  6
CONTINUOUS
 10
793.4523346826545
 20
1548.006757165617
 30
0.0
 11
761.4342249326546
 21
1548.006757165617
 31
0.0
  0
LINE
  5
475
  8
0
  6
CONTINUOUS
 10
817.4659169951547
 20
1551.00845495468
 30
0.0
 11
793.4523346826545
 21
1548.006757165617
 31
0.0
  0
LINE
  5
476
  8
0
  6
CONTINUOUS
 10
869.4953453389053
 20
1551.00845495468
 30
0.0
 11
817.4659169951547
 21
1551.00845495468
 31
0.0
  0
LINE
  5
477
  8
0
  6
CONTINUOUS
 10
869.4953453389053
 20
1547.00619123593
 30
0.0
 11
869.4953453389053
 21
1551.00845495468
 31
0.0
  0
ARC
  5
478
  8
0
  6
CONTINUOUS
 10
885.5044002139043
 20
1547.00619123593
 30
0.0
 40
16.00905487500001
 50
180.0
 51
289.6900751732906
  0
LINE
  5
479
  8
0
  6
CONTINUOUS
 10
909.1162575148883
 20
1538.452592572874
 30
0.0
 11
890.8983658286047
 21
1531.933203047622
 31
0.0
  0
ARC
  5
47A
  8
0
  6
CONTINUOUS
 10
946.8740168177337
 20
1432.941675251555
 30
0.0
 40
112.0633841250001
 50
90.0
 51
109.6900751732906
  0
LINE
  5
47B
  8
0
  6
CONTINUOUS
 10
973.5542020264052
 20
1545.005059376555
 30
0.0
 11
946.8740168177337
 21
1545.005059376555
 31
0.0
  0
LINE
  5
47C
  8
0
  6
CONTINUOUS
 10
761.4342249326546
 20
1531.997702290617
 30
0.0
 11
769.4387523701553
 21
1531.997702290617
 31
0.0
  0
ARC
  5
47E
  8
0
  6
CONTINUOUS
 10
873.7786790688974
 20
1363.621083571497
 30
0.0
 40
2.001131859374989
 50
299.9999999999997
 51
240.0000000000003
  0
LINE
  5
47F
  8
0
  6
CONTINUOUS
 10
874.7792449985841
 20
1361.888052546126
 30
0.0
 11
876.3463447828481
 21
1356.039556529477
 31
0.0
  0
ARC
  5
480
  8
0
  6
CONTINUOUS
 10
873.7786790688974
 20
1363.621083571497
 30
0.0
 40
8.004527437499975
 50
288.7099015241977
 51
251.2900984758022
  0
LINE
  5
481
  8
0
  6
CONTINUOUS
 10
871.2110133549372
 20
1356.039556529477
 30
0.0
 11
872.7781131392098
 21
1361.888052546126
 31
0.0
  0
LINE
  5
482
  8
0
  6
CONTINUOUS
 10
863.925284214251
 20
1370.482107089814
 30
0.0
 11
850.7874244091254
 21
1351.614292415247
 31
0.0
  0
ARC
  5
483
  8
0
  6
CONTINUOUS
 10
873.7786790688974
 20
1363.621083571497
 30
0.0
 40
12.00679115625
 50
34.84990457899523
 51
145.1500954210047
  0
LINE
  5
484
  8
0
  6
CONTINUOUS
 10
896.7699337286599
 20
1351.614292415247
 30
0.0
 11
883.6320739235334
 21
1370.482107089814
 31
0.0
  0
ARC
  5
485
  8
0
  6
CONTINUOUS
 10
873.7786790688974
 20
1335.605237540247
 30
0.0
 40
28.01584603125001
 50
2.04671309769977
 51
34.84990457899523
  0
LINE
  5
486
  8
0
  6
CONTINUOUS
 10
893.7899976626472
 20
1336.605803469934
 30
0.0
 11
901.7766521494268
 21
1336.605803469934
 31
0.0
  0
LINE
  5
487
  8
0
  6
CONTINUOUS
 10
893.7899976626472
 20
1330.602407891809
 30
0.0
 11
893.7899976626472
 21
1336.605803469934
 31
0.0
  0
LINE
  5
488
  8
0
  6
CONTINUOUS
 10
901.3442250333037
 20
1330.602407891809
 30
0.0
 11
893.7899976626472
 21
1330.602407891809
 31
0.0
  0
ARC
  5
489
  8
0
  6
CONTINUOUS
 10
873.7786790688974
 20
1335.605237540247
 30
0.0
 40
28.01584603125001
 50
190.2865606115072
 51
349.7134393884928
  0
LINE
  5
48A
  8
0
  6
CONTINUOUS
 10
853.7673604751476
 20
1330.602407891809
 30
0.0
 11
846.2131331044725
 21
1330.602407891809
 31
0.0
  0
LINE
  5
48B
  8
0
  6
CONTINUOUS
 10
853.7673604751476
 20
1336.605803469934
 30
0.0
 11
853.7673604751476
 21
1330.602407891809
 31
0.0
  0
LINE
  5
48C
  8
0
  6
CONTINUOUS
 10
845.7807059883485
 20
1336.605803469934
 30
0.0
 11
853.7673604751476
 21
1336.605803469934
 31
0.0
  0
ARC
  5
48D
  8
0
  6
CONTINUOUS
 10
873.7786790688974
 20
1335.605237540247
 30
0.0
 40
28.01584603124998
 50
145.1500954210047
 51
177.9532869023002
  0
LINE
  5
48E
  8
0
  6
CONTINUOUS
 10
876.7803768579593
 20
1347.23076308741
 30
0.0
 11
876.7803768579593
 21
1351.614292415247
 31
0.0
  0
LINE
  5
48F
  8
0
  6
CONTINUOUS
 10
876.7803768579593
 20
1351.614292415247
 30
0.0
 11
870.7769812798342
 21
1351.614292415247
 31
0.0
  0
LINE
  5
490
  8
0
  6
CONTINUOUS
 10
870.7769812798342
 20
1351.614292415247
 30
0.0
 11
870.7769812798342
 21
1347.23076308741
 31
0.0
  0
ARC
  5
491
  8
0
  6
CONTINUOUS
 10
873.7786790688974
 20
1335.605237540247
 30
0.0
 40
12.00679115625
 50
104.477512185903
 51
255.522487814097
  0
LINE
  5
492
  8
0
  6
CONTINUOUS
 10
870.7769812798342
 20
1323.97971199308
 30
0.0
 11
870.7769812798342
 21
1315.994145318372
 31
0.0
  0
LINE
  5
493
  8
0
  6
CONTINUOUS
 10
870.7769812798342
 20
1315.994145318372
 30
0.0
 11
876.7803768579593
 21
1315.994145318372
 31
0.0
  0
LINE
  5
494
  8
0
  6
CONTINUOUS
 10
876.7803768579593
 20
1315.994145318372
 30
0.0
 11
876.7803768579593
 21
1323.97971199308
 31
0.0
  0
ARC
  5
495
  8
0
  6
CONTINUOUS
 10
873.7786790688974
 20
1335.605237540247
 30
0.0
 40
12.00679115625
 50
284.477512185903
 51
75.522487814097
  0
CIRCLE
  5
496
  8
0
  6
CONTINUOUS
 10
910.0242751645128
 20
1417.460510548889
 30
0.0
 40
4.002263718749999
  0
LINE
  5
497
  8
0
  6
CONTINUOUS
 10
894.7918849609068
 20
1418.384109867123
 30
0.0
 11
887.1756898591038
 21
1394.832327213739
 31
0.0
  0
ARC
  5
498
  8
0
  6
CONTINUOUS
 10
910.0242751645128
 20
1413.45824683014
 30
0.0
 40
16.00905487500003
 50
17.92021313940898
 51
162.079786860591
  0
LINE
  5
499
  8
0
  6
CONTINUOUS
 10
932.8728604699304
 20
1394.832327213739
 30
0.0
 11
925.2566653681274
 21
1418.384109867123
 31
0.0
  0
ARC
  5
49A
  8
0
  6
CONTINUOUS
 10
910.0242751645128
 20
1387.443532658264
 30
0.0
 40
24.01358231250002
 50
162.079786860591
 51
17.92021313940898
  0
LINE
  5
49B
  8
0
  6
CONTINUOUS
 10
907.02257737545
 20
1384.441834869202
 30
0.0
 11
907.02257737545
 21
1375.436741502015
 31
0.0
  0
LINE
  5
49C
  8
0
  6
CONTINUOUS
 10
907.02257737545
 20
1375.436741502015
 30
0.0
 11
913.0259729535751
 21
1375.436741502015
 31
0.0
  0
LINE
  5
49D
  8
0
  6
CONTINUOUS
 10
913.0259729535751
 20
1375.436741502015
 30
0.0
 11
913.0259729535751
 21
1384.441834869202
 31
0.0
  0
LINE
  5
49E
  8
0
  6
CONTINUOUS
 10
913.0259729535751
 20
1384.441834869202
 30
0.0
 11
922.0310663207624
 21
1384.441834869202
 31
0.0
  0
LINE
  5
49F
  8
0
  6
CONTINUOUS
 10
922.0310663207624
 20
1384.441834869202
 30
0.0
 11
922.0310663207624
 21
1390.445230447327
 31
0.0
  0
LINE
  5
4A0
  8
0
  6
CONTINUOUS
 10
922.0310663207624
 20
1390.445230447327
 30
0.0
 11
913.0259729535751
 21
1390.445230447327
 31
0.0
  0
LINE
  5
4A1
  8
0
  6
CONTINUOUS
 10
913.0259729535751
 20
1390.445230447327
 30
0.0
 11
913.0259729535751
 21
1399.450323814514
 31
0.0
  0
LINE
  5
4A2
  8
0
  6
CONTINUOUS
 10
913.0259729535751
 20
1399.450323814514
 30
0.0
 11
907.02257737545
 21
1399.450323814514
 31
0.0
  0
LINE
  5
4A3
  8
0
  6
CONTINUOUS
 10
907.02257737545
 20
1399.450323814514
 30
0.0
 11
907.02257737545
 21
1390.445230447327
 31
0.0
  0
LINE
  5
4A4
  8
0
  6
CONTINUOUS
 10
907.02257737545
 20
1390.445230447327
 30
0.0
 11
898.0174840082627
 21
1390.445230447327
 31
0.0
  0
LINE
  5
4A5
  8
0
  6
CONTINUOUS
 10
898.0174840082627
 20
1390.445230447327
 30
0.0
 11
898.0174840082627
 21
1384.441834869202
 31
0.0
  0
LINE
  5
4A6
  8
0
  6
CONTINUOUS
 10
898.0174840082627
 20
1384.441834869202
 30
0.0
 11
907.02257737545
 21
1384.441834869202
 31
0.0
  0
LINE
  5
4A9
  8
0
  6
CONTINUOUS
 10
948.0469760652256
 20
1382.798971183655
 30
0.0
 11
964.4620921691887
 21
1436.372233905653
 31
0.0
  0
LINE
  5
4AA
  8
0
  6
CONTINUOUS
 10
964.4620921691887
 20
1436.372233905653
 30
0.0
 11
972.1154154151886
 21
1434.027217319373
 31
0.0
  0
ARC
  5
4AB
  8
0
  6
CONTINUOUS
 10
969.7703988289081
 20
1426.373894073372
 30
0.0
 40
8.004527437500013
 50
334.8345707950824
 51
72.96467314927364
  0
LINE
  5
4AC
  8
0
  6
CONTINUOUS
 10
977.0151668772886
 20
1422.970102735945
 30
0.0
 11
965.953459011788
 21
1399.425913398475
 31
0.0
  0
ARC
  5
4AD
  8
0
  6
CONTINUOUS
 10
1000.466851530312
 20
1425.317746424958
 30
0.0
 40
48.02716462500003
 50
227.0523363318779
 51
268.9928705019818
  0
ARC
  5
4AE
  8
0
  6
CONTINUOUS
 10
999.5523396039343
 20
1373.296355807332
 30
0.0
 40
4.002263718750021
 50
272.4358937837742
 51
88.9928705019818
  0
ARC
  5
4AF
  8
0
  6
CONTINUOUS
 10
997.000802790787
 20
1433.276064932648
 30
0.0
 40
64.03621949999992
 50
232.4754273874665
 51
272.4358937837742
  0
LINE
  5
4B0
  8
0
  6
CONTINUOUS
 10
957.996237701191
 20
1382.489439624554
 30
0.0
 11
952.9467275273253
 21
1371.741856600228
 31
0.0
  0
ARC
  5
4B1
  8
0
  6
CONTINUOUS
 10
945.701959478945
 20
1375.145647937655
 30
0.0
 40
8.00452743749999
 50
72.96467314927364
 51
334.8345707950824
  0
ARC
  5
4B3
  8
0
  6
CONTINUOUS
 10
973.1982270571092
 20
1396.022122061994
 30
0.0
 40
8.004527437500052
 50
154.8345707950825
 51
227.0523363318779
  0
INSERT
  5
57D
  8
0
 62
     2
  2
*X28
 10
0.0
 20
0.0
 30
0.0
  0
LINE
  5
B0D
  8
0
  6
CONTINUOUS
 10
1065.633186385106
 20
1321.78500598387
 30
0.0
 11
1117.66668307357
 21
1288.355871166305
 31
0.0
  0
ARC
  5
B0E
  8
0
  6
CONTINUOUS
 10
1069.959774752386
 20
1328.519476460292
 30
0.0
 40
8.004527437499998
 50
86.28111545795151
 51
237.2811154579528
  0
LINE
  5
B0F
  8
0
  6
CONTINUOUS
 10
1128.062905469247
 20
1326.051161309912
 30
0.0
 11
1126.108801863086
 21
1413.430662818266
 31
0.0
  0
ARC
  5
B10
  8
0
  6
CONTINUOUS
 10
1060.041429646015
 20
1324.529969166369
 30
0.0
 40
68.03848321874999
 50
327.8815632251469
 51
1.281115457944341
  0
LINE
  5
B11
  8
0
  6
CONTINUOUS
 10
1085.049274082002
 20
1422.800244660829
 30
0.0
 11
1080.558993083521
 21
1333.132232130737
 31
0.0
  0
LINE
  5
B13
  8
0
 10
1070.478958130044
 20
1336.507148718354
 30
0.0
 11
1077.7359385088
 21
1331.844871706639
 31
0.0
  0
ARC
  5
B14
  8
0
 10
1078.623744336633
 20
1333.637021480532
 30
0.0
 40
2.0
 50
243.4454581694833
 51
345.3807379240156
  0
LINE
  5
B16
  8
0
 10
1126.108801863086
 20
1413.430662818266
 30
0.0
 11
1125.307588231065
 21
1423.745592314976
 31
0.0
  0
LINE
  5
B17
  8
0
 10
1108.607261529136
 20
1434.4747861679
 30
0.0
 11
1125.307588231065
 21
1423.745592314976
 31
0.0
  0
ARC
  5
B2F
  8
0
 10
1086.15074340447
 20
1454.375666492041
 30
0.0
 40
30.00567019680132
 50
270.6559729642614
 51
318.4527608276096
  0
ARC
  5
B32
  8
0
  6
CONTINUOUS
 10
1086.752736778157
 20
1422.684231220978
 30
0.0
 40
1.707408643359841
 50
98.70696914112825
 51
176.1039169706543
  0
LINE
  5
BE5
  8
0
  6
CONTINUOUS
 10
920.5837551502796
 20
1345.902194209513
 30
0.0
 11
890.0305448526378
 21
1299.154627935283
 31
0.0
  0
ARC
  5
BE6
  8
0
  6
CONTINUOUS
 10
927.2841222979498
 20
1341.52297743204
 30
0.0
 40
8.004527437499998
 50
355.8322272097784
 51
146.8322272097981
  0
LINE
  5
BE7
  8
0
  6
CONTINUOUS
 10
923.006446419065
 20
1289.410301950153
 30
0.0
 11
997.2897562720404
 21
1290.489350707232
 31
0.0
  0
ARC
  5
BE8
  8
0
  6
CONTINUOUS
 10
922.1664497645488
 20
1347.236912059053
 30
0.0
 40
57.83271073593536
 50
236.2431218532513
 51
270.8322272097863
  0
LINE
  5
BE9
  8
0
  6
CONTINUOUS
 10
1015.080451549204
 20
1321.05221861838
 30
0.0
 11
928.6612700418862
 21
1326.064613630862
 31
0.0
  0
ARC
  5
BEA
  8
0
  6
CONTINUOUS
 10
1014.820325722922
 20
1319.443412397868
 30
0.0
 40
1.629700248713648
 50
13.78804454289217
 51
80.8154063536367
  0
LINE
  5
BEB
  8
0
 10
935.2674818732735
 20
1340.941230589527
 30
0.0
 11
927.3960663417945
 21
1328.897667387974
 31
0.0
  0
ARC
  5
BEC
  8
0
 10
929.1812056015797
 20
1327.995848213652
 30
0.0
 40
2.0
 50
152.9965699213255
 51
254.9318496758462
  0
LINE
  5
BED
  8
0
 10
997.2897562720404
 20
1290.489350707232
 30
0.0
 11
1020.46380831548
 21
1292.106851547946
 31
0.0
  0
ARC
  5
C64
  8
0
 10
1049.582689799839
 20
1323.879224781962
 30
0.0
 40
33.42557424566493
 50
186.9548441856049
 51
224.7575440486113
  0
LINE
  5
C67
  8
0
 10
1025.847434440056
 20
1300.344002950453
 30
0.0
 11
1020.46380831548
 21
1292.106851547946
 31
0.0
  0
LINE
  5
D0C
  8
0
  6
CONTINUOUS
 10
728.5801491353443
 20
1356.934816439393
 30
0.0
 11
690.6567104038522
 21
1300.676813921674
 31
0.0
  0
ARC
  5
D0D
  8
0
  6
CONTINUOUS
 10
735.2174642941686
 20
1352.460611819561
 30
0.0
 40
8.004527437499998
 50
355.0161468237509
 51
146.0161468237095
  0
LINE
  5
D0E
  8
0
  6
CONTINUOUS
 10
728.1133061951716
 20
1289.45096113283
 30
0.0
 11
815.5146517114988
 21
1289.475592164473
 31
0.0
  0
ARC
  5
D0F
  8
0
  6
CONTINUOUS
 10
728.0941319140995
 20
1357.489441649779
 30
0.0
 40
68.03848321874999
 50
236.6165945909024
 51
270.0161468237157
  0
LINE
  5
D10
  8
0
  6
CONTINUOUS
 10
836.676649114477
 20
1339.879644475166
 30
0.0
 11
742.8929662289274
 21
1346.654396307425
 31
0.0
  0
ARC
  5
D11
  8
0
  6
CONTINUOUS
 10
836.5288780397834
 20
1338.185113357518
 30
0.0
 40
1.700962080468768
 50
352.0425557788411
 51
85.01614682372502
  0
LINE
  5
D12
  8
0
 10
743.1917283761225
 20
1351.765218525722
 30
0.0
 11
741.6682415044615
 21
1349.505182750262
 31
0.0
  0
ARC
  5
D13
  8
0
 10
743.4403552530948
 20
1348.578029655082
 30
0.0
 40
2.0
 50
152.1804895352548
 51
254.1157692897914
  0
ARC
  5
D14
  8
0
 10
868.1264102946332
 20
1335.592570673104
 30
0.0
 40
30.0056701968013
 50
175.1243574232134
 51
175.4945450904041
  0
ARC
  5
D15
  8
0
 10
868.1264102946327
 20
1335.592570673104
 30
0.0
 40
30.00567019680132
 50
175.1243574232134
 51
227.1877921933817
  0
LINE
  5
D16
  8
0
 10
815.5146517114988
 20
1289.475592164473
 30
0.0
 11
832.1060095383591
 21
1290.396387610684
 31
0.0
  0
LINE
  5
D17
  8
0
 10
847.7346281813725
 20
1313.580858649626
 30
0.0
 11
832.1060095383591
 21
1290.396387610684
 31
0.0
  0
LINE
  5
D1A
  8
0
  6
CONTINUOUS
 10
845.3689646358608
 20
1359.764467402545
 30
0.0
 11
879.6901354526225
 21
1411.213948119516
 31
0.0
  0
ARC
  5
D1B
  8
0
  6
CONTINUOUS
 10
838.710080821264
 20
1364.206508131916
 30
0.0
 40
8.004527437499998
 50
175.2933465836346
 51
326.2933465836362
  0
LINE
  5
D1C
  8
0
  6
CONTINUOUS
 10
842.1796670200176
 20
1422.258453408467
 30
0.0
 11
754.7794635564725
 21
1421.810972366451
 31
0.0
  0
ARC
  5
D1D
  8
0
  6
CONTINUOUS
 10
842.5280132608867
 20
1354.220861934307
 30
0.0
 40
68.03848321874999
 50
56.89379435082618
 51
90.29334658362731
  0
LINE
  5
D1E
  8
0
  6
CONTINUOUS
 10
744.7034502844424
 20
1380.919068008106
 30
0.0
 11
834.2807301708615
 21
1374.883670532201
 31
0.0
  0
ARC
  5
D1F
  8
0
  6
CONTINUOUS
 10
744.8488124185001
 20
1382.620277614652
 30
0.0
 40
1.707408643359841
 50
187.7192002668036
 51
265.1161480963355
  0
LINE
  5
D20
  8
0
 10
830.7325457314303
 20
1364.86331356149
 30
0.0
 11
835.5192327512228
 21
1372.038842707564
 31
0.0
  0
ARC
  5
D21
  8
0
 10
833.7426541480887
 20
1372.957411413153
 30
0.0
 40
2.0
 50
332.4576892951719
 51
74.39296904969797
  0
LINE
  5
D22
  8
0
 10
754.7794635564725
 20
1421.810972366451
 30
0.0
 11
744.4522547850524
 21
1421.187696506392
 31
0.0
  0
LINE
  5
D23
  8
0
 10
733.4367589619635
 20
1404.674811705235
 30
0.0
 11
744.4522547850524
 21
1421.187696506392
 31
0.0
  0
ARC
  5
D26
  8
0
 10
713.1517088153438
 20
1382.564701246254
 30
0.0
 40
30.00567019680132
 50
359.6682040899403
 51
47.46499195329496
  0
LINE
  5
D27
  8
0
  6
CONTINUOUS
 10
1044.74140350758
 20
1308.531519610279
 30
0.0
 11
1072.111952358249
 21
1357.210947171299
 31
0.0
  0
ARC
  5
D28
  8
0
  6
CONTINUOUS
 10
1037.764141091738
 20
1312.454562903205
 30
0.0
 40
8.004527437499998
 50
179.6526451710251
 51
330.6526451710248
  0
LINE
  5
D29
  8
0
  6
CONTINUOUS
 10
1038.560070942963
 20
1364.736452238587
 30
0.0
 11
964.5137308382114
 21
1358.710343541859
 31
0.0
  0
ARC
  5
D2A
  8
0
  6
CONTINUOUS
 10
1043.25115752443
 20
1307.09431367875
 30
0.0
 40
57.83271073593536
 50
60.06353981447758
 51
94.65264517102217
  0
LINE
  5
D2B
  8
0
  6
CONTINUOUS
 10
948.798958059444
 20
1327.030008159941
 30
0.0
 11
1035.360071023552
 21
1327.786816306584
 31
0.0
  0
ARC
  5
D2C
  8
0
  6
CONTINUOUS
 10
948.9513119196517
 20
1328.652571318014
 30
0.0
 40
1.629700248713648
 50
197.6084625041301
 51
264.6358243148734
  0
LINE
  5
D2D
  8
0
 10
1029.759760751903
 20
1312.503089936446
 30
0.0
 11
1036.811228052048
 21
1325.044358053108
 31
0.0
  0
ARC
  5
D2E
  8
0
 10
1034.96996801434
 20
1325.825230304849
 30
0.0
 40
2.0
 50
336.8169878825594
 51
78.75226763708082
  0
LINE
  5
D2F
  8
0
 10
964.5137308382114
 20
1358.710343541859
 30
0.0
 11
941.4989496914914
 21
1355.552362248322
 31
0.0
  0
ARC
  5
D32
  8
0
 10
914.5617530449263
 20
1321.910418240194
 30
0.0
 40
33.42557424566493
 50
10.7752621468297
 51
48.57796200984576
  0
LINE
  5
D33
  8
0
 10
936.6761241880185
 20
1346.974807372946
 30
0.0
 11
941.4989496914914
 21
1355.552362248322
 31
0.0
  0
LINE
  5
D34
  8
0
 62
     1
 10
688.4711544141687
 20
1583.720268420574
 30
0.0
 11
688.4711544141687
 21
1283.720268420574
 31
0.0
  0
LINE
  5
D35
  8
0
 62
     1
 10
688.4711544141687
 20
1283.720268420574
 30
0.0
 11
1138.471154414169
 21
1283.720268420574
 31
0.0
  0
LINE
  5
D36
  8
0
 62
     1
 10
1138.471154414169
 20
1283.720268420574
 30
0.0
 11
1138.471154414169
 21
1583.720268420574
 31
0.0
  0
LINE
  5
D37
  8
0
 62
     1
 10
1138.471154414169
 20
1583.720268420574
 30
0.0
 11
688.4711544141687
 21
1583.720268420574
 31
0.0
  0
LINE
  5
D5C
  8
0
  6
CONTINUOUS
 10
1115.038448118439
 20
1553.918193522716
 30
0.0
 11
1052.659474562533
 21
1580.601778563269
 31
0.0
  0
ARC
  5
D5D
  8
0
  6
CONTINUOUS
 10
1111.890320642251
 20
1546.558726633643
 30
0.0
 40
8.004527437499997
 50
275.840422389838
 51
66.84042238983727
  0
LINE
  5
D5E
  8
0
  6
CONTINUOUS
 10
1048.667609074199
 20
1541.703432209804
 30
0.0
 11
1065.105554443211
 21
1455.861777072002
 31
0.0
  0
ARC
  5
D5F
  8
0
  6
CONTINUOUS
 10
1115.491932500034
 20
1554.499720632136
 30
0.0
 40
68.03848321874997
 50
157.4408701570462
 51
190.8404223898324
  0
LINE
  5
D60
  8
0
  6
CONTINUOUS
 10
1118.586976143442
 20
1444.542052855184
 30
0.0
 11
1107.628850578231
 21
1537.929396334175
 31
0.0
  0
ARC
  5
D61
  8
0
  6
CONTINUOUS
 10
1117.087599741795
 20
1444.389680546956
 30
0.0
 40
1.700962080468768
 50
272.8668313449577
 51
5.840422389811871
  0
LINE
  5
D62
  8
0
 10
1112.704846657347
 20
1538.595749373059
 30
0.0
 11
1110.198914957615
 21
1539.667700990789
 31
0.0
  0
ARC
  5
D63
  8
0
 10
1109.621056481534
 20
1537.753000078996
 30
0.0
 40
2.0
 50
73.0047651013695
 51
174.9400448558963
  0
ARC
  5
D64
  8
0
 10
1120.475121152801
 20
1412.867465826909
 30
0.0
 40
30.0056701968013
 50
95.94863298931304
 51
96.31882065652287
  0
ARC
  5
D65
  8
0
 10
1120.282364886391
 20
1412.846751356642
 30
0.0
 40
30.00567019680132
 50
95.94863298931304
 51
148.0120677594936
  0
LINE
  5
D66
  8
0
 10
1065.105554443211
 20
1455.861777072002
 30
0.0
 11
1069.125782102778
 21
1439.738539544819
 31
0.0
  0
LINE
  5
D67
  8
0
 10
1094.832764951846
 20
1428.741974133654
 30
0.0
 11
1069.125782102778
 21
1439.738539544819
 31
0.0
  0
ARC
  5
1059
  8
0
 10
706.512809888959
 20
1571.097769289134
 30
0.0
 40
2.56144878
 50
180.0000000000049
 51
90.00000000000487
  0
LINE
  5
105A
  8
0
 10
703.9513611089591
 20
1571.097769289134
 30
0.0
 11
699.8911473368883
 21
1575.157983061204
 31
0.0
  0
LINE
  5
105B
  8
0
 10
706.5128098889588
 20
1573.659218069134
 30
0.0
 11
702.4406790817133
 21
1577.731348876379
 31
0.0
  0
ARC
  5
1069
  8
0
 10
706.537014728121
 20
1355.487928794759
 30
0.0
 40
2.56144878
 50
270.0000000000049
 51
180.0
  0
LINE
  5
106A
  8
0
 10
706.5370147281212
 20
1352.926480014759
 30
0.0
 11
702.4594654074509
 21
1348.848930694088
 31
0.0
  0
LINE
  5
106B
  8
0
 10
703.975565948121
 20
1355.487928794759
 30
0.0
 11
699.8980166274504
 21
1351.410379474088
 31
0.0
  0
DIMENSION
  5
1070
  8
0
 62
     5
  2
*D20
 10
1138.471154414169
 20
1222.57828441506
 30
0.0
 11
913.4711544141687
 21
1228.309014292277
 31
0.0
 70
    32
  3
ISO-25
 13
688.4711544141687
 23
1283.720268420574
 33
0.0
 14
1138.471154414169
 24
1283.720268420574
 34
0.0
  0
DIMENSION
  5
1088
  8
0
 62
     5
  2
*D21
 10
625.9874706149313
 20
1283.720268420574
 30
0.0
 11
620.2533300965137
 21
1433.720268420575
 31
0.0
 70
    32
  3
ISO-25
 13
688.4711544141687
 23
1583.720268420574
 33
0.0
 14
688.4711544141687
 24
1283.720268420574
 34
0.0
 50
90.0
  0
LINE
  5
10DA
  8
0
 10
876.453032816225
 20
1466.297625015452
 30
0.0
 11
876.453032816225
 21
1460.294229437327
 31
0.0
  0
INSERT
  5
10DB
  8
0
 62
     5
  2
*X29
 10
0.0
 20
0.0
 30
0.0
  0
INSERT
  5
10DD
  8
0
 62
     5
  2
*X30
 10
0.0
 20
0.0
 30
0.0
  0
TEXT
  5
10DE
  8
0
  6
CONTINUOUS
 62
     1
 10
1299.634717850151
 20
1602.62801220312
 30
0.0
 40
40.0
  1
%%UWARNING
  0
LINE
  5
10F7
  8
0
  6
CONTINUOUS
 62
     2
 10
1486.102967698798
 20
1226.083899750239
 30
0.0
 11
1478.486772596995
 21
1202.532117096855
 31
0.0
  0
ARC
  5
10F8
  8
0
  6
CONTINUOUS
 62
     2
 10
1501.335357902404
 20
1221.158036713256
 30
0.0
 40
16.00905487500003
 50
17.92021313940848
 51
42.2623635311939
  0
LINE
  5
10F9
  8
0
  6
CONTINUOUS
 62
     2
 10
1524.183943207822
 20
1202.532117096855
 30
0.0
 11
1516.567748106019
 21
1226.083899750239
 31
0.0
  0
ARC
  5
10FA
  8
0
  6
CONTINUOUS
 62
     2
 10
1501.335357902404
 20
1195.14332254138
 30
0.0
 40
24.01358231250002
 50
162.0797868605915
 51
17.92021313940848
  0
LINE
  5
10FB
  8
0
  6
CONTINUOUS
 62
     2
 10
1498.333660113341
 20
1192.141624752318
 30
0.0
 11
1498.333660113341
 21
1183.136531385131
 31
0.0
  0
LINE
  5
10FC
  8
0
  6
CONTINUOUS
 62
     2
 10
1498.333660113341
 20
1183.136531385131
 30
0.0
 11
1504.337055691467
 21
1183.136531385131
 31
0.0
  0
LINE
  5
10FD
  8
0
  6
CONTINUOUS
 62
     2
 10
1504.337055691467
 20
1183.136531385131
 30
0.0
 11
1504.337055691467
 21
1192.141624752318
 31
0.0
  0
LINE
  5
10FE
  8
0
  6
CONTINUOUS
 62
     2
 10
1504.337055691467
 20
1192.141624752318
 30
0.0
 11
1513.342149058654
 21
1192.141624752318
 31
0.0
  0
LINE
  5
10FF
  8
0
  6
CONTINUOUS
 62
     2
 10
1513.342149058654
 20
1192.141624752318
 30
0.0
 11
1513.342149058654
 21
1198.145020330443
 31
0.0
  0
LINE
  5
1100
  8
0
  6
CONTINUOUS
 62
     2
 10
1513.342149058654
 20
1198.145020330443
 30
0.0
 11
1504.337055691467
 21
1198.145020330443
 31
0.0
  0
LINE
  5
1101
  8
0
  6
CONTINUOUS
 62
     2
 10
1504.337055691467
 20
1198.145020330443
 30
0.0
 11
1504.337055691467
 21
1207.150113697631
 31
0.0
  0
LINE
  5
1102
  8
0
  6
CONTINUOUS
 62
     2
 10
1504.337055691467
 20
1207.150113697631
 30
0.0
 11
1498.333660113341
 21
1207.150113697631
 31
0.0
  0
LINE
  5
1103
  8
0
  6
CONTINUOUS
 62
     2
 10
1498.333660113341
 20
1207.150113697631
 30
0.0
 11
1498.333660113341
 21
1198.145020330443
 31
0.0
  0
LINE
  5
1104
  8
0
  6
CONTINUOUS
 62
     2
 10
1498.333660113341
 20
1198.145020330443
 30
0.0
 11
1489.328566746154
 21
1198.145020330443
 31
0.0
  0
LINE
  5
1105
  8
0
  6
CONTINUOUS
 62
     2
 10
1489.328566746154
 20
1198.145020330443
 30
0.0
 11
1489.328566746154
 21
1192.141624752318
 31
0.0
  0
LINE
  5
1106
  8
0
  6
CONTINUOUS
 62
     2
 10
1489.328566746154
 20
1192.141624752318
 30
0.0
 11
1498.333660113341
 21
1192.141624752318
 31
0.0
  0
LINE
  5
1108
  8
0
 62
     2
 10
1501.383077024539
 20
1221.158321201699
 30
0.0
 11
1494.646039644913
 21
1231.92455066482
 31
0.0
  0
LINE
  5
1109
  8
0
 62
     2
 10
1501.383077024539
 20
1221.158321201699
 30
0.0
 11
1507.768031899303
 21
1231.92455066482
 31
0.0
  0
ARC
  5
110A
  8
0
  6
CONTINUOUS
 62
     2
 10
1501.335357902404
 20
1221.158036713256
 30
0.0
 40
16.00905487500003
 50
137.7376364688061
 51
162.0797868605915
  0
ARC
  5
1129
  8
0
  6
CONTINUOUS
 62
     2
 10
1567.91084849124
 20
1231.92455066482
 30
0.0
 40
2.001131859374989
 50
299.9999999999972
 51
240.0000000000028
  0
LINE
  5
112D
  8
0
  6
CONTINUOUS
 62
     2
 10
1548.000952247585
 20
1217.606279250021
 30
0.0
 11
1544.919593831468
 21
1213.181015135196
 31
0.0
  0
LINE
  5
112F
  8
0
  6
CONTINUOUS
 62
     2
 10
1590.902103151002
 20
1213.181015135196
 30
0.0
 11
1587.820744735299
 21
1217.606279249426
 31
0.0
  0
ARC
  5
1130
  8
0
  6
CONTINUOUS
 62
     2
 10
1567.91084849124
 20
1197.171960260196
 30
0.0
 40
28.01584603125001
 50
2.046713097694928
 51
34.84990457899163
  0
LINE
  5
1131
  8
0
  6
CONTINUOUS
 62
     2
 10
1587.922167084989
 20
1198.172526189883
 30
0.0
 11
1595.908821571769
 21
1198.172526189883
 31
0.0
  0
LINE
  5
1132
  8
0
  6
CONTINUOUS
 62
     2
 10
1587.922167084989
 20
1192.169130611758
 30
0.0
 11
1587.922167084989
 21
1198.172526189883
 31
0.0
  0
LINE
  5
1133
  8
0
  6
CONTINUOUS
 62
     2
 10
1595.476394455646
 20
1192.169130611758
 30
0.0
 11
1587.922167084989
 21
1192.169130611758
 31
0.0
  0
ARC
  5
1134
  8
0
  6
CONTINUOUS
 62
     2
 10
1567.91084849124
 20
1197.171960260196
 30
0.0
 40
28.01584603125001
 50
190.2865606115098
 51
349.7134393884901
  0
LINE
  5
1135
  8
0
  6
CONTINUOUS
 62
     2
 10
1547.89952989749
 20
1192.169130611758
 30
0.0
 11
1540.345302526815
 21
1192.169130611758
 31
0.0
  0
LINE
  5
1136
  8
0
  6
CONTINUOUS
 62
     2
 10
1547.89952989749
 20
1198.172526189883
 30
0.0
 11
1547.89952989749
 21
1192.169130611758
 31
0.0
  0
LINE
  5
1137
  8
0
  6
CONTINUOUS
 62
     2
 10
1539.912875410691
 20
1198.172526189883
 30
0.0
 11
1547.89952989749
 21
1198.172526189883
 31
0.0
  0
ARC
  5
1138
  8
0
  6
CONTINUOUS
 62
     2
 10
1567.91084849124
 20
1197.171960260196
 30
0.0
 40
28.01584603124998
 50
145.1500954210084
 51
177.9532869023051
  0
LINE
  5
1139
  8
0
  6
CONTINUOUS
 62
     2
 10
1570.912546280302
 20
1208.797485807359
 30
0.0
 11
1570.912546280302
 21
1213.181015135196
 31
0.0
  0
LINE
  5
113A
  8
0
  6
CONTINUOUS
 62
     2
 10
1570.912546280302
 20
1213.181015135196
 30
0.0
 11
1564.909150702176
 21
1213.181015135196
 31
0.0
  0
LINE
  5
113B
  8
0
  6
CONTINUOUS
 62
     2
 10
1564.909150702176
 20
1213.181015135196
 30
0.0
 11
1564.909150702176
 21
1208.797485807359
 31
0.0
  0
ARC
  5
113C
  8
0
  6
CONTINUOUS
 62
     2
 10
1567.91084849124
 20
1197.171960260196
 30
0.0
 40
12.00679115625
 50
104.4775121859042
 51
255.5224878140958
  0
LINE
  5
113D
  8
0
  6
CONTINUOUS
 62
     2
 10
1564.909150702176
 20
1185.546434713028
 30
0.0
 11
1564.909150702176
 21
1177.560868038321
 31
0.0
  0
LINE
  5
113E
  8
0
  6
CONTINUOUS
 62
     2
 10
1570.912546280302
 20
1177.560868038321
 30
0.0
 11
1570.912546280302
 21
1185.546434713028
 31
0.0
  0
ARC
  5
113F
  8
0
  6
CONTINUOUS
 62
     2
 10
1567.91084849124
 20
1197.171960260196
 30
0.0
 40
12.00679115625
 50
284.4775121859041
 51
75.52248781409581
  0
LINE
  5
1140
  8
0
 62
     2
 10
1565.343182777439
 20
1217.606279250021
 30
0.0
 11
1548.000952247585
 21
1217.606279250021
 31
0.0
  0
LINE
  5
1141
  8
0
 62
     2
 10
1570.47851420519
 20
1217.606279249426
 30
0.0
 11
1587.820744735299
 21
1217.606279249426
 31
0.0
  0
LINE
  5
1142
  8
0
 62
     2
 10
1564.909150702176
 20
1177.560868038321
 30
0.0
 11
1570.912546280302
 21
1177.560868038321
 31
0.0
  0
LINE
  5
1147
  8
0
 62
     2
 10
1494.646039644913
 20
1231.92455066482
 30
0.0
 11
1489.487488249106
 21
1231.92455066482
 31
0.0
  0
LINE
  5
1148
  8
0
 62
     2
 10
1507.768031899303
 20
1231.92455066482
 30
0.0
 11
1513.183227555702
 21
1231.92455066482
 31
0.0
  0
LINE
  5
114B
  8
0
 62
     2
 10
1566.910282561552
 20
1230.191519638279
 30
0.0
 11
1565.343182777279
 21
1217.606279249426
 31
0.0
  0
LINE
  5
114C
  8
0
 62
     2
 10
1568.911414420927
 20
1230.191519638279
 30
0.0
 11
1570.47851420519
 21
1217.606279249426
 31
0.0
  0
ARC
  5
117A
  8
0
  6
CONTINUOUS
 62
     6
 10
1267.76451443383
 20
1220.142351259872
 30
0.0
 40
2.00113185937488
 50
299.9999999999989
 51
239.9999999999922
  0
LINE
  5
117B
  8
0
  6
CONTINUOUS
 62
     6
 10
1268.765080363517
 20
1218.409320233331
 30
0.0
 11
1269.483690580777
 21
1213.740011168356
 31
0.0
  0
LINE
  5
117D
  8
0
  6
CONTINUOUS
 62
     6
 10
1266.201972122216
 20
1213.749200862113
 30
0.0
 11
1266.763948504142
 21
1218.409320233331
 31
0.0
  0
LINE
  5
1182
  8
0
  6
CONTINUOUS
 62
     6
 10
1287.77583302758
 20
1186.77752894119
 30
0.0
 11
1295.762487514359
 21
1186.77752894119
 31
0.0
  0
LINE
  5
1183
  8
0
  6
CONTINUOUS
 62
     6
 10
1287.77583302758
 20
1180.774133363065
 30
0.0
 11
1287.77583302758
 21
1186.77752894119
 31
0.0
  0
LINE
  5
1184
  8
0
  6
CONTINUOUS
 62
     6
 10
1295.330060398236
 20
1180.774133363065
 30
0.0
 11
1287.77583302758
 21
1180.774133363065
 31
0.0
  0
ARC
  5
1185
  8
0
  6
CONTINUOUS
 62
     6
 10
1267.76451443383
 20
1185.776963011503
 30
0.0
 40
28.01584603125001
 50
190.2865606115088
 51
349.7134393884896
  0
LINE
  5
1186
  8
0
  6
CONTINUOUS
 62
     6
 10
1247.75319584008
 20
1180.774133363065
 30
0.0
 11
1240.198968469405
 21
1180.774133363065
 31
0.0
  0
LINE
  5
1187
  8
0
  6
CONTINUOUS
 62
     6
 10
1247.75319584008
 20
1186.77752894119
 30
0.0
 11
1247.75319584008
 21
1180.774133363065
 31
0.0
  0
LINE
  5
1188
  8
0
  6
CONTINUOUS
 62
     6
 10
1239.766541353281
 20
1186.77752894119
 30
0.0
 11
1247.75319584008
 21
1186.77752894119
 31
0.0
  0
LINE
  5
118A
  8
0
  6
CONTINUOUS
 62
     6
 10
1270.766212222892
 20
1197.402488558665
 30
0.0
 11
1270.766212222892
 21
1201.786017886503
 31
0.0
  0
LINE
  5
118B
  8
0
  6
CONTINUOUS
 62
     6
 10
1270.766212222892
 20
1201.786017886503
 30
0.0
 11
1264.762816644767
 21
1201.786017886503
 31
0.0
  0
LINE
  5
118C
  8
0
  6
CONTINUOUS
 62
     6
 10
1264.762816644767
 20
1201.786017886503
 30
0.0
 11
1264.762816644767
 21
1197.402488558665
 31
0.0
  0
ARC
  5
118D
  8
0
  6
CONTINUOUS
 62
     6
 10
1267.76451443383
 20
1185.776963011503
 30
0.0
 40
12.00679115625
 50
104.477512185903
 51
255.522487814097
  0
LINE
  5
118E
  8
0
  6
CONTINUOUS
 62
     6
 10
1264.762816644767
 20
1174.151437464335
 30
0.0
 11
1264.762816644767
 21
1166.165870789628
 31
0.0
  0
LINE
  5
118F
  8
0
  6
CONTINUOUS
 62
     6
 10
1264.762816644767
 20
1166.165870789628
 30
0.0
 11
1270.766212222892
 21
1166.165870789628
 31
0.0
  0
LINE
  5
1190
  8
0
  6
CONTINUOUS
 62
     6
 10
1270.766212222892
 20
1166.165870789628
 30
0.0
 11
1270.766212222892
 21
1174.151437464335
 31
0.0
  0
ARC
  5
1191
  8
0
  6
CONTINUOUS
 62
     6
 10
1267.76451443383
 20
1185.776963011503
 30
0.0
 40
12.00679115625
 50
284.477512185903
 51
75.522487814097
  0
LINE
  5
1197
  8
0
  6
CONTINUOUS
 62
     6
 10
1332.507375429208
 20
1180.746627503655
 30
0.0
 11
1332.507375429208
 21
1171.741534136468
 31
0.0
  0
LINE
  5
1198
  8
0
  6
CONTINUOUS
 62
     6
 10
1338.510771007333
 20
1171.741534136468
 30
0.0
 11
1338.510771007333
 21
1180.746627503655
 31
0.0
  0
LINE
  5
1199
  8
0
  6
CONTINUOUS
 62
     6
 10
1338.510771007333
 20
1180.746627503655
 30
0.0
 11
1347.515864374521
 21
1180.746627503655
 31
0.0
  0
LINE
  5
119A
  8
0
  6
CONTINUOUS
 62
     6
 10
1347.515864374521
 20
1180.746627503655
 30
0.0
 11
1347.515864374521
 21
1186.75002308178
 31
0.0
  0
LINE
  5
119B
  8
0
  6
CONTINUOUS
 62
     6
 10
1347.515864374521
 20
1186.75002308178
 30
0.0
 11
1338.510771007333
 21
1186.75002308178
 31
0.0
  0
LINE
  5
119C
  8
0
  6
CONTINUOUS
 62
     6
 10
1338.510771007333
 20
1186.75002308178
 30
0.0
 11
1338.510771007333
 21
1195.755116448968
 31
0.0
  0
LINE
  5
119D
  8
0
  6
CONTINUOUS
 62
     6
 10
1332.507375429208
 20
1195.755116448968
 30
0.0
 11
1332.507375429208
 21
1186.75002308178
 31
0.0
  0
LINE
  5
119E
  8
0
  6
CONTINUOUS
 62
     6
 10
1332.507375429208
 20
1186.75002308178
 30
0.0
 11
1323.502282062021
 21
1186.75002308178
 31
0.0
  0
LINE
  5
119F
  8
0
  6
CONTINUOUS
 62
     6
 10
1323.502282062021
 20
1186.75002308178
 30
0.0
 11
1323.502282062021
 21
1180.746627503655
 31
0.0
  0
LINE
  5
11A0
  8
0
  6
CONTINUOUS
 62
     6
 10
1323.502282062021
 20
1180.746627503655
 30
0.0
 11
1332.507375429208
 21
1180.746627503655
 31
0.0
  0
LINE
  5
11A1
  8
0
 62
     6
 10
1332.507375429208
 20
1195.755116448968
 30
0.0
 11
1338.510771007333
 21
1195.755116448968
 31
0.0
  0
LINE
  5
11A2
  8
0
 62
     6
 10
1332.507375429208
 20
1171.741534136468
 30
0.0
 11
1338.510771007333
 21
1171.741534136468
 31
0.0
  0
ARC
  5
11AE
  8
0
 62
     6
 10
1335.509073218271
 20
1183.748325292718
 30
0.0
 40
24.01358231250003
 50
121.3404452532001
 51
58.65955474679991
  0
ARC
  5
11B6
  8
0
 62
     6
 10
1335.509073218271
 20
1220.142351259872
 30
0.0
 40
15.0
 50
326.3736240042267
 51
213.6263759957733
  0
ARC
  5
11CA
  8
0
 62
     6
 10
1335.509073218271
 20
1220.142351259872
 30
0.0
 40
12.5
 50
2.292442775955539
 51
87.70755722404623
  0
LINE
  5
11D9
  8
0
 62
     6
 10
1336.009073218271
 20
1219.642351259872
 30
0.0
 11
1336.009073218271
 21
1207.652355263075
 31
0.0
  0
LINE
  5
11DA
  8
0
 62
     6
 10
1335.009073218272
 20
1219.642351259872
 30
0.0
 11
1335.009073218272
 21
1207.652355263075
 31
0.0
  0
LINE
  5
11DB
  8
0
 62
     6
 10
1336.009073218272
 20
1220.642351259872
 30
0.0
 11
1347.999069215068
 21
1220.642351259872
 31
0.0
  0
LINE
  5
11DC
  8
0
 62
     6
 10
1336.009073218271
 20
1219.642351259872
 30
0.0
 11
1347.999069215068
 21
1219.642351259872
 31
0.0
  0
LINE
  5
11DD
  8
0
 62
     6
 10
1323.019077221474
 20
1219.642351259872
 30
0.0
 11
1335.009073218272
 21
1219.642351259872
 31
0.0
  0
LINE
  5
11DE
  8
0
 62
     6
 10
1323.019077221474
 20
1220.642351259872
 30
0.0
 11
1335.009073218271
 21
1220.642351259872
 31
0.0
  0
ARC
  5
11DF
  8
0
 62
     6
 10
1335.509073218271
 20
1220.142351259872
 30
0.0
 40
12.5
 50
182.2924427759572
 51
267.7075572240462
  0
ARC
  5
11E0
  8
0
 62
     6
 10
1335.509073218271
 20
1220.142351259872
 30
0.0
 40
12.5
 50
272.2924427759538
 51
357.7075572240428
  0
LINE
  5
11E3
  8
0
 62
     6
 10
1336.009073218271
 20
1232.632347256669
 30
0.0
 11
1336.009073218271
 21
1220.642351259872
 31
0.0
  0
LINE
  5
11E4
  8
0
 62
     6
 10
1335.009073218271
 20
1232.632347256669
 30
0.0
 11
1335.009073218271
 21
1220.642351259872
 31
0.0
  0
ARC
  5
11E5
  8
0
 62
     6
 10
1335.509073218271
 20
1220.142351259872
 30
0.0
 40
12.5
 50
92.29244277595376
 51
177.7075572240445
  0
LINE
  5
11E8
  8
0
 62
     6
 10
1323.019077221474
 20
1211.835727396955
 30
0.0
 11
1323.019077221474
 21
1204.258131129907
 31
0.0
  0
LINE
  5
11E9
  8
0
 62
     6
 10
1347.999069215068
 20
1211.835727396955
 30
0.0
 11
1347.999069215069
 21
1204.258131129907
 31
0.0
  0
ARC
  5
11F4
  8
0
 62
     6
 10
1267.76451443383
 20
1185.776963011503
 30
0.0
 40
28.01584603124991
 50
93.19724629608952
 51
177.9532869023279
  0
ARC
  5
11F6
  8
0
 62
     6
 10
1267.76451443383
 20
1185.776963011503
 30
0.0
 40
28.01584603124991
 50
2.046713097672104
 51
86.48186737699221
  0
TEXT
  5
126A
  8
0
  6
CONTINUOUS
 62
     3
 10
1491.269457162498
 20
1137.220949216653
 30
0.0
 40
10.0
  1
Optional Sights
  0
TEXT
  5
1272
  8
0
  6
CONTINUOUS
 62
     3
 10
1261.472393105564
 20
1135.595062085892
 30
0.0
 40
10.0
  1
Optional Sights
  0
CIRCLE
  5
1274
  8
0
 62
     1
 10
1075.789483509015
 20
1560.024704227763
 30
0.0
 40
2.0
  0
CIRCLE
  5
1275
  8
0
 62
     1
 10
1086.258494376487
 20
1468.038835107547
 30
0.0
 40
2.0
  0
CIRCLE
  5
1276
  8
0
 62
     1
 10
994.5247623873893
 20
1482.62795202898
 30
0.0
 40
2.0
  0
CIRCLE
  5
1277
  8
0
 62
     1
 10
1040.32753884128
 20
1402.172337088446
 30
0.0
 40
2.0
  0
CIRCLE
  5
1278
  8
0
 62
     1
 10
1108.275357967049
 20
1401.692422047499
 30
0.0
 40
2.0
  0
CIRCLE
  5
1279
  8
0
 62
     1
 10
1103.32305038528
 20
1309.245275223163
 30
0.0
 40
2.0
  0
CIRCLE
  5
127A
  8
0
 62
     1
 10
907.7491280808526
 20
1308.311729409363
 30
0.0
 40
2.0
  0
CIRCLE
  5
127B
  8
0
 62
     1
 10
1000.154638845891
 20
1302.635296850339
 30
0.0
 40
2.0
  0
CIRCLE
  5
127C
  8
0
 62
     1
 10
1055.042876435476
 20
1346.89361485309
 30
0.0
 40
2.0
  0
CIRCLE
  5
127D
  8
0
 62
     1
 10
962.4644926371805
 20
1346.400502654641
 30
0.0
 40
2.0
  0
CIRCLE
  5
127F
  8
0
 62
     1
 10
969.7703988289081
 20
1426.373894073372
 30
0.0
 40
2.5
  0
CIRCLE
  5
1280
  8
0
 62
     1
 10
945.701959478945
 20
1375.145647937655
 30
0.0
 40
2.5
  0
CIRCLE
  5
1281
  8
0
 62
     1
 10
858.5565662191111
 20
1397.232558632071
 30
0.0
 40
2.0
  0
CIRCLE
  5
1282
  8
0
 62
     1
 10
766.2085298835278
 20
1403.777823432408
 30
0.0
 40
2.0
  0
CIRCLE
  5
1283
  8
0
 62
     1
 10
807.526719526435
 20
1312.538994984279
 30
0.0
 40
2.0
  0
CIRCLE
  5
1284
  8
0
 62
     1
 10
715.2114301557365
 20
1319.530965718553
 30
0.0
 40
2.0
  0
CIRCLE
  5
1285
  8
0
 62
     1
 10
885.5044002139043
 20
1547.00619123593
 30
0.0
 40
2.5
  0
INSERT
  5
1286
  8
0
 62
     1
  2
*X31
 10
0.0
 20
0.0
 30
0.0
  0
LINE
  5
1288
  8
0
 62
     1
 10
930.2064122687862
 20
1660.422754546784
 30
0.0
 11
929.8090540746307
 21
1657.760276557959
 31
0.0
  0
LINE
  5
1289
  8
0
 62
     1
 10
930.2064122687863
 20
1660.422754546784
 30
0.0
 11
928.4039784710038
 21
1658.423275869715
 31
0.0
  0
LINE
  5
128B
  8
0
 62
     1
 10
928.4039784710038
 20
1658.423275869715
 30
0.0
 11
928.8563061435166
 21
1658.209840425537
 31
0.0
  0
LINE
  5
1294
  8
0
 62
     1
 10
929.3084936486368
 20
1657.996471120778
 30
0.0
 11
929.8090540746307
 21
1657.760276557959
 31
0.0
  0
LINE
  5
12A1
  8
0
 62
     1
 10
986.9160134756914
 20
1677.38058965186
 30
0.0
 11
989.5520589020537
 21
1676.834744357298
 31
0.0
  0
LINE
  5
12A2
  8
0
 62
     1
 10
986.9160134756914
 20
1677.38058965186
 30
0.0
 11
988.8114096007157
 21
1675.469004941551
 31
0.0
  0
LINE
  5
12A3
  8
0
 62
     1
 10
988.8114096007157
 20
1675.469004941551
 30
0.0
 11
989.049842446434
 21
1675.908669347928
 31
0.0
  0
LINE
  5
12A4
  8
0
 62
     1
 10
989.2882014065333
 20
1676.348197511008
 30
0.0
 11
989.5520589020537
 21
1676.834744357298
 31
0.0
  0
LINE
  5
12A5
  8
0
 62
     1
 10
996.7177086144056
 20
1671.982960456163
 30
0.0
 11
989.2882014065333
 21
1676.348197511008
 31
0.0
  0
LINE
  5
12A6
  8
0
 62
     1
 10
996.7177086144056
 20
1671.982960456163
 30
0.0
 11
989.0498424464342
 21
1675.908669347928
 31
0.0
  0
LINE
  5
12B5
  8
0
 62
     1
 10
916.2590738576221
 20
1716.3801310494
 30
0.0
 11
914.2849353711338
 21
1718.210283996999
 31
0.0
  0
LINE
  5
12B6
  8
0
 62
     1
 10
916.2590738576218
 20
1716.3801310494
 30
0.0
 11
915.6250402320952
 21
1718.996365736339
 31
0.0
  0
LINE
  5
12B7
  8
0
 62
     1
 10
915.6250402320952
 20
1718.996365736339
 30
0.0
 11
915.1936282062106
 21
1718.743307094766
 31
0.0
  0
LINE
  5
12B8
  8
0
 62
     1
 10
914.7623498663734
 20
1718.490326871058
 30
0.0
 11
914.2849353711338
 21
1718.210283996999
 31
0.0
  0
LINE
  5
12B9
  8
0
 62
     1
 10
907.0674829336258
 20
1732.901043536739
 30
0.0
 11
914.7623498663736
 21
1718.490326871058
 31
0.0
  0
LINE
  5
12BA
  8
0
 62
     1
 10
907.0674829336258
 20
1732.901043536739
 30
0.0
 11
915.1936282062106
 21
1718.743307094766
 31
0.0
  0
LINE
  5
12BC
  8
0
 62
     1
 10
928.8563061435166
 20
1658.209840425537
 30
0.0
 11
924.4254656233043
 21
1648.059476172271
 31
0.0
  0
LINE
  5
12BD
  8
0
 62
     1
 10
924.4254656233043
 20
1648.059476172271
 30
0.0
 11
929.3084936486368
 21
1657.996471120778
 31
0.0
  0
INSERT
  5
12C4
  8
0
 62
     5
  2
*U32
 10
0.0
 20
0.0
 30
0.0
1001
ACAD
1002
{
1000
R14_HATCH_DATA
1000
12C4
1011
1.0
1021
0.0
1031
0.0
1021
0.0
1031
0.0
1011
0.0
1021
1.0
1031
0.0
1021
1.0
1031
0.0
1011
0.0
1021
0.0
1031
1.0
1021
0.0
1031
1.0
1040
0.0
1010
0.0
1020
0.0
1030
1.0
1020
0.0
1030
1.0
1000
SOLID
1070
     1
1070
     1
1071
        1
1071
        7
1070
     0
1070
     1
1071
        6
1040
988.8114096007156
1040
1675.469004941551
1040
989.049842446434
1040
1675.908669347928
1040
996.7177086144078
1040
1671.982960456163
1040
989.2882014065334
1040
1676.348197511008
1040
989.5520589020535
1040
1676.834744357297
1040
986.9160134756918
1040
1677.380589651859
1071
        6
1005
12A1
1005
12A2
1005
12A3
1005
12A6
1005
12A5
1005
12A4
1070
     0
1070
     1
1040
0.0182394053891624
1071
        1
1040
988.4766547013569
1040
1676.52645800658
1040
0.0
1002
}
  0
INSERT
  5
12D1
  8
0
 62
     5
  2
*U33
 10
0.0
 20
0.0
 30
0.0
1001
ACAD
1002
{
1000
R14_HATCH_DATA
1000
12D1
1011
1.0
1021
0.0
1031
0.0
1021
0.0
1031
0.0
1011
0.0
1021
1.0
1031
0.0
1021
1.0
1031
0.0
1011
0.0
1021
0.0
1031
1.0
1021
0.0
1031
1.0
1040
0.0
1010
0.0
1020
0.0
1030
1.0
1020
0.0
1030
1.0
1000
SOLID
1070
     1
1070
     1
1071
        2
1071
        7
1070
     0
1070
     1
1071
        6
1040
930.2064122687862
1040
1660.422754546784
1040
928.4039784710039
1040
1658.423275869715
1040
928.8563061435167
1040
1658.209840425537
1040
924.4254656233047
1040
1648.059476172272
1040
929.308493648637
1040
1657.996471120778
1040
929.8090540746305
1040
1657.760276557959
1071
        6
1005
1289
1005
128B
1005
12BC
1005
12BD
1005
1294
1005
1288
1071
        7
1070
     0
1070
     1
1071
        6
1040
915.6250402320953
1040
1718.996365736339
1040
915.1936282062109
1040
1718.743307094767
1040
907.0674829336256
1040
1732.901043536736
1040
914.7623498663737
1040
1718.490326871059
1040
914.2849353711335
1040
1718.210283996999
1040
916.2590738576218
1040
1716.3801310494
1071
        6
1005
12B7
1005
12BA
1005
12B9
1005
12B8
1005
12B5
1005
12B6
1070
     0
1070
     1
1040
0.0253004540096615
1071
        2
1040
929.4468874140675
1040
1658.721457762513
1040
0.0
1040
915.3537875999191
1040
1718.101522517853
1040
0.0
1002
}
  0
TEXT
  5
12D2
  8
0
  6
CONTINUOUS
 62
     6
 10
884.3970902543278
 20
1737.906709286312
 30
0.0
 40
5.0
  1
Apply Wax
  0
TEXT
  5
12DA
  8
0
  6
CONTINUOUS
 62
     6
 10
993.5851425369237
 20
1665.542179959405
 30
0.0
 40
5.0
  1
Apply Wax
  0
TEXT
  5
12E2
  8
0
  6
CONTINUOUS
 62
     6
 10
922.6508911152814
 20
1641.973633378029
 30
0.0
 40
5.0
  1
Apply Wax
  0
ENDSEC
  0
EOF
