  0
SECTION
  2
HEADER
  9
$ACADVER
  1
AC1021
  9
$ACADMAINTVER
 70
    25
  9
$DWGCODEPAGE
  3
ANSI_1251
  9
$INSBASE
 10
0.0
 20
0.0
 30
0.0
  9
$EXTMIN
 10
1.000000000000000E+20
 20
1.000000000000000E+20
 30
1.000000000000000E+20
  9
$EXTMAX
 10
-1.000000000000000E+20
 20
-1.000000000000000E+20
 30
-1.000000000000000E+20
  9
$LIMMIN
 10
0.0
 20
0.0
  9
$LIMMAX
 10
420.0
 20
297.0
  9
$ORTHOMODE
 70
     0
  9
$REGENMODE
 70
     1
  9
$FILLMODE
 70
     1
  9
$QTEXTMODE
 70
     0
  9
$MIRRTEXT
 70
     1
  9
$LTSCALE
 40
1.0
  9
$ATTMODE
 70
     1
  9
$TEXTSIZE
 40
2.5
  9
$TRACEWID
 40
1.0
  9
$TEXTSTYLE
  7
Standard
  9
$CLAYER
  8
0
  9
$CELTYPE
  6
ByLayer
  9
$CECOLOR
 62
   256
  9
$CELTSCALE
 40
1.0
  9
$DISPSILH
 70
     0
  9
$DIMSCALE
 40
1.0
  9
$DIMASZ
 40
2.5
  9
$DIMEXO
 40
0.625
  9
$DIMDLI
 40
3.75
  9
$DIMRND
 40
0.0
  9
$DIMDLE
 40
0.0
  9
$DIMEXE
 40
1.25
  9
$DIMTP
 40
0.0
  9
$DIMTM
 40
0.0
  9
$DIMTXT
 40
2.5
  9
$DIMCEN
 40
2.5
  9
$DIMTSZ
 40
0.0
  9
$DIMTOL
 70
     0
  9
$DIMLIM
 70
     0
  9
$DIMTIH
 70
     0
  9
$DIMTOH
 70
     0
  9
$DIMSE1
 70
     0
  9
$DIMSE2
 70
     0
  9
$DIMTAD
 70
     1
  9
$DIMZIN
 70
     8
  9
$DIMBLK
  1

  9
$DIMASO
 70
     1
  9
$DIMSHO
 70
     1
  9
$DIMPOST
  1

  9
$DIMAPOST
  1

  9
$DIMALT
 70
     0
  9
$DIMALTD
 70
     3
  9
$DIMALTF
 40
0.03937007874016
  9
$DIMLFAC
 40
1.0
  9
$DIMTOFL
 70
     1
  9
$DIMTVP
 40
0.0
  9
$DIMTIX
 70
     0
  9
$DIMSOXD
 70
     0
  9
$DIMSAH
 70
     0
  9
$DIMBLK1
  1

  9
$DIMBLK2
  1

  9
$DIMSTYLE
  2
ISO-25
  9
$DIMCLRD
 70
     0
  9
$DIMCLRE
 70
     0
  9
$DIMCLRT
 70
     0
  9
$DIMTFAC
 40
1.0
  9
$DIMGAP
 40
0.625
  9
$DIMJUST
 70
     0
  9
$DIMSD1
 70
     0
  9
$DIMSD2
 70
     0
  9
$DIMTOLJ
 70
     0
  9
$DIMTZIN
 70
     8
  9
$DIMALTZ
 70
     0
  9
$DIMALTTZ
 70
     0
  9
$DIMUPT
 70
     0
  9
$DIMDEC
 70
     2
  9
$DIMTDEC
 70
     2
  9
$DIMALTU
 70
     2
  9
$DIMALTTD
 70
     3
  9
$DIMTXSTY
  7
Standard
  9
$DIMAUNIT
 70
     0
  9
$DIMADEC
 70
     0
  9
$DIMALTRND
 40
0.0
  9
$DIMAZIN
 70
     0
  9
$DIMDSEP
 70
    44
  9
$DIMATFIT
 70
     3
  9
$DIMFRAC
 70
     0
  9
$DIMLDRBLK
  1

  9
$DIMLUNIT
 70
     6
  9
$DIMLWD
 70
    -2
  9
$DIMLWE
 70
    -2
  9
$DIMTMOVE
 70
     0
  9
$DIMFXL
 40
1.0
  9
$DIMFXLON
 70
     0
  9
$DIMJOGANG
 40
0.7853981633974483
  9
$DIMTFILL
 70
     0
  9
$DIMTFILLCLR
 70
     0
  9
$DIMARCSYM
 70
     0
  9
$DIMLTYPE
  6

  9
$DIMLTEX1
  6

  9
$DIMLTEX2
  6

  9
$LUNITS
 70
     2
  9
$LUPREC
 70
     4
  9
$SKETCHINC
 40
1.0
  9
$FILLETRAD
 40
10.0
  9
$AUNITS
 70
     0
  9
$AUPREC
 70
     0
  9
$MENU
  1
.
  9
$ELEVATION
 40
0.0
  9
$PELEVATION
 40
0.0
  9
$THICKNESS
 40
0.0
  9
$LIMCHECK
 70
     0
  9
$CHAMFERA
 40
10.0
  9
$CHAMFERB
 40
10.0
  9
$CHAMFERC
 40
20.0
  9
$CHAMFERD
 40
0.0
  9
$SKPOLY
 70
     0
  9
$TDCREATE
 40
2457639.600115173
  9
$TDUCREATE
 40
2457639.433448507
  9
$TDUPDATE
 40
2457639.60011625
  9
$TDUUPDATE
 40
2457639.433449583
  9
$TDINDWG
 40
0.0000000116
  9
$TDUSRTIMER
 40
0.0000000116
  9
$USRTIMER
 70
     1
  9
$ANGBASE
 50
0.0
  9
$ANGDIR
 70
     0
  9
$PDMODE
 70
     0
  9
$PDSIZE
 40
0.0
  9
$PLINEWID
 40
0.0
  9
$SPLFRAME
 70
     0
  9
$SPLINETYPE
 70
     6
  9
$SPLINESEGS
 70
     8
  9
$HANDSEED
  5
24F
  9
$SURFTAB1
 70
     6
  9
$SURFTAB2
 70
     6
  9
$SURFTYPE
 70
     6
  9
$SURFU
 70
     6
  9
$SURFV
 70
     6
  9
$UCSBASE
  2

  9
$UCSNAME
  2

  9
$UCSORG
 10
0.0
 20
0.0
 30
0.0
  9
$UCSXDIR
 10
1.0
 20
0.0
 30
0.0
  9
$UCSYDIR
 10
0.0
 20
1.0
 30
0.0
  9
$UCSORTHOREF
  2

  9
$UCSORTHOVIEW
 70
     0
  9
$UCSORGTOP
 10
0.0
 20
0.0
 30
0.0
  9
$UCSORGBOTTOM
 10
0.0
 20
0.0
 30
0.0
  9
$UCSORGLEFT
 10
0.0
 20
0.0
 30
0.0
  9
$UCSORGRIGHT
 10
0.0
 20
0.0
 30
0.0
  9
$UCSORGFRONT
 10
0.0
 20
0.0
 30
0.0
  9
$UCSORGBACK
 10
0.0
 20
0.0
 30
0.0
  9
$PUCSBASE
  2

  9
$PUCSNAME
  2

  9
$PUCSORG
 10
0.0
 20
0.0
 30
0.0
  9
$PUCSXDIR
 10
1.0
 20
0.0
 30
0.0
  9
$PUCSYDIR
 10
0.0
 20
1.0
 30
0.0
  9
$PUCSORTHOREF
  2

  9
$PUCSORTHOVIEW
 70
     0
  9
$PUCSORGTOP
 10
0.0
 20
0.0
 30
0.0
  9
$PUCSORGBOTTOM
 10
0.0
 20
0.0
 30
0.0
  9
$PUCSORGLEFT
 10
0.0
 20
0.0
 30
0.0
  9
$PUCSORGRIGHT
 10
0.0
 20
0.0
 30
0.0
  9
$PUCSORGFRONT
 10
0.0
 20
0.0
 30
0.0
  9
$PUCSORGBACK
 10
0.0
 20
0.0
 30
0.0
  9
$USERI1
 70
     0
  9
$USERI2
 70
     0
  9
$USERI3
 70
     0
  9
$USERI4
 70
     0
  9
$USERI5
 70
     0
  9
$USERR1
 40
0.0
  9
$USERR2
 40
0.0
  9
$USERR3
 40
0.0
  9
$USERR4
 40
0.0
  9
$USERR5
 40
0.0
  9
$WORLDVIEW
 70
     1
  9
$SHADEDGE
 70
     3
  9
$SHADEDIF
 70
    70
  9
$TILEMODE
 70
     1
  9
$MAXACTVP
 70
    64
  9
$PINSBASE
 10
0.0
 20
0.0
 30
0.0
  9
$PLIMCHECK
 70
     0
  9
$PEXTMIN
 10
1.000000000000000E+20
 20
1.000000000000000E+20
 30
1.000000000000000E+20
  9
$PEXTMAX
 10
-1.000000000000000E+20
 20
-1.000000000000000E+20
 30
-1.000000000000000E+20
  9
$PLIMMIN
 10
0.0
 20
0.0
  9
$PLIMMAX
 10
420.0
 20
297.0
  9
$UNITMODE
 70
     0
  9
$VISRETAIN
 70
     1
  9
$PLINEGEN
 70
     0
  9
$PSLTSCALE
 70
     1
  9
$TREEDEPTH
 70
  3020
  9
$CMLSTYLE
  2
Standard
  9
$CMLJUST
 70
     0
  9
$CMLSCALE
 40
20.0
  9
$PROXYGRAPHICS
 70
     1
  9
$MEASUREMENT
 70
     1
  9
$CELWEIGHT
370
    -1
  9
$ENDCAPS
280
     0
  9
$JOINSTYLE
280
     0
  9
$LWDISPLAY
290
     0
  9
$INSUNITS
 70
     4
  9
$HYPERLINKBASE
  1

  9
$STYLESHEET
  1

  9
$XEDIT
290
     1
  9
$CEPSNTYPE
380
     0
  9
$PSTYLEMODE
290
     1
  9
$FINGERPRINTGUID
  2
{E01D5C8F-F2C6-4BA5-88A5-18FA5E7C33AF}
  9
$VERSIONGUID
  2
{FAEB1C32-E019-11D5-929B-00C0DF256EC4}
  9
$EXTNAMES
290
     1
  9
$PSVPSCALE
 40
0.0
  9
$OLESTARTUP
290
     0
  9
$SORTENTS
280
   127
  9
$INDEXCTL
280
     0
  9
$HIDETEXT
280
     1
  9
$XCLIPFRAME
290
     0
  9
$HALOGAP
280
     0
  9
$OBSCOLOR
 70
   257
  9
$OBSLTYPE
280
     0
  9
$INTERSECTIONDISPLAY
280
     0
  9
$INTERSECTIONCOLOR
 70
   257
  9
$DIMASSOC
280
     2
  9
$PROJECTNAME
  1

  9
$CAMERADISPLAY
290
     0
  9
$LENSLENGTH
 40
50.0
  9
$CAMERAHEIGHT
 40
0.0
  9
$STEPSPERSEC
 40
2.0
  9
$STEPSIZE
 40
6.0
  9
$3DDWFPREC
 40
2.0
  9
$PSOLWIDTH
 40
5.0
  9
$PSOLHEIGHT
 40
80.0
  9
$LOFTANG1
 40
1.570796326794897
  9
$LOFTANG2
 40
1.570796326794897
  9
$LOFTMAG1
 40
0.0
  9
$LOFTMAG2
 40
0.0
  9
$LOFTPARAM
 70
     7
  9
$LOFTNORMALS
280
     1
  9
$LATITUDE
 40
37.795
  9
$LONGITUDE
 40
-122.394
  9
$NORTHDIRECTION
 40
0.0
  9
$TIMEZONE
 70
 -8000
  9
$LIGHTGLYPHDISPLAY
280
     1
  9
$TILEMODELIGHTSYNCH
280
     1
  9
$SOLIDHIST
280
     1
  9
$SHOWHIST
280
     1
  9
$DWFFRAME
280
     2
  9
$DGNFRAME
280
     2
  9
$REALWORLDSCALE
290
     1
  9
$INTERFERECOLOR
 62
   256
  9
$CSHADOW
280
     0
  9
$SHADOWPLANELOCATION
 40
0.0
  0
ENDSEC
  0
SECTION
  2
CLASSES
  0
CLASS
  1
ACDBDICTIONARYWDFLT
  2
AcDbDictionaryWithDefault
  3
ObjectDBX Classes
 90
        0
 91
        4
280
     0
281
     0
  0
CLASS
  1
VISUALSTYLE
  2
AcDbVisualStyle
  3
ObjectDBX Classes
 90
     4095
 91
        4
280
     0
281
     0
  0
CLASS
  1
MATERIAL
  2
AcDbMaterial
  3
ObjectDBX Classes
 90
     1153
 91
        4
280
     0
281
     0
  0
CLASS
  1
WIPEOUTVARIABLES
  2
AcDbWipeoutVariables
  3
WipeOut|AutoCAD Express Tool|expresstools@autodesk.com
 90
        0
 91
        4
280
     0
281
     0
  0
CLASS
  1
WIPEOUT
  2
AcDbWipeout
  3
WipeOut|AutoCAD Express Tool|expresstools@autodesk.com
 90
      127
 91
        4
280
     0
281
     1
  0
CLASS
  1
SCALE
  2
AcDbScale
  3
ObjectDBX Classes
 90
     1153
 91
        4
280
     0
281
     0
  0
CLASS
  1
DICTIONARYVAR
  2
AcDbDictionaryVar
  3
ObjectDBX Classes
 90
        0
 91
        4
280
     0
281
     0
  0
ENDSEC
  0
SECTION
  2
TABLES
  0
TABLE
  2
VPORT
  5
8
330
0
100
AcDbSymbolTable
 70
     1
  0
VPORT
  5
29
330
8
100
AcDbSymbolTableRecord
100
AcDbViewportTableRecord
  2
*Active
 70
     0
 10
0.0
 20
0.0
 11
1.0
 21
1.0
 12
170.5817718619705
 22
137.1768784618908
 13
0.0
 23
0.0
 14
10.0
 24
10.0
 15
10.0
 25
10.0
 16
0.0
 26
0.0
 36
1.0
 17
0.0
 27
0.0
 37
0.0
 40
217.4654168873381
 41
1.614374963166564
 42
50.0
 43
0.0
 44
0.0
 50
0.0
 51
0.0
 71
     0
 72
   100
 73
     1
 74
     3
 75
     0
 76
     0
 77
     0
 78
     0
281
     0
 65
     1
110
0.0
120
0.0
130
0.0
111
1.0
121
0.0
131
0.0
112
0.0
122
1.0
132
0.0
 79
     0
146
0.0
 60
     3
 61
     5
292
     1
282
     1
141
0.0
142
0.0
 63
   250
  0
ENDTAB
  0
TABLE
  2
LTYPE
  5
5
330
0
100
AcDbSymbolTable
 70
     3
  0
LTYPE
  5
14
330
5
100
AcDbSymbolTableRecord
100
AcDbLinetypeTableRecord
  2
ByBlock
 70
     0
  3

 72
    65
 73
     0
 40
0.0
  0
LTYPE
  5
15
330
5
100
AcDbSymbolTableRecord
100
AcDbLinetypeTableRecord
  2
ByLayer
 70
     0
  3

 72
    65
 73
     0
 40
0.0
  0
LTYPE
  5
16
330
5
100
AcDbSymbolTableRecord
100
AcDbLinetypeTableRecord
  2
Continuous
 70
     0
  3
Solid line
 72
    65
 73
     0
 40
0.0
  0
LTYPE
  5
42
330
5
100
AcDbSymbolTableRecord
100
AcDbLinetypeTableRecord
  2
K5LT_THIN
 70
     0
  3

 72
    65
 73
     0
 40
0.0
  0
LTYPE
  5
A4
330
5
100
AcDbSymbolTableRecord
100
AcDbLinetypeTableRecord
  2
K5LT32769
 70
     0
  3

 72
    65
 73
     0
 40
0.0
  0
ENDTAB
  0
TABLE
  2
LAYER
  5
2
330
0
100
AcDbSymbolTable
 70
     2
  0
LAYER
  5
10
330
2
100
AcDbSymbolTableRecord
100
AcDbLayerTableRecord
  2
0
 70
     0
 62
     7
  6
Continuous
370
    -3
390
F
347
3E
  0
LAYER
  5
40
330
2
100
AcDbSymbolTableRecord
100
AcDbLayerTableRecord
  2
Системный слой
 70
     0
 62
     7
  6
Continuous
370
    -3
390
F
347
3E
  0
ENDTAB
  0
TABLE
  2
STYLE
  5
3
330
0
100
AcDbSymbolTable
 70
     3
  0
STYLE
  5
11
330
3
100
AcDbSymbolTableRecord
100
AcDbTextStyleTableRecord
  2
Standard
 70
     0
 40
0.0
 41
1.0
 50
0.0
 71
     0
 42
2.5
  3
txt
  4

  0
STYLE
  5
1B9
330
3
100
AcDbSymbolTableRecord
100
AcDbTextStyleTableRecord
  2
KDIMTEXTSTYLE
 70
     0
 40
5.0
 41
0.96
 50
15.0
 71
     0
 42
0.2
  3
GOST_AU.SHX
  4

  0
STYLE
  5
1CB
330
3
100
AcDbSymbolTableRecord
100
AcDbTextStyleTableRecord
  2
KTEXTSTYLE
 70
     0
 40
5.0
 41
0.96
 50
0.0
 71
     0
 42
0.2
  3
GOST_AU.SHX
  4

  0
ENDTAB
  0
TABLE
  2
VIEW
  5
6
330
0
100
AcDbSymbolTable
 70
     0
  0
ENDTAB
  0
TABLE
  2
UCS
  5
7
330
0
100
AcDbSymbolTable
 70
     0
  0
ENDTAB
  0
TABLE
  2
APPID
  5
9
330
0
100
AcDbSymbolTable
 70
     2
  0
APPID
  5
12
330
9
100
AcDbSymbolTableRecord
100
AcDbRegAppTableRecord
  2
ACAD
 70
     0
  0
APPID
  5
3F
330
9
100
AcDbSymbolTableRecord
100
AcDbRegAppTableRecord
  2
KOMPAS
 70
     0
  0
ENDTAB
  0
TABLE
  2
DIMSTYLE
  5
A
330
0
100
AcDbSymbolTable
 70
     2
100
AcDbDimStyleTable
  0
DIMSTYLE
105
27
330
A
100
AcDbSymbolTableRecord
100
AcDbDimStyleTableRecord
  2
ISO-25
 70
     0
 41
2.5
 42
0.625
 43
3.75
 44
1.25
 73
     0
 74
     0
 77
     1
 78
     8
140
2.5
141
2.5
143
0.03937007874016
147
0.625
171
     3
172
     1
178
     0
271
     2
272
     2
274
     3
278
    44
283
     0
284
     8
340
11
  0
DIMSTYLE
105
1BA
102
{ACAD_REACTORS
330
1CF
330
1E2
330
1F5
330
208
102
}
330
A
100
AcDbSymbolTableRecord
100
AcDbDimStyleTableRecord
  2
KDIMSTYLE (1.00)
 70
     0
 41
1.0
 42
0.0
 43
2.0
 44
2.0
 46
1.0
 73
     0
 74
     0
 77
     1
 78
     8
140
5.0
141
0.0
143
0.0394
145
1.0
146
0.667
147
1.0
172
     1
173
     1
178
     0
271
     2
272
     2
273
     8
274
     4
278
    44
340
1B9
  0
ENDTAB
  0
TABLE
  2
BLOCK_RECORD
  5
1
330
0
100
AcDbSymbolTable
 70
    19
  0
BLOCK_RECORD
  5
1F
330
1
100
AcDbSymbolTableRecord
100
AcDbBlockTableRecord
  2
*Model_Space
340
22
 70
     0
280
     1
281
     0
  0
BLOCK_RECORD
  5
1B
330
1
100
AcDbSymbolTableRecord
100
AcDbBlockTableRecord
  2
*Paper_Space
340
1E
 70
     0
280
     1
281
     0
  0
BLOCK_RECORD
  5
23
330
1
100
AcDbSymbolTableRecord
100
AcDbBlockTableRecord
  2
*Paper_Space0
340
26
 70
     0
280
     1
281
     0
  0
BLOCK_RECORD
  5
41
330
1
100
AcDbSymbolTableRecord
100
AcDbBlockTableRecord
  2
KDIMARROW_00
340
0
 70
     0
280
     1
281
     0
  0
BLOCK_RECORD
  5
46
330
1
100
AcDbSymbolTableRecord
100
AcDbBlockTableRecord
  2
KDIMARROW_01
340
0
 70
     0
280
     1
281
     0
  0
BLOCK_RECORD
  5
4F
330
1
100
AcDbSymbolTableRecord
100
AcDbBlockTableRecord
  2
KDIMARROW_02
340
0
 70
     0
280
     1
281
     0
  0
BLOCK_RECORD
  5
59
330
1
100
AcDbSymbolTableRecord
100
AcDbBlockTableRecord
  2
KDIMARROW_03
340
0
 70
     0
280
     1
281
     0
  0
BLOCK_RECORD
  5
5F
330
1
100
AcDbSymbolTableRecord
100
AcDbBlockTableRecord
  2
KDIMARROW_04
340
0
 70
     0
280
     1
281
     0
  0
BLOCK_RECORD
  5
65
330
1
100
AcDbSymbolTableRecord
100
AcDbBlockTableRecord
  2
KDIMARROW_05
340
0
 70
     0
280
     1
281
     0
  0
BLOCK_RECORD
  5
6E
330
1
100
AcDbSymbolTableRecord
100
AcDbBlockTableRecord
  2
KDIMARROW_06
340
0
 70
     0
280
     1
281
     0
  0
BLOCK_RECORD
  5
78
330
1
100
AcDbSymbolTableRecord
100
AcDbBlockTableRecord
  2
KDIMARROW_07
340
0
 70
     0
280
     1
281
     0
  0
BLOCK_RECORD
  5
7E
330
1
100
AcDbSymbolTableRecord
100
AcDbBlockTableRecord
  2
KDIMARROW_08
340
0
 70
     0
280
     1
281
     0
  0
BLOCK_RECORD
  5
85
330
1
100
AcDbSymbolTableRecord
100
AcDbBlockTableRecord
  2
KDIMARROW_09
340
0
 70
     0
280
     1
281
     0
  0
BLOCK_RECORD
  5
8B
330
1
100
AcDbSymbolTableRecord
100
AcDbBlockTableRecord
  2
KDIMARROW_10
340
0
 70
     0
280
     1
281
     0
  0
BLOCK_RECORD
  5
92
330
1
100
AcDbSymbolTableRecord
100
AcDbBlockTableRecord
  2
KDIMARROW_11
340
0
 70
     0
280
     1
281
     0
  0
BLOCK_RECORD
  5
98
330
1
100
AcDbSymbolTableRecord
100
AcDbBlockTableRecord
  2
KDIMARROW_12
340
0
 70
     0
280
     1
281
     0
  0
BLOCK_RECORD
  5
9E
330
1
100
AcDbSymbolTableRecord
100
AcDbBlockTableRecord
  2
KDIMARROW_13
340
0
 70
     0
280
     1
281
     0
  0
BLOCK_RECORD
  5
1BB
330
1
100
AcDbSymbolTableRecord
100
AcDbBlockTableRecord
  2
D0
340
0
 70
     0
280
     1
281
     0
  0
BLOCK_RECORD
  5
1D0
330
1
100
AcDbSymbolTableRecord
100
AcDbBlockTableRecord
  2
D1
340
0
 70
     0
280
     1
281
     0
  0
BLOCK_RECORD
  5
1E3
330
1
100
AcDbSymbolTableRecord
100
AcDbBlockTableRecord
  2
D2
340
0
 70
     0
280
     1
281
     0
  0
BLOCK_RECORD
  5
1F6
330
1
100
AcDbSymbolTableRecord
100
AcDbBlockTableRecord
  2
D3
340
0
 70
     0
280
     1
281
     0
  0
ENDTAB
  0
ENDSEC
  0
SECTION
  2
BLOCKS
  0
BLOCK
  5
20
330
1F
100
AcDbEntity
  8
0
100
AcDbBlockBegin
  2
*Model_Space
 70
     0
 10
0.0
 20
0.0
 30
0.0
  3
*Model_Space
  1

  0
ENDBLK
  5
21
330
1F
100
AcDbEntity
  8
0
100
AcDbBlockEnd
  0
BLOCK
  5
1C
330
1B
100
AcDbEntity
 67
     1
  8
0
100
AcDbBlockBegin
  2
*Paper_Space
 70
     0
 10
0.0
 20
0.0
 30
0.0
  3
*Paper_Space
  1

  0
ENDBLK
  5
1D
330
1B
100
AcDbEntity
 67
     1
  8
0
100
AcDbBlockEnd
  0
BLOCK
  5
24
330
23
100
AcDbEntity
  8
0
100
AcDbBlockBegin
  2
*Paper_Space0
 70
     0
 10
0.0
 20
0.0
 30
0.0
  3
*Paper_Space0
  1

  0
ENDBLK
  5
25
330
23
100
AcDbEntity
  8
0
100
AcDbBlockEnd
  0
BLOCK
  5
44
330
41
100
AcDbEntity
  8
0
100
AcDbBlockBegin
  2
KDIMARROW_00
 70
     0
 10
0.0
 20
0.0
 30
0.0
  3
KDIMARROW_00
  1

  0
LINE
  5
43
330
41
100
AcDbEntity
  8
0
  6
K5LT_THIN
 62
     0
100
AcDbLine
 10
0.0
 20
0.0
 30
0.0
 11
-1.0
 21
0.0
 31
0.0
  0
ENDBLK
  5
45
330
41
100
AcDbEntity
  8
0
100
AcDbBlockEnd
  0
BLOCK
  5
4D
330
46
100
AcDbEntity
  8
0
100
AcDbBlockBegin
  2
KDIMARROW_01
 70
     0
 10
0.0
 20
0.0
 30
0.0
  3
KDIMARROW_01
  1

  0
LINE
  5
47
330
46
100
AcDbEntity
  8
0
  6
K5LT_THIN
 62
     0
100
AcDbLine
 10
0.0
 20
0.0
 30
0.0
 11
-5.0
 21
-0.6582624912261956
 31
0.0
  0
LINE
  5
48
330
46
100
AcDbEntity
  8
0
  6
K5LT_THIN
 62
     0
100
AcDbLine
 10
-5.0
 20
-0.6582624912261956
 30
0.0
 11
-4.5
 21
0.0000000000000006
 31
0.0
  0
LINE
  5
49
330
46
100
AcDbEntity
  8
0
  6
K5LT_THIN
 62
     0
100
AcDbLine
 10
-4.5
 20
0.0000000000000006
 30
0.0
 11
-5.0
 21
0.658262491226197
 31
0.0
  0
LINE
  5
4A
330
46
100
AcDbEntity
  8
0
  6
K5LT_THIN
 62
     0
100
AcDbLine
 10
-5.0
 20
0.658262491226197
 30
0.0
 11
0.0
 21
0.0
 31
0.0
  0
HATCH
  5
4B
330
46
100
AcDbEntity
  8
0
 62
     0
100
AcDbHatch
 10
0.0
 20
0.0
 30
0.0
210
0.0
220
0.0
230
1.0
  2
SOLID
 70
     1
 71
     0
 91
        1
 92
        1
 93
        4
 72
     1
 10
0.0
 20
0.0
 11
-5.0
 21
0.658262491226197
 72
     1
 10
-5.0
 20
0.658262491226197
 11
-4.5
 21
0.0000000000000006
 72
     1
 10
-4.5
 20
0.0000000000000006
 11
-5.0
 21
-0.6582624912261956
 72
     1
 10
-5.0
 20
-0.6582624912261956
 11
0.0
 21
0.0
 97
        0
 75
     0
 76
     1
 98
        0
  0
LINE
  5
4C
330
46
100
AcDbEntity
  8
0
  6
K5LT_THIN
 62
     0
100
AcDbLine
 10
0.0
 20
0.0
 30
0.0
 11
-1.0
 21
0.0
 31
0.0
  0
ENDBLK
  5
4E
330
46
100
AcDbEntity
  8
0
100
AcDbBlockEnd
  0
BLOCK
  5
57
330
4F
100
AcDbEntity
  8
0
100
AcDbBlockBegin
  2
KDIMARROW_02
 70
     0
 10
0.0
 20
0.0
 30
0.0
  3
KDIMARROW_02
  1

  0
LINE
  5
50
330
4F
100
AcDbEntity
  8
0
  6
K5LT_THIN
 62
     0
100
AcDbLine
 10
0.0
 20
0.0
 30
0.0
 11
5.0
 21
-0.658262491226197
 31
0.0
  0
LINE
  5
51
330
4F
100
AcDbEntity
  8
0
  6
K5LT_THIN
 62
     0
100
AcDbLine
 10
5.0
 20
-0.658262491226197
 30
0.0
 11
4.5
 21
-0.0000000000000006
 31
0.0
  0
LINE
  5
52
330
4F
100
AcDbEntity
  8
0
  6
K5LT_THIN
 62
     0
100
AcDbLine
 10
4.5
 20
-0.0000000000000006
 30
0.0
 11
5.0
 21
0.6582624912261956
 31
0.0
  0
LINE
  5
53
330
4F
100
AcDbEntity
  8
0
  6
K5LT_THIN
 62
     0
100
AcDbLine
 10
5.0
 20
0.6582624912261956
 30
0.0
 11
0.0
 21
0.0
 31
0.0
  0
LINE
  5
54
330
4F
100
AcDbEntity
  8
0
  6
K5LT_THIN
 62
     0
100
AcDbLine
 10
0.0
 20
0.0
 30
0.0
 11
7.0
 21
-0.0000000000000009
 31
0.0
  0
HATCH
  5
55
330
4F
100
AcDbEntity
  8
0
 62
     0
100
AcDbHatch
 10
0.0
 20
0.0
 30
0.0
210
0.0
220
0.0
230
1.0
  2
SOLID
 70
     1
 71
     0
 91
        1
 92
        1
 93
        4
 72
     1
 10
4.5
 20
-0.0000000000000006
 11
5.0
 21
0.6582624912261956
 72
     1
 10
5.0
 20
0.6582624912261956
 11
0.0
 21
0.0
 72
     1
 10
0.0
 20
0.0
 11
5.0
 21
-0.658262491226197
 72
     1
 10
5.0
 20
-0.658262491226197
 11
4.5
 21
-0.0000000000000006
 97
        0
 75
     0
 76
     1
 98
        0
  0
LINE
  5
56
330
4F
100
AcDbEntity
  8
0
  6
K5LT_THIN
 62
     0
100
AcDbLine
 10
0.0
 20
0.0
 30
0.0
 11
-1.0
 21
0.0
 31
0.0
  0
ENDBLK
  5
58
330
4F
100
AcDbEntity
  8
0
100
AcDbBlockEnd
  0
BLOCK
  5
5D
330
59
100
AcDbEntity
  8
0
100
AcDbBlockBegin
  2
KDIMARROW_03
 70
     0
 10
0.0
 20
0.0
 30
0.0
  3
KDIMARROW_03
  1

  0
LINE
  5
5A
330
59
100
AcDbEntity
  8
0
  6
K5LT_THIN
 62
     0
100
AcDbLine
 10
-1.060500025749207
 20
-1.060500025749206
 30
0.0
 11
1.060500025749207
 21
1.060500025749206
 31
0.0
  0
LINE
  5
5B
330
59
100
AcDbEntity
  8
0
  6
K5LT_THIN
 62
     0
100
AcDbLine
 10
0.0
 20
0.0
 30
0.0
 11
2.0
 21
-0.0000000000000002
 31
0.0
  0
LINE
  5
5C
330
59
100
AcDbEntity
  8
0
  6
K5LT_THIN
 62
     0
100
AcDbLine
 10
0.0
 20
0.0
 30
0.0
 11
-1.0
 21
0.0
 31
0.0
  0
ENDBLK
  5
5E
330
59
100
AcDbEntity
  8
0
100
AcDbBlockEnd
  0
BLOCK
  5
63
330
5F
100
AcDbEntity
  8
0
100
AcDbBlockBegin
  2
KDIMARROW_04
 70
     0
 10
0.0
 20
0.0
 30
0.0
  3
KDIMARROW_04
  1

  0
LWPOLYLINE
  5
60
330
5F
100
AcDbEntity
  8
0
  6
K5LT_THIN
 62
     7
100
AcDbPolyline
 90
       15
 70
     0
 43
0.0
 10
-0.25
 20
0.0
 10
0.0
 20
-0.25
 10
0.25
 20
0.0
 10
0.0
 20
0.25
 10
-0.25
 20
0.0
 10
-0.5
 20
0.0000000000000001
 10
-0.0000000000000001
 20
-0.5
 10
0.5
 20
-0.0000000000000001
 10
0.0000000000000001
 20
0.5
 10
-0.5
 20
0.0000000000000001
 10
-0.75
 20
0.0000000000000001
 10
-0.0000000000000001
 20
-0.75
 10
0.75
 20
-0.0000000000000001
 10
0.0000000000000001
 20
0.75
 10
-0.75
 20
0.0000000000000001
  0
LWPOLYLINE
  5
61
330
5F
100
AcDbEntity
  8
0
  6
K5LT_THIN
 62
     7
100
AcDbPolyline
 90
       15
 70
     0
 43
0.0
 10
-0.25
 20
0.0
 10
0.0
 20
-0.25
 10
0.25
 20
0.0
 10
0.0
 20
0.25
 10
-0.25
 20
0.0
 10
-0.5
 20
0.0000000000000001
 10
-0.0000000000000001
 20
-0.5
 10
0.5
 20
-0.0000000000000001
 10
0.0000000000000001
 20
0.5
 10
-0.5
 20
0.0000000000000001
 10
-0.75
 20
0.0000000000000001
 10
-0.0000000000000001
 20
-0.75
 10
0.75
 20
-0.0000000000000001
 10
0.0000000000000001
 20
0.75
 10
-0.75
 20
0.0000000000000001
  0
LINE
  5
62
330
5F
100
AcDbEntity
  8
0
  6
K5LT_THIN
 62
     0
100
AcDbLine
 10
0.0
 20
0.0
 30
0.0
 11
-1.0
 21
0.0
 31
0.0
  0
ENDBLK
  5
64
330
5F
100
AcDbEntity
  8
0
100
AcDbBlockEnd
  0
BLOCK
  5
6C
330
65
100
AcDbEntity
  8
0
100
AcDbBlockBegin
  2
KDIMARROW_05
 70
     0
 10
0.0
 20
0.0
 30
0.0
  3
KDIMARROW_05
  1

  0
LINE
  5
66
330
65
100
AcDbEntity
  8
0
  6
K5LT_THIN
 62
     0
100
AcDbLine
 10
0.0
 20
0.0
 30
0.0
 11
-5.0
 21
-0.6582624912261956
 31
0.0
  0
LINE
  5
67
330
65
100
AcDbEntity
  8
0
  6
K5LT_THIN
 62
     0
100
AcDbLine
 10
-5.0
 20
-0.6582624912261956
 30
0.0
 11
-5.0
 21
0.0000000000000006
 31
0.0
  0
LINE
  5
68
330
65
100
AcDbEntity
  8
0
  6
K5LT_THIN
 62
     0
100
AcDbLine
 10
-5.0
 20
0.0000000000000006
 30
0.0
 11
-5.0
 21
0.658262491226197
 31
0.0
  0
LINE
  5
69
330
65
100
AcDbEntity
  8
0
  6
K5LT_THIN
 62
     0
100
AcDbLine
 10
-5.0
 20
0.658262491226197
 30
0.0
 11
0.0
 21
0.0
 31
0.0
  0
HATCH
  5
6A
330
65
100
AcDbEntity
  8
0
 62
     0
100
AcDbHatch
 10
0.0
 20
0.0
 30
0.0
210
0.0
220
0.0
230
1.0
  2
SOLID
 70
     1
 71
     0
 91
        1
 92
        1
 93
        4
 72
     1
 10
0.0
 20
0.0
 11
-5.0
 21
0.658262491226197
 72
     1
 10
-5.0
 20
0.658262491226197
 11
-5.0
 21
0.0000000000000007
 72
     1
 10
-5.0
 20
0.0000000000000006
 11
-5.0
 21
-0.6582624912261956
 72
     1
 10
-5.0
 20
-0.6582624912261956
 11
0.0
 21
0.0
 97
        0
 75
     0
 76
     1
 98
        0
  0
LINE
  5
6B
330
65
100
AcDbEntity
  8
0
  6
K5LT_THIN
 62
     0
100
AcDbLine
 10
0.0
 20
0.0
 30
0.0
 11
-1.0
 21
0.0
 31
0.0
  0
ENDBLK
  5
6D
330
65
100
AcDbEntity
  8
0
100
AcDbBlockEnd
  0
BLOCK
  5
76
330
6E
100
AcDbEntity
  8
0
100
AcDbBlockBegin
  2
KDIMARROW_06
 70
     0
 10
0.0
 20
0.0
 30
0.0
  3
KDIMARROW_06
  1

  0
LINE
  5
6F
330
6E
100
AcDbEntity
  8
0
  6
K5LT_THIN
 62
     0
100
AcDbLine
 10
0.0
 20
0.0
 30
0.0
 11
5.0
 21
-0.658262491226197
 31
0.0
  0
LINE
  5
70
330
6E
100
AcDbEntity
  8
0
  6
K5LT_THIN
 62
     0
100
AcDbLine
 10
5.0
 20
-0.658262491226197
 30
0.0
 11
5.0
 21
-0.0000000000000006
 31
0.0
  0
LINE
  5
71
330
6E
100
AcDbEntity
  8
0
  6
K5LT_THIN
 62
     0
100
AcDbLine
 10
5.0
 20
-0.0000000000000006
 30
0.0
 11
5.0
 21
0.6582624912261956
 31
0.0
  0
LINE
  5
72
330
6E
100
AcDbEntity
  8
0
  6
K5LT_THIN
 62
     0
100
AcDbLine
 10
5.0
 20
0.6582624912261956
 30
0.0
 11
0.0
 21
0.0
 31
0.0
  0
LINE
  5
73
330
6E
100
AcDbEntity
  8
0
  6
K5LT_THIN
 62
     0
100
AcDbLine
 10
0.0
 20
0.0
 30
0.0
 11
7.0
 21
-0.0000000000000009
 31
0.0
  0
HATCH
  5
74
330
6E
100
AcDbEntity
  8
0
 62
     0
100
AcDbHatch
 10
0.0
 20
0.0
 30
0.0
210
0.0
220
0.0
230
1.0
  2
SOLID
 70
     1
 71
     0
 91
        1
 92
        1
 93
        4
 72
     1
 10
5.0
 20
-0.0000000000000006
 11
5.0
 21
0.6582624912261956
 72
     1
 10
5.0
 20
0.6582624912261956
 11
0.0
 21
0.0
 72
     1
 10
0.0
 20
0.0
 11
5.0
 21
-0.658262491226197
 72
     1
 10
5.0
 20
-0.658262491226197
 11
5.0
 21
-0.0000000000000007
 97
        0
 75
     0
 76
     1
 98
        0
  0
LINE
  5
75
330
6E
100
AcDbEntity
  8
0
  6
K5LT_THIN
 62
     0
100
AcDbLine
 10
0.0
 20
0.0
 30
0.0
 11
-1.0
 21
0.0
 31
0.0
  0
ENDBLK
  5
77
330
6E
100
AcDbEntity
  8
0
100
AcDbBlockEnd
  0
BLOCK
  5
7C
330
78
100
AcDbEntity
  8
0
100
AcDbBlockBegin
  2
KDIMARROW_07
 70
     0
 10
0.0
 20
0.0
 30
0.0
  3
KDIMARROW_07
  1

  0
LINE
  5
79
330
78
100
AcDbEntity
  8
0
  6
K5LT_THIN
 62
     0
100
AcDbLine
 10
0.0
 20
0.0
 30
0.0
 11
-5.0
 21
-0.6582624912261956
 31
0.0
  0
LINE
  5
7A
330
78
100
AcDbEntity
  8
0
  6
K5LT_THIN
 62
     0
100
AcDbLine
 10
0.0
 20
0.0
 30
0.0
 11
-5.0
 21
0.658262491226197
 31
0.0
  0
LINE
  5
7B
330
78
100
AcDbEntity
  8
0
  6
K5LT_THIN
 62
     0
100
AcDbLine
 10
0.0
 20
0.0
 30
0.0
 11
-1.0
 21
0.0
 31
0.0
  0
ENDBLK
  5
7D
330
78
100
AcDbEntity
  8
0
100
AcDbBlockEnd
  0
BLOCK
  5
83
330
7E
100
AcDbEntity
  8
0
100
AcDbBlockBegin
  2
KDIMARROW_08
 70
     0
 10
0.0
 20
0.0
 30
0.0
  3
KDIMARROW_08
  1

  0
LINE
  5
7F
330
7E
100
AcDbEntity
  8
0
  6
K5LT_THIN
 62
     0
100
AcDbLine
 10
0.0
 20
0.0
 30
0.0
 11
5.0
 21
-0.658262491226197
 31
0.0
  0
LINE
  5
80
330
7E
100
AcDbEntity
  8
0
  6
K5LT_THIN
 62
     0
100
AcDbLine
 10
0.0
 20
0.0
 30
0.0
 11
5.0
 21
0.6582624912261956
 31
0.0
  0
LINE
  5
81
330
7E
100
AcDbEntity
  8
0
  6
K5LT_THIN
 62
     0
100
AcDbLine
 10
0.0
 20
0.0
 30
0.0
 11
7.0
 21
-0.0000000000000009
 31
0.0
  0
LINE
  5
82
330
7E
100
AcDbEntity
  8
0
  6
K5LT_THIN
 62
     0
100
AcDbLine
 10
0.0
 20
0.0
 30
0.0
 11
-1.0
 21
0.0
 31
0.0
  0
ENDBLK
  5
84
330
7E
100
AcDbEntity
  8
0
100
AcDbBlockEnd
  0
BLOCK
  5
89
330
85
100
AcDbEntity
  8
0
100
AcDbBlockBegin
  2
KDIMARROW_09
 70
     0
 10
0.0
 20
0.0
 30
0.0
  3
KDIMARROW_09
  1

  0
LINE
  5
86
330
85
100
AcDbEntity
  8
0
  6
K5LT_THIN
 62
     0
100
AcDbLine
 10
0.0
 20
0.0
 30
0.0
 11
-2.0
 21
-2.0
 31
0.0
  0
LINE
  5
87
330
85
100
AcDbEntity
  8
0
  6
K5LT_THIN
 62
     0
100
AcDbLine
 10
0.0
 20
0.0
 30
0.0
 11
-2.0
 21
2.0
 31
0.0
  0
LINE
  5
88
330
85
100
AcDbEntity
  8
0
  6
K5LT_THIN
 62
     0
100
AcDbLine
 10
0.0
 20
0.0
 30
0.0
 11
-1.0
 21
0.0
 31
0.0
  0
ENDBLK
  5
8A
330
85
100
AcDbEntity
  8
0
100
AcDbBlockEnd
  0
BLOCK
  5
90
330
8B
100
AcDbEntity
  8
0
100
AcDbBlockBegin
  2
KDIMARROW_10
 70
     0
 10
0.0
 20
0.0
 30
0.0
  3
KDIMARROW_10
  1

  0
LINE
  5
8C
330
8B
100
AcDbEntity
  8
0
  6
K5LT_THIN
 62
     0
100
AcDbLine
 10
0.0
 20
0.0
 30
0.0
 11
2.0
 21
-2.0
 31
0.0
  0
LINE
  5
8D
330
8B
100
AcDbEntity
  8
0
  6
K5LT_THIN
 62
     0
100
AcDbLine
 10
0.0
 20
0.0
 30
0.0
 11
2.0
 21
2.0
 31
0.0
  0
LINE
  5
8E
330
8B
100
AcDbEntity
  8
0
  6
K5LT_THIN
 62
     0
100
AcDbLine
 10
0.0
 20
0.0
 30
0.0
 11
4.0
 21
-0.0000000000000005
 31
0.0
  0
LINE
  5
8F
330
8B
100
AcDbEntity
  8
0
  6
K5LT_THIN
 62
     0
100
AcDbLine
 10
0.0
 20
0.0
 30
0.0
 11
-1.0
 21
0.0
 31
0.0
  0
ENDBLK
  5
91
330
8B
100
AcDbEntity
  8
0
100
AcDbBlockEnd
  0
BLOCK
  5
96
330
92
100
AcDbEntity
  8
0
100
AcDbBlockBegin
  2
KDIMARROW_11
 70
     0
 10
0.0
 20
0.0
 30
0.0
  3
KDIMARROW_11
  1

  0
CIRCLE
  5
93
330
92
100
AcDbEntity
  8
0
  6
K5LT_THIN
 62
     0
100
AcDbCircle
 10
0.0
 20
0.0
 30
0.0
 40
2.5
  0
CIRCLE
  5
94
330
92
100
AcDbEntity
  8
0
  6
K5LT_THIN
 62
     0
100
AcDbCircle
 10
0.0
 20
0.0
 30
0.0
 40
2.5
  0
LINE
  5
95
330
92
100
AcDbEntity
  8
0
  6
K5LT_THIN
 62
     0
100
AcDbLine
 10
0.0
 20
0.0
 30
0.0
 11
-1.0
 21
0.0
 31
0.0
  0
ENDBLK
  5
97
330
92
100
AcDbEntity
  8
0
100
AcDbBlockEnd
  0
BLOCK
  5
9C
330
98
100
AcDbEntity
  8
0
100
AcDbBlockBegin
  2
KDIMARROW_12
 70
     0
 10
0.0
 20
0.0
 30
0.0
  3
KDIMARROW_12
  1

  0
CIRCLE
  5
99
330
98
100
AcDbEntity
  8
0
  6
K5LT_THIN
 62
     0
100
AcDbCircle
 10
0.0
 20
0.0
 30
0.0
 40
1.5
  0
CIRCLE
  5
9A
330
98
100
AcDbEntity
  8
0
  6
K5LT_THIN
 62
     0
100
AcDbCircle
 10
0.0
 20
0.0
 30
0.0
 40
1.5
  0
LINE
  5
9B
330
98
100
AcDbEntity
  8
0
  6
K5LT_THIN
 62
     0
100
AcDbLine
 10
0.0
 20
0.0
 30
0.0
 11
-1.0
 21
0.0
 31
0.0
  0
ENDBLK
  5
9D
330
98
100
AcDbEntity
  8
0
100
AcDbBlockEnd
  0
BLOCK
  5
A2
330
9E
100
AcDbEntity
  8
0
100
AcDbBlockBegin
  2
KDIMARROW_13
 70
     0
 10
0.0
 20
0.0
 30
0.0
  3
KDIMARROW_13
  1

  0
LINE
  5
9F
330
9E
100
AcDbEntity
  8
0
  6
K5LT_THIN
 62
     0
100
AcDbLine
 10
-1.060500025749206
 20
1.060500025749207
 30
0.0
 11
1.060500025749206
 21
-1.060500025749207
 31
0.0
  0
LINE
  5
A0
330
9E
100
AcDbEntity
  8
0
  6
K5LT_THIN
 62
     0
100
AcDbLine
 10
0.0
 20
0.0
 30
0.0
 11
2.0
 21
-0.0000000000000002
 31
0.0
  0
LINE
  5
A1
330
9E
100
AcDbEntity
  8
0
  6
K5LT_THIN
 62
     0
100
AcDbLine
 10
0.0
 20
0.0
 30
0.0
 11
-1.0
 21
0.0
 31
0.0
  0
ENDBLK
  5
A3
330
9E
100
AcDbEntity
  8
0
100
AcDbBlockEnd
  0
BLOCK
  5
1CD
330
1BB
100
AcDbEntity
  8
0
100
AcDbBlockBegin
  2
D0
 70
     0
 10
0.0
 20
0.0
 30
0.0
  3
D0
  1

  0
WIPEOUT
  5
1BD
330
1BB
100
AcDbEntity
  8
0
 92
      152
310
98000000040000000C0000000E000000120000000C00000016000000000000C20C00000014000000010000006C00000007000000040000002ECF4E8DC61753401020153E75C26C4000000000000000002ECF4E8DC6175340FB71CDE0E1786E400000000000000000FA9B1BDA16145B40FB71CDE0E1786E4000000000000000
310
00FA9B1BDA16145B401020153E75C26C400000000000000000
100
AcDbWipeout
 90
        0
 10
76.37149365135403
 20
230.0768118298151
 30
0.0
 11
31.94240112304688
 21
0.0
 31
0.0
 12
0.0
 22
31.94240112304688
 32
0.0
 13
1.0
 23
1.0
340
0
 70
     7
280
     1
281
    50
282
    50
283
     0
360
0
 71
     2
 91
        5
 14
-0.5
 24
0.5
 14
-0.5
 24
0.0710791705384013
 14
0.5
 24
0.0710791705384013
 14
0.5
 24
0.5
 14
-0.5
 24
0.5
  0
LINE
  5
1BE
330
1BB
100
AcDbEntity
  8
0
  6
K5LT_THIN
 62
     7
100
AcDbLine
 10
28.50443057815792
 20
228.6368116009333
 30
0.0
 11
33.50443057815792
 21
229.2950740921595
 31
0.0
  0
LINE
  5
1BF
330
1BB
100
AcDbEntity
  8
0
  6
K5LT_THIN
 62
     7
100
AcDbLine
 10
33.50443057815792
 20
229.2950740921595
 30
0.0
 11
33.00443057815792
 21
228.6368116009333
 31
0.0
  0
LINE
  5
1C0
330
1BB
100
AcDbEntity
  8
0
  6
K5LT_THIN
 62
     7
100
AcDbLine
 10
33.00443057815792
 20
228.6368116009333
 30
0.0
 11
33.50443057815792
 21
227.9785491097071
 31
0.0
  0
LINE
  5
1C1
330
1BB
100
AcDbEntity
  8
0
  6
K5LT_THIN
 62
     7
100
AcDbLine
 10
33.50443057815792
 20
227.9785491097071
 30
0.0
 11
28.50443057815792
 21
228.6368116009333
 31
0.0
  0
HATCH
  5
1C2
330
1BB
100
AcDbEntity
  8
0
 62
     7
100
AcDbHatch
 10
0.0
 20
0.0
 30
0.0
210
0.0
220
0.0
230
1.0
  2
SOLID
 70
     1
 71
     0
 91
        1
 92
        1
 93
        4
 72
     1
 10
33.50443057815792
 20
227.9785491097071
 11
33.00443057815792
 21
228.6368116009333
 72
     1
 10
33.00443057815792
 20
228.6368116009333
 11
33.50443057815792
 21
229.2950740921595
 72
     1
 10
33.50443057815792
 20
229.2950740921595
 11
28.50443057815792
 21
228.6368116009333
 72
     1
 10
28.50443057815792
 20
228.6368116009333
 11
33.50443057815792
 21
227.9785491097071
 97
        0
 75
     0
 76
     1
 98
        0
  0
LINE
  5
1C3
330
1BB
100
AcDbEntity
  8
0
  6
K5LT_THIN
 62
     7
100
AcDbLine
 10
157.511891227724
 20
228.6368116009333
 30
0.0
 11
152.511891227724
 21
227.9785491097071
 31
0.0
  0
LINE
  5
1C4
330
1BB
100
AcDbEntity
  8
0
  6
K5LT_THIN
 62
     7
100
AcDbLine
 10
152.511891227724
 20
227.9785491097071
 30
0.0
 11
153.011891227724
 21
228.6368116009333
 31
0.0
  0
LINE
  5
1C5
330
1BB
100
AcDbEntity
  8
0
  6
K5LT_THIN
 62
     7
100
AcDbLine
 10
153.011891227724
 20
228.6368116009333
 30
0.0
 11
152.511891227724
 21
229.2950740921595
 31
0.0
  0
LINE
  5
1C6
330
1BB
100
AcDbEntity
  8
0
  6
K5LT_THIN
 62
     7
100
AcDbLine
 10
152.511891227724
 20
229.2950740921595
 30
0.0
 11
157.511891227724
 21
228.6368116009333
 31
0.0
  0
HATCH
  5
1C7
330
1BB
100
AcDbEntity
  8
0
 62
     7
100
AcDbHatch
 10
0.0
 20
0.0
 30
0.0
210
0.0
220
0.0
230
1.0
  2
SOLID
 70
     1
 71
     0
 91
        1
 92
        1
 93
        4
 72
     1
 10
157.511891227724
 20
228.6368116009333
 11
152.511891227724
 21
229.2950740921595
 72
     1
 10
152.511891227724
 20
229.2950740921595
 11
153.011891227724
 21
228.6368116009333
 72
     1
 10
153.011891227724
 20
228.6368116009333
 11
152.511891227724
 21
227.9785491097071
 72
     1
 10
152.511891227724
 20
227.9785491097071
 11
157.511891227724
 21
228.6368116009333
 97
        0
 75
     0
 76
     1
 98
        0
  0
LINE
  5
1C8
330
1BB
100
AcDbEntity
  8
0
  6
K5LT_THIN
 62
     7
100
AcDbLine
 10
28.50443057815792
 20
228.6368116009333
 30
0.0
 11
157.511891227724
 21
228.6368116009333
 31
0.0
  0
LINE
  5
1C9
330
1BB
100
AcDbEntity
  8
0
  6
K5LT_THIN
 62
     7
100
AcDbLine
 10
28.50443057815792
 20
219.5269592406171
 30
0.0
 11
28.50443057815792
 21
230.6368116009333
 31
0.0
  0
LINE
  5
1CA
330
1BB
100
AcDbEntity
  8
0
  6
K5LT_THIN
 62
     7
100
AcDbLine
 10
157.511891227724
 20
219.526959240617
 30
0.0
 11
157.511891227724
 21
230.6368116009333
 31
0.0
  0
MTEXT
  5
1CC
330
1BB
100
AcDbEntity
  8
0
 62
     7
100
AcDbMText
 10
76.37149365135403
 20
242.7059787380793
 30
0.0
 40
0.0
 41
0.0
 46
0.0
 71
     1
 72
     1
  1
\H3.5;\W0.965;\Q15;\Q15;\H10.00;129,01
  7
KTEXTSTYLE
 73
     1
 44
1.0
  0
ENDBLK
  5
1CE
330
1BB
100
AcDbEntity
  8
0
100
AcDbBlockEnd
  0
BLOCK
  5
1E0
330
1D0
100
AcDbEntity
  8
0
100
AcDbBlockBegin
  2
D1
 70
     0
 10
0.0
 20
0.0
 30
0.0
  3
D1
  1

  0
WIPEOUT
  5
1D1
330
1D0
100
AcDbEntity
  8
0
 92
      152
310
98000000040000000C0000000E000000120000000C00000016000000000000C20C00000014000000010000006C0000000700000004000000F80B79F1C9602840DAF2DC7A38F05A400000000000000000E89560D00130F8BFDAF2DC7A38F05A400000000000000000C89560D00130F8BFF264C035E89E614000000000000000
310
00FE0B79F1C9602840F264C035E89E61400000000000000000
100
AcDbWipeout
 90
        0
 10
-1.511720479940207
 20
107.7534472615911
 30
0.0
 11
33.21239868164062
 21
0.0
 31
0.0
 12
0.0
 22
33.21239868164062
 32
0.0
 13
1.0
 23
1.0
340
0
 70
     7
280
     1
281
    50
282
    50
283
     0
360
0
 71
     2
 91
        5
 14
-0.0874805274975221
 24
0.5
 14
-0.4999999999999999
 24
0.5
 14
-0.4999999999999997
 24
-0.4999999999999996
 14
-0.0874805274975218
 24
-0.4999999999999996
 14
-0.0874805274975221
 24
0.5
  0
LINE
  5
1D2
330
1D0
100
AcDbEntity
  8
0
  6
K5LT_THIN
 62
     7
100
AcDbLine
 10
13.62904093363403
 20
219.5269592406171
 30
0.0
 11
14.28730342486023
 21
214.5269592406171
 31
0.0
  0
LINE
  5
1D3
330
1D0
100
AcDbEntity
  8
0
  6
K5LT_THIN
 62
     7
100
AcDbLine
 10
14.28730342486023
 20
214.5269592406171
 30
0.0
 11
13.62904093363403
 21
215.0269592406171
 31
0.0
  0
LINE
  5
1D4
330
1D0
100
AcDbEntity
  8
0
  6
K5LT_THIN
 62
     7
100
AcDbLine
 10
13.62904093363403
 20
215.0269592406171
 30
0.0
 11
12.97077844240784
 21
214.5269592406171
 31
0.0
  0
LINE
  5
1D5
330
1D0
100
AcDbEntity
  8
0
  6
K5LT_THIN
 62
     7
100
AcDbLine
 10
12.97077844240784
 20
214.5269592406171
 30
0.0
 11
13.62904093363403
 21
219.5269592406171
 31
0.0
  0
HATCH
  5
1D6
330
1D0
100
AcDbEntity
  8
0
 62
     7
100
AcDbHatch
 10
0.0
 20
0.0
 30
0.0
210
0.0
220
0.0
230
1.0
  2
SOLID
 70
     1
 71
     0
 91
        1
 92
        1
 93
        4
 72
     1
 10
14.28730342486023
 20
214.5269592406171
 11
13.62904093363403
 21
219.5269592406171
 72
     1
 10
13.62904093363403
 20
219.5269592406171
 11
12.97077844240784
 21
214.5269592406171
 72
     1
 10
12.97077844240784
 20
214.5269592406171
 11
13.62904093363403
 21
215.0269592406171
 72
     1
 10
13.62904093363403
 20
215.0269592406171
 11
14.28730342486023
 21
214.5269592406171
 97
        0
 75
     0
 76
     1
 98
        0
  0
LINE
  5
1D7
330
1D0
100
AcDbEntity
  8
0
  6
K5LT_THIN
 62
     7
100
AcDbLine
 10
13.629040933634
 20
30.57618390927414
 30
0.0
 11
12.9707784424078
 21
35.57618390927414
 31
0.0
  0
LINE
  5
1D8
330
1D0
100
AcDbEntity
  8
0
  6
K5LT_THIN
 62
     7
100
AcDbLine
 10
12.9707784424078
 20
35.57618390927414
 30
0.0
 11
13.629040933634
 21
35.07618390927414
 31
0.0
  0
LINE
  5
1D9
330
1D0
100
AcDbEntity
  8
0
  6
K5LT_THIN
 62
     7
100
AcDbLine
 10
13.629040933634
 20
35.07618390927414
 30
0.0
 11
14.28730342486019
 21
35.57618390927414
 31
0.0
  0
LINE
  5
1DA
330
1D0
100
AcDbEntity
  8
0
  6
K5LT_THIN
 62
     7
100
AcDbLine
 10
14.28730342486019
 20
35.57618390927414
 30
0.0
 11
13.629040933634
 21
30.57618390927414
 31
0.0
  0
HATCH
  5
1DB
330
1D0
100
AcDbEntity
  8
0
 62
     7
100
AcDbHatch
 10
0.0
 20
0.0
 30
0.0
210
0.0
220
0.0
230
1.0
  2
SOLID
 70
     1
 71
     0
 91
        1
 92
        1
 93
        4
 72
     1
 10
13.629040933634
 20
30.57618390927414
 11
14.28730342486019
 21
35.57618390927414
 72
     1
 10
14.28730342486019
 20
35.57618390927414
 11
13.629040933634
 21
35.07618390927414
 72
     1
 10
13.629040933634
 20
35.07618390927414
 11
12.9707784424078
 21
35.57618390927414
 72
     1
 10
12.9707784424078
 20
35.57618390927414
 11
13.629040933634
 21
30.57618390927414
 97
        0
 75
     0
 76
     1
 98
        0
  0
LINE
  5
1DC
330
1D0
100
AcDbEntity
  8
0
  6
K5LT_THIN
 62
     7
100
AcDbLine
 10
13.62904093363403
 20
219.5269592406171
 30
0.0
 11
13.629040933634
 21
30.57618390927414
 31
0.0
  0
LINE
  5
1DD
330
1D0
100
AcDbEntity
  8
0
  6
K5LT_THIN
 62
     7
100
AcDbLine
 10
28.50443057815792
 20
219.5269592406171
 30
0.0
 11
11.62904093363403
 21
219.5269592406171
 31
0.0
  0
LINE
  5
1DE
330
1D0
100
AcDbEntity
  8
0
  6
K5LT_THIN
 62
     7
100
AcDbLine
 10
28.50443057815791
 20
30.57618390927414
 30
0.0
 11
11.62904093363399
 21
30.57618390927414
 31
0.0
  0
MTEXT
  5
1DF
330
1D0
100
AcDbEntity
  8
0
 62
     7
100
AcDbMText
 10
-0.4401262035119853
 20
107.7534472615911
 30
0.0
 40
0.0
 41
0.0
 46
0.0
 71
     1
 72
     1
  1
\H3.5;\W0.965;\Q15;\Q15;\H10.00;188,95
  7
KTEXTSTYLE
 11
6.123233995736766E-17
 21
1.0
 31
0.0
 73
     1
 44
1.0
  0
ENDBLK
  5
1E1
330
1D0
100
AcDbEntity
  8
0
100
AcDbBlockEnd
  0
BLOCK
  5
1F3
330
1E3
100
AcDbEntity
  8
0
100
AcDbBlockBegin
  2
D2
 70
     0
 10
0.0
 20
0.0
 30
0.0
  3
D2
  1

  0
WIPEOUT
  5
1E4
330
1E3
100
AcDbEntity
  8
0
 92
      152
310
98000000040000000C0000000E000000120000000C00000016000000000000C20C00000014000000010000006C00000007000000040000002EC1318EB37A6E40C204C5DB32216C4000000000000000002EC1318EB37A6E40AD567D7E9FD76D4000000000000000004FFF9DB23C307140AD567D7E9FD76D4000000000000000
310
004FFF9DB23C307140C204C5DB32216C400000000000000000
100
AcDbWipeout
 90
        0
 10
243.8344183894892
 20
225.0374583099384
 30
0.0
 11
31.18040039062501
 21
0.0
 31
0.0
 12
0.0
 22
31.18040039062501
 32
0.0
 13
1.0
 23
1.0
340
0
 70
     7
280
     1
281
    50
282
    50
283
     0
360
0
 71
     2
 91
        5
 14
-0.5000000000000009
 24
0.4999999999999991
 14
-0.5000000000000009
 24
0.0605970092413637
 14
0.4999999999999982
 24
0.0605970092413637
 14
0.4999999999999982
 24
0.4999999999999991
 14
-0.5000000000000009
 24
0.4999999999999991
  0
LINE
  5
1E5
330
1E3
100
AcDbEntity
  8
0
  6
K5LT_THIN
 62
     7
100
AcDbLine
 10
200.7814122173505
 20
223.5974580810565
 30
0.0
 11
205.7814122173505
 21
224.2557205722827
 31
0.0
  0
LINE
  5
1E6
330
1E3
100
AcDbEntity
  8
0
  6
K5LT_THIN
 62
     7
100
AcDbLine
 10
205.7814122173505
 20
224.2557205722827
 30
0.0
 11
205.2814122173505
 21
223.5974580810565
 31
0.0
  0
LINE
  5
1E7
330
1E3
100
AcDbEntity
  8
0
  6
K5LT_THIN
 62
     7
100
AcDbLine
 10
205.2814122173505
 20
223.5974580810565
 30
0.0
 11
205.7814122173505
 21
222.9391955898303
 31
0.0
  0
LINE
  5
1E8
330
1E3
100
AcDbEntity
  8
0
  6
K5LT_THIN
 62
     7
100
AcDbLine
 10
205.7814122173505
 20
222.9391955898303
 30
0.0
 11
200.7814122173505
 21
223.5974580810565
 31
0.0
  0
HATCH
  5
1E9
330
1E3
100
AcDbEntity
  8
0
 62
     7
100
AcDbHatch
 10
0.0
 20
0.0
 30
0.0
210
0.0
220
0.0
230
1.0
  2
SOLID
 70
     1
 71
     0
 91
        1
 92
        1
 93
        4
 72
     1
 10
205.7814122173505
 20
222.9391955898303
 11
205.2814122173505
 21
223.5974580810565
 72
     1
 10
205.2814122173505
 20
223.5974580810565
 11
205.7814122173505
 21
224.2557205722827
 72
     1
 10
205.7814122173505
 20
224.2557205722827
 11
200.7814122173505
 21
223.5974580810565
 72
     1
 10
200.7814122173505
 20
223.5974580810565
 11
205.7814122173505
 21
222.9391955898303
 97
        0
 75
     0
 76
     1
 98
        0
  0
LINE
  5
1EA
330
1E3
100
AcDbEntity
  8
0
  6
K5LT_THIN
 62
     7
100
AcDbLine
 10
319.3670083018623
 20
223.5974580810565
 30
0.0
 11
314.3670083018623
 21
222.9391955898303
 31
0.0
  0
LINE
  5
1EB
330
1E3
100
AcDbEntity
  8
0
  6
K5LT_THIN
 62
     7
100
AcDbLine
 10
314.3670083018623
 20
222.9391955898303
 30
0.0
 11
314.8670083018623
 21
223.5974580810565
 31
0.0
  0
LINE
  5
1EC
330
1E3
100
AcDbEntity
  8
0
  6
K5LT_THIN
 62
     7
100
AcDbLine
 10
314.8670083018623
 20
223.5974580810565
 30
0.0
 11
314.3670083018623
 21
224.2557205722827
 31
0.0
  0
LINE
  5
1ED
330
1E3
100
AcDbEntity
  8
0
  6
K5LT_THIN
 62
     7
100
AcDbLine
 10
314.3670083018623
 20
224.2557205722827
 30
0.0
 11
319.3670083018623
 21
223.5974580810565
 31
0.0
  0
HATCH
  5
1EE
330
1E3
100
AcDbEntity
  8
0
 62
     7
100
AcDbHatch
 10
0.0
 20
0.0
 30
0.0
210
0.0
220
0.0
230
1.0
  2
SOLID
 70
     1
 71
     0
 91
        1
 92
        1
 93
        4
 72
     1
 10
319.3670083018623
 20
223.5974580810565
 11
314.3670083018623
 21
224.2557205722827
 72
     1
 10
314.3670083018623
 20
224.2557205722827
 11
314.8670083018623
 21
223.5974580810565
 72
     1
 10
314.8670083018623
 20
223.5974580810565
 11
314.3670083018623
 21
222.9391955898303
 72
     1
 10
314.3670083018623
 20
222.9391955898303
 11
319.3670083018623
 21
223.5974580810565
 97
        0
 75
     0
 76
     1
 98
        0
  0
LINE
  5
1EF
330
1E3
100
AcDbEntity
  8
0
  6
K5LT_THIN
 62
     7
100
AcDbLine
 10
200.7814122173505
 20
223.5974580810565
 30
0.0
 11
319.3670083018623
 21
223.5974580810565
 31
0.0
  0
LINE
  5
1F0
330
1E3
100
AcDbEntity
  8
0
  6
K5LT_THIN
 62
     7
100
AcDbLine
 10
200.7814122173505
 20
214.351466068106
 30
0.0
 11
200.7814122173505
 21
225.5974580810565
 31
0.0
  0
LINE
  5
1F1
330
1E3
100
AcDbEntity
  8
0
  6
K5LT_THIN
 62
     7
100
AcDbLine
 10
319.3670083018623
 20
214.351466068106
 30
0.0
 11
319.3670083018623
 21
225.5974580810565
 31
0.0
  0
MTEXT
  5
1F2
330
1E3
100
AcDbEntity
  8
0
 62
     7
100
AcDbMText
 10
243.8344183894892
 20
237.6666252182025
 30
0.0
 40
0.0
 41
0.0
 46
0.0
 71
     1
 72
     1
  1
\H3.5;\W0.965;\Q15;\Q15;\H10.00;118,59
  7
KTEXTSTYLE
 73
     1
 44
1.0
  0
ENDBLK
  5
1F4
330
1E3
100
AcDbEntity
  8
0
100
AcDbBlockEnd
  0
BLOCK
  5
206
330
1F6
100
AcDbEntity
  8
0
100
AcDbBlockBegin
  2
D3
 70
     0
 10
0.0
 20
0.0
 30
0.0
  3
D3
  1

  0
WIPEOUT
  5
1F7
330
1F6
100
AcDbEntity
  8
0
 92
      152
310
98000000040000000C0000000E000000120000000C00000016000000000000C20C00000014000000010000006C0000000700000004000000C96828A4C3337540D645FD4AA3E15A400000000000000000D33FCC528D587440D645FD4AA3E15A400000000000000000D33FCC528D58744065B72CEDFFAF614000000000000000
310
00C96828A4C333754065B72CEDFFAF61400000000000000000
100
AcDbWipeout
 90
        0
 10
325.534502790307
 20
107.5255916093223
 30
0.0
 11
33.97439941406249
 21
0.0
 31
0.0
 12
0.0
 22
33.97439941406249
 32
0.0
 13
1.0
 23
1.0
340
0
 70
     7
280
     1
281
    50
282
    50
283
     0
360
0
 71
     2
 91
        5
 14
-0.096732792308865
 24
0.5
 14
-0.5000000000000018
 24
0.5
 14
-0.5000000000000018
 24
-0.5
 14
-0.096732792308865
 24
-0.5
 14
-0.096732792308865
 24
0.5
  0
LINE
  5
1F8
330
1F6
100
AcDbEntity
  8
0
  6
K5LT_THIN
 62
     7
100
AcDbLine
 10
340.6752642038812
 20
214.351466068106
 30
0.0
 11
341.3335266951074
 21
209.351466068106
 31
0.0
  0
LINE
  5
1F9
330
1F6
100
AcDbEntity
  8
0
  6
K5LT_THIN
 62
     7
100
AcDbLine
 10
341.3335266951074
 20
209.351466068106
 30
0.0
 11
340.6752642038812
 21
209.851466068106
 31
0.0
  0
LINE
  5
1FA
330
1F6
100
AcDbEntity
  8
0
  6
K5LT_THIN
 62
     7
100
AcDbLine
 10
340.6752642038812
 20
209.851466068106
 30
0.0
 11
340.017001712655
 21
209.351466068106
 31
0.0
  0
LINE
  5
1FB
330
1F6
100
AcDbEntity
  8
0
  6
K5LT_THIN
 62
     7
100
AcDbLine
 10
340.017001712655
 20
209.351466068106
 30
0.0
 11
340.6752642038812
 21
214.351466068106
 31
0.0
  0
HATCH
  5
1FC
330
1F6
100
AcDbEntity
  8
0
 62
     7
100
AcDbHatch
 10
0.0
 20
0.0
 30
0.0
210
0.0
220
0.0
230
1.0
  2
SOLID
 70
     1
 71
     0
 91
        1
 92
        1
 93
        4
 72
     1
 10
341.3335266951074
 20
209.351466068106
 11
340.6752642038812
 21
214.351466068106
 72
     1
 10
340.6752642038812
 20
214.351466068106
 11
340.017001712655
 21
209.351466068106
 72
     1
 10
340.017001712655
 20
209.351466068106
 11
340.6752642038812
 21
209.851466068106
 72
     1
 10
340.6752642038812
 20
209.851466068106
 11
341.3335266951074
 21
209.351466068106
 97
        0
 75
     0
 76
     1
 98
        0
  0
LINE
  5
1FD
330
1F6
100
AcDbEntity
  8
0
  6
K5LT_THIN
 62
     7
100
AcDbLine
 10
340.6752642038812
 20
36.08971654018699
 30
0.0
 11
340.017001712655
 21
41.08971654018699
 31
0.0
  0
LINE
  5
1FE
330
1F6
100
AcDbEntity
  8
0
  6
K5LT_THIN
 62
     7
100
AcDbLine
 10
340.017001712655
 20
41.08971654018699
 30
0.0
 11
340.6752642038812
 21
40.58971654018699
 31
0.0
  0
LINE
  5
1FF
330
1F6
100
AcDbEntity
  8
0
  6
K5LT_THIN
 62
     7
100
AcDbLine
 10
340.6752642038812
 20
40.58971654018699
 30
0.0
 11
341.3335266951074
 21
41.08971654018699
 31
0.0
  0
LINE
  5
200
330
1F6
100
AcDbEntity
  8
0
  6
K5LT_THIN
 62
     7
100
AcDbLine
 10
341.3335266951074
 20
41.08971654018699
 30
0.0
 11
340.6752642038812
 21
36.08971654018699
 31
0.0
  0
HATCH
  5
201
330
1F6
100
AcDbEntity
  8
0
 62
     7
100
AcDbHatch
 10
0.0
 20
0.0
 30
0.0
210
0.0
220
0.0
230
1.0
  2
SOLID
 70
     1
 71
     0
 91
        1
 92
        1
 93
        4
 72
     1
 10
340.6752642038812
 20
36.08971654018699
 11
341.3335266951074
 21
41.08971654018699
 72
     1
 10
341.3335266951074
 20
41.08971654018699
 11
340.6752642038812
 21
40.58971654018699
 72
     1
 10
340.6752642038812
 20
40.58971654018699
 11
340.017001712655
 21
41.08971654018699
 72
     1
 10
340.017001712655
 20
41.08971654018699
 11
340.6752642038812
 21
36.08971654018699
 97
        0
 75
     0
 76
     1
 98
        0
  0
LINE
  5
202
330
1F6
100
AcDbEntity
  8
0
  6
K5LT_THIN
 62
     7
100
AcDbLine
 10
340.6752642038812
 20
214.351466068106
 30
0.0
 11
340.6752642038812
 21
36.08971654018699
 31
0.0
  0
LINE
  5
203
330
1F6
100
AcDbEntity
  8
0
  6
K5LT_THIN
 62
     7
100
AcDbLine
 10
319.3670083018623
 20
214.351466068106
 30
0.0
 11
342.6752642038812
 21
214.351466068106
 31
0.0
  0
LINE
  5
204
330
1F6
100
AcDbEntity
  8
0
  6
K5LT_THIN
 62
     7
100
AcDbLine
 10
319.3670083018623
 20
36.089716540187
 30
0.0
 11
342.6752642038812
 21
36.08971654018699
 31
0.0
  0
MTEXT
  5
205
330
1F6
100
AcDbEntity
  8
0
 62
     7
100
AcDbMText
 10
326.6060970667352
 20
107.5255916093223
 30
0.0
 40
0.0
 41
0.0
 46
0.0
 71
     1
 72
     1
  1
\H3.5;\W0.965;\Q15;\Q15;\H10.00;178,26
  7
KTEXTSTYLE
 11
6.123233995736766E-17
 21
1.0
 31
0.0
 73
     1
 44
1.0
  0
ENDBLK
  5
207
330
1F6
100
AcDbEntity
  8
0
100
AcDbBlockEnd
  0
ENDSEC
  0
SECTION
  2
ENTITIES
  0
SPLINE
  5
A5
330
1F
100
AcDbEntity
  8
0
  6
K5LT32769
 62
    30
420
 16744448
100
AcDbSpline
210
0.0
220
0.0
230
1.0
 70
     8
 71
     3
 72
    23
 73
    19
 74
     0
 42
0.0
 43
0.0
 12
1.0
 22
0.0
 32
0.0
 13
1.0
 23
0.0
 33
0.0
 40
0.0
 40
0.0
 40
0.0
 40
0.0
 40
1.0
 40
1.0
 40
1.0
 40
2.0
 40
2.0
 40
2.0
 40
3.0
 40
3.0
 40
3.0
 40
4.0
 40
4.0
 40
4.0
 40
5.0
 40
5.0
 40
5.0
 40
6.0
 40
6.0
 40
6.0
 40
6.0
 10
47.96390438831239
 20
80.97664489611584
 30
0.0
 10
44.03372702934221
 20
79.02734343039302
 30
0.0
 10
41.1628146946487
 20
76.47542135510989
 30
0.0
 10
39.35116738423184
 20
73.32087867026647
 30
0.0
 10
37.49555293652826
 20
70.08977792111116
 30
0.0
 10
36.79374763143607
 20
65.43048602651004
 30
0.0
 10
37.11823556835911
 20
61.73089924502229
 30
0.0
 10
37.58646735281253
 20
56.39244464217172
 30
0.0
 10
41.15146756007445
 20
50.36062617198321
 30
0.0
 10
45.199322140089
 20
46.73835705273393
 30
0.0
 10
48.16066615920509
 20
44.08836437639643
 30
0.0
 10
52.38613477689927
 20
42.43262284652663
 30
0.0
 10
56.25765113298254
 20
40.99653238334691
 30
0.0
 10
59.19877852835769
 20
39.90555804279991
 30
0.0
 10
62.6121431849718
 20
39.87120112761492
 30
0.0
 10
65.40203856941372
 20
38.55094039453391
 30
0.0
 10
69.12191375019371
 20
36.79058580900564
 30
0.0
 10
72.38270306861104
 20
34.13233364725239
 30
0.0
 10
75.1844065246657
 20
30.57618390927415
 30
0.0
  0
SPLINE
  5
A6
330
1F
100
AcDbEntity
  8
0
  6
K5LT32769
 62
    30
420
 16744448
100
AcDbSpline
210
0.0
220
0.0
230
1.0
 70
     8
 71
     3
 72
    11
 73
     7
 74
     0
 42
0.0
 43
0.0
 12
1.0
 22
0.0
 32
0.0
 13
1.0
 23
0.0
 33
0.0
 40
0.0
 40
0.0
 40
0.0
 40
0.0
 40
1.0
 40
1.0
 40
1.0
 40
2.0
 40
2.0
 40
2.0
 40
2.0
 10
75.1844065246657
 20
30.57618390927415
 30
0.0
 10
75.97251779645404
 20
32.91081815268163
 30
0.0
 10
76.19699146808688
 20
35.14965795024419
 30
0.0
 10
75.85782753956421
 20
37.29270330196183
 30
0.0
 10
75.5117031826168
 20
39.47972890195231
 30
0.0
 10
74.57856954597463
 20
41.5669878635236
 30
0.0
 10
73.05842662963767
 20
43.55448018667565
 30
0.0
  0
SPLINE
  5
A7
330
1F
100
AcDbEntity
  8
0
  6
K5LT32769
 62
    30
420
 16744448
100
AcDbSpline
210
0.0
220
0.0
230
1.0
 70
     8
 71
     3
 72
    11
 73
     7
 74
     0
 42
0.0
 43
0.0
 12
1.0
 22
0.0
 32
0.0
 13
1.0
 23
0.0
 33
0.0
 40
0.0
 40
0.0
 40
0.0
 40
0.0
 40
1.0
 40
1.0
 40
1.0
 40
2.0
 40
2.0
 40
2.0
 40
2.0
 10
73.05842662963835
 20
43.55448018667486
 30
0.0
 10
73.83647248653301
 20
42.63110767968485
 30
0.0
 10
74.6821121797441
 20
42.12553758678364
 30
0.0
 10
75.59534570927163
 20
42.03776990797125
 30
0.0
 10
76.37253615873256
 20
41.96307685352368
 30
0.0
 10
77.19868174959521
 20
42.19097908548579
 30
0.0
 10
78.07378248185958
 20
42.72147660385758
 30
0.0
  0
SPLINE
  5
A8
330
1F
100
AcDbEntity
  8
0
  6
K5LT32769
 62
    30
420
 16744448
100
AcDbSpline
210
0.0
220
0.0
230
1.0
 70
     8
 71
     3
 72
    26
 73
    22
 74
     0
 42
0.0
 43
0.0
 12
1.0
 22
0.0
 32
0.0
 13
1.0
 23
0.0
 33
0.0
 40
0.0
 40
0.0
 40
0.0
 40
0.0
 40
1.0
 40
1.0
 40
1.0
 40
2.0
 40
2.0
 40
2.0
 40
3.0
 40
3.0
 40
3.0
 40
4.0
 40
4.0
 40
4.0
 40
5.0
 40
5.0
 40
5.0
 40
6.0
 40
6.0
 40
6.0
 40
7.0
 40
7.0
 40
7.0
 40
7.0
 10
78.07378248185958
 20
42.72147660385758
 30
0.0
 10
77.91299948859812
 20
41.66004847450552
 30
0.0
 10
77.94788516262936
 20
40.65086065341246
 30
0.0
 10
78.1784395039533
 20
39.69391314057838
 30
0.0
 10
78.46384502926593
 20
38.50929824229162
 30
0.0
 10
79.1259948396245
 20
37.27101592825667
 30
0.0
 10
79.93419650703245
 20
36.38023090941489
 30
0.0
 10
80.9158903774496
 20
35.29822597411081
 30
0.0
 10
82.46956390599325
 20
34.53708873290772
 30
0.0
 10
83.8661030350548
 20
34.08043652509993
 30
0.0
 10
85.8450327655013
 20
33.43334929947231
 30
0.0
 10
88.55837058574853
 20
33.18471457222716
 30
0.0
 10
90.3203646942613
 20
34.00624960947687
 30
0.0
 10
92.04553410501377
 20
34.81061502095993
 30
0.0
 10
93.89313102546863
 20
37.00215912158059
 30
0.0
 10
94.37591608165542
 20
38.85312809685033
 30
0.0
 10
94.83959551346105
 20
40.63084725311785
 30
0.0
 10
94.42476707025145
 20
43.34120136549686
 30
0.0
 10
93.36202823480689
 20
44.83753929044409
 30
0.0
 10
92.3662442277977
 20
46.23960471333838
 30
0.0
 10
90.73413208409029
 20
47.20403461643819
 30
0.0
 10
88.46569180368472
 20
47.73082899974356
 30
0.0
  0
SPLINE
  5
A9
330
1F
100
AcDbEntity
  8
0
  6
K5LT32769
 62
    30
420
 16744448
100
AcDbSpline
210
0.0
220
0.0
230
1.0
 70
     8
 71
     3
 72
    23
 73
    19
 74
     0
 42
0.0
 43
0.0
 12
1.0
 22
0.0
 32
0.0
 13
1.0
 23
0.0
 33
0.0
 40
0.0
 40
0.0
 40
0.0
 40
0.0
 40
1.0
 40
1.0
 40
1.0
 40
2.0
 40
2.0
 40
2.0
 40
3.0
 40
3.0
 40
3.0
 40
4.0
 40
4.0
 40
4.0
 40
5.0
 40
5.0
 40
5.0
 40
6.0
 40
6.0
 40
6.0
 40
6.0
 10
88.46569180368472
 20
47.73082899974356
 30
0.0
 10
89.48869158621474
 20
48.5697587451258
 30
0.0
 10
90.51807655675493
 20
48.99391004368817
 30
0.0
 10
91.55384671530524
 20
49.00328289543065
 30
0.0
 10
92.55680183906838
 20
49.01235879861418
 30
0.0
 10
93.6959847585341
 20
48.41366087903939
 30
0.0
 10
94.58067311327676
 20
47.8637717809002
 30
0.0
 10
96.1201950297589
 20
46.90686270248679
 30
0.0
 10
96.75296565850678
 20
44.75868444177775
 30
0.0
 10
98.07042590152626
 20
43.4481662120947
 30
0.0
 10
99.82627025664696
 20
41.70157382111831
 30
0.0
 10
101.9332519550176
 20
40.04411348700464
 30
0.0
 10
104.1596884197984
 20
39.06817036561829
 30
0.0
 10
106.9490268434266
 20
37.84548303956127
 30
0.0
 10
110.5017660071399
 20
37.20272352969374
 30
0.0
 10
113.4538259476873
 20
37.67939119478429
 30
0.0
 10
116.2954306080234
 20
38.13822370016413
 30
0.0
 10
119.0017695050332
 20
39.46765333378299
 30
0.0
 10
121.5728426387168
 20
41.66768009564088
 30
0.0
  0
SPLINE
  5
AA
330
1F
100
AcDbEntity
  8
0
  6
K5LT32769
 62
    30
420
 16744448
100
AcDbSpline
210
0.0
220
0.0
230
1.0
 70
     8
 71
     3
 72
    26
 73
    22
 74
     0
 42
0.0
 43
0.0
 12
1.0
 22
0.0
 32
0.0
 13
1.0
 23
0.0
 33
0.0
 40
0.0
 40
0.0
 40
0.0
 40
0.0
 40
1.0
 40
1.0
 40
1.0
 40
2.0
 40
2.0
 40
2.0
 40
3.0
 40
3.0
 40
3.0
 40
4.0
 40
4.0
 40
4.0
 40
5.0
 40
5.0
 40
5.0
 40
6.0
 40
6.0
 40
6.0
 40
7.0
 40
7.0
 40
7.0
 40
7.0
 10
121.5728426387168
 20
41.66768009564088
 30
0.0
 10
122.8976056984022
 20
40.56444077567294
 30
0.0
 10
124.2798343540615
 20
39.82613203848442
 30
0.0
 10
125.7195286056946
 20
39.45275388407532
 30
0.0
 10
128.2884786674066
 20
38.78650837276405
 30
0.0
 10
131.7383200139057
 20
39.57541676175673
 30
0.0
 10
133.9752872865764
 20
40.93981600671863
 30
0.0
 10
136.0660018072208
 20
42.21501093167275
 30
0.0
 10
137.7067291568373
 20
44.78438291725415
 30
0.0
 10
138.8979756925681
 20
47.04189850997911
 30
0.0
 10
140.383246684296
 20
49.85661596994726
 30
0.0
 10
140.1317707400723
 20
53.49446926045054
 30
0.0
 10
141.2567638871057
 20
56.52832929235885
 30
0.0
 10
142.5210999153634
 20
59.93796654494822
 30
0.0
 10
144.1196246621465
 20
63.40785208047384
 30
0.0
 10
146.3332863057846
 20
66.271150095884
 30
0.0
 10
147.9771733625461
 20
68.39746355517484
 30
0.0
 10
149.7245038579095
 20
71.15902634190523
 30
0.0
 10
152.1277007836706
 20
72.01428656954091
 30
0.0
 10
153.71630147189
 20
72.57964472711197
 30
0.0
 10
155.5110316199078
 20
72.68220073557013
 30
0.0
 10
157.511891227724
 20
72.3219545949154
 30
0.0
  0
SPLINE
  5
AB
330
1F
100
AcDbEntity
  8
0
  6
K5LT32769
 62
    30
420
 16744448
100
AcDbSpline
210
0.0
220
0.0
230
1.0
 70
     8
 71
     3
 72
    11
 73
     7
 74
     0
 42
0.0
 43
0.0
 12
1.0
 22
0.0
 32
0.0
 13
1.0
 23
0.0
 33
0.0
 40
0.0
 40
0.0
 40
0.0
 40
0.0
 40
1.0
 40
1.0
 40
1.0
 40
2.0
 40
2.0
 40
2.0
 40
2.0
 10
157.511891227724
 20
72.3219545949154
 30
0.0
 10
155.695409188357
 20
73.82223325947908
 30
0.0
 10
153.7639376957283
 20
74.84779334406066
 30
0.0
 10
151.717476749838
 20
75.39863484866017
 30
0.0
 10
149.22200490847
 20
76.0703356531858
 30
0.0
 10
146.5555486885578
 20
76.03615031703308
 30
0.0
 10
143.7181080901015
 20
75.296078840202
 30
0.0
  0
SPLINE
  5
AC
330
1F
100
AcDbEntity
  8
0
  6
K5LT32769
 62
    30
420
 16744448
100
AcDbSpline
210
0.0
220
0.0
230
1.0
 70
     8
 71
     3
 72
    11
 73
     7
 74
     0
 42
0.0
 43
0.0
 12
1.0
 22
0.0
 32
0.0
 13
1.0
 23
0.0
 33
0.0
 40
0.0
 40
0.0
 40
0.0
 40
0.0
 40
1.0
 40
1.0
 40
1.0
 40
2.0
 40
2.0
 40
2.0
 40
2.0
 10
143.7181080901015
 20
75.296078840202
 30
0.0
 10
145.1031988750601
 20
77.42023087019308
 30
0.0
 10
145.6169276404551
 20
79.25294524671176
 30
0.0
 10
145.2592943862866
 20
80.79422196975804
 30
0.0
 10
144.7851132024302
 20
82.83778031525806
 30
0.0
 10
142.7790988445589
 20
84.36899837540835
 30
0.0
 10
139.2412513126727
 20
85.38787615020892
 30
0.0
  0
LINE
  5
AD
330
1F
100
AcDbEntity
  8
0
  6
K5LT32769
 62
    30
420
 16744448
100
AcDbLine
 10
139.2412513126727
 20
85.38787615020892
 30
0.0
 11
139.2085481629023
 21
103.3878464419621
 31
0.0
  0
SPLINE
  5
AE
330
1F
100
AcDbEntity
  8
0
  6
K5LT32769
 62
    30
420
 16744448
100
AcDbSpline
210
0.0
220
0.0
230
1.0
 70
     8
 71
     3
 72
    11
 73
     7
 74
     0
 42
0.0
 43
0.0
 12
1.0
 22
0.0
 32
0.0
 13
1.0
 23
0.0
 33
0.0
 40
0.0
 40
0.0
 40
0.0
 40
0.0
 40
1.0
 40
1.0
 40
1.0
 40
2.0
 40
2.0
 40
2.0
 40
2.0
 10
139.2085481629023
 20
103.3878464419621
 30
0.0
 10
140.5063832393948
 20
103.8169514614825
 30
0.0
 10
141.3558881396789
 20
104.4448273789306
 30
0.0
 10
141.7570628637545
 20
105.2714741943064
 30
0.0
 10
142.2100976211129
 20
106.2049820076108
 30
0.0
 10
142.0913985466826
 20
107.3919727519133
 30
0.0
 10
141.4009656404637
 20
108.832446427214
 30
0.0
  0
SPLINE
  5
AF
330
1F
100
AcDbEntity
  8
0
  6
K5LT32769
 62
    30
420
 16744448
100
AcDbSpline
210
0.0
220
0.0
230
1.0
 70
     8
 71
     3
 72
    14
 73
    10
 74
     0
 42
0.0
 43
0.0
 12
1.0
 22
0.0
 32
0.0
 13
1.0
 23
0.0
 33
0.0
 40
0.0
 40
0.0
 40
0.0
 40
0.0
 40
1.0
 40
1.0
 40
1.0
 40
2.0
 40
2.0
 40
2.0
 40
3.0
 40
3.0
 40
3.0
 40
3.0
 10
141.4009656404637
 20
108.832446427214
 30
0.0
 10
144.0013556737869
 20
110.3443291678528
 30
0.0
 10
145.42574456695
 20
112.0892055619775
 30
0.0
 10
145.6741323199529
 20
114.0670756095883
 30
0.0
 10
145.8642013905022
 20
115.5805637629766
 30
0.0
 10
145.1805028157844
 20
117.7045084303942
 30
0.0
 10
144.1785239821317
 20
119.0168270133299
 30
0.0
 10
143.5114336709237
 20
119.8905331062054
 30
0.0
 10
142.6211906126968
 20
120.61459746023
 30
0.0
 10
141.5077948074509
 20
121.1890200754036
 30
0.0
  0
SPLINE
  5
B0
330
1F
100
AcDbEntity
  8
0
  6
K5LT32769
 62
    30
420
 16744448
100
AcDbSpline
210
0.0
220
0.0
230
1.0
 70
     8
 71
     3
 72
    11
 73
     7
 74
     0
 42
0.0
 43
0.0
 12
1.0
 22
0.0
 32
0.0
 13
1.0
 23
0.0
 33
0.0
 40
0.0
 40
0.0
 40
0.0
 40
0.0
 40
1.0
 40
1.0
 40
1.0
 40
2.0
 40
2.0
 40
2.0
 40
2.0
 10
141.5077948074509
 20
121.1890200754036
 30
0.0
 10
141.7973155754785
 20
122.5054223138466
 30
0.0
 10
141.7003227016465
 20
123.6285028585427
 30
0.0
 10
141.2168161859548
 20
124.5582617094919
 30
0.0
 10
140.7702746509059
 20
125.4169387511742
 30
0.0
 10
139.9940597312493
 20
126.1107237678584
 30
0.0
 10
138.8881714269851
 20
126.6396167595445
 30
0.0
  0
LINE
  5
B1
330
1F
100
AcDbEntity
  8
0
  6
K5LT32769
 62
    30
420
 16744448
100
AcDbLine
 10
138.8881714269851
 20
126.6396167595445
 30
0.0
 11
138.8625332098292
 21
138.6395893712558
 31
0.0
  0
SPLINE
  5
B2
330
1F
100
AcDbEntity
  8
0
  6
K5LT32769
 62
    30
420
 16744448
100
AcDbSpline
210
0.0
220
0.0
230
1.0
 70
     8
 71
     3
 72
    14
 73
    10
 74
     0
 42
0.0
 43
0.0
 12
1.0
 22
0.0
 32
0.0
 13
1.0
 23
0.0
 33
0.0
 40
0.0
 40
0.0
 40
0.0
 40
0.0
 40
1.0
 40
1.0
 40
1.0
 40
2.0
 40
2.0
 40
2.0
 40
3.0
 40
3.0
 40
3.0
 40
3.0
 10
138.8625332098292
 20
138.6395893712558
 30
0.0
 10
140.1047696529585
 20
140.2081418486813
 30
0.0
 10
140.6700009920418
 20
141.7153271220898
 30
0.0
 10
140.5582272270793
 20
143.1611451914813
 30
0.0
 10
140.4401382318442
 20
144.6886521441579
 30
0.0
 10
139.2535834156551
 20
146.5807085138118
 30
0.0
 10
137.9369562083977
 20
147.538173213242
 30
0.0
 10
137.2254894714617
 20
148.0555590622357
 30
0.0
 10
136.3847044277337
 20
148.426493640351
 30
0.0
 10
135.4146010772135
 20
148.650976947588
 30
0.0
  0
SPLINE
  5
B3
330
1F
100
AcDbEntity
  8
0
  6
K5LT32769
 62
    30
420
 16744448
100
AcDbSpline
210
0.0
220
0.0
230
1.0
 70
     8
 71
     3
 72
    23
 73
    19
 74
     0
 42
0.0
 43
0.0
 12
1.0
 22
0.0
 32
0.0
 13
1.0
 23
0.0
 33
0.0
 40
0.0
 40
0.0
 40
0.0
 40
0.0
 40
1.0
 40
1.0
 40
1.0
 40
2.0
 40
2.0
 40
2.0
 40
3.0
 40
3.0
 40
3.0
 40
4.0
 40
4.0
 40
4.0
 40
5.0
 40
5.0
 40
5.0
 40
6.0
 40
6.0
 40
6.0
 40
6.0
 10
135.4146010772135
 20
148.650976947588
 30
0.0
 10
137.1649088916022
 20
151.0487570198205
 30
0.0
 10
139.0229903921697
 20
153.3488777379982
 30
0.0
 10
140.988845578916
 20
155.5513391021209
 30
0.0
 10
143.5538656590198
 20
158.4250795804202
 30
0.0
 10
147.2148556646761
 20
160.476119615824
 30
0.0
 10
149.2343489865989
 20
163.6737752947637
 30
0.0
 10
150.7556421605434
 20
166.0825833379436
 30
0.0
 10
152.1780831231059
 20
168.9585055602805
 30
0.0
 10
152.55716379268
 20
171.7346778798865
 30
0.0
 10
152.9763851070899
 20
174.8048175685204
 30
0.0
 10
152.6255205635529
 20
178.753343500233
 30
0.0
 10
151.1418908197195
 20
181.2723870454898
 30
0.0
 10
149.329342699894
 20
184.3498985746916
 30
0.0
 10
144.7730916330539
 20
187.0506131613535
 30
0.0
 10
141.1734464014761
 20
187.548815012532
 30
0.0
 10
138.1305019897191
 20
187.9699677766077
 30
0.0
 10
134.8897319936646
 20
187.2520756888742
 30
0.0
 10
131.4511364133127
 20
185.3951387493313
 30
0.0
  0
SPLINE
  5
B4
330
1F
100
AcDbEntity
  8
0
  6
K5LT32769
 62
    30
420
 16744448
100
AcDbSpline
210
0.0
220
0.0
230
1.0
 70
     8
 71
     3
 72
    11
 73
     7
 74
     0
 42
0.0
 43
0.0
 12
1.0
 22
0.0
 32
0.0
 13
1.0
 23
0.0
 33
0.0
 40
0.0
 40
0.0
 40
0.0
 40
0.0
 40
1.0
 40
1.0
 40
1.0
 40
2.0
 40
2.0
 40
2.0
 40
2.0
 10
131.4511364133127
 20
185.3951387493313
 30
0.0
 10
133.0017880060013
 20
187.3750275157012
 30
0.0
 10
133.794886996087
 20
189.3247318116164
 30
0.0
 10
133.8304333835697
 20
191.244251637077
 30
0.0
 10
133.876476515837
 20
193.7306000812384
 30
0.0
 10
132.6515020190407
 20
196.1663051853335
 30
0.0
 10
130.1555098931807
 20
198.5513669493622
 30
0.0
  0
SPLINE
  5
B5
330
1F
100
AcDbEntity
  8
0
  6
K5LT32769
 62
    30
420
 16744448
100
AcDbSpline
210
0.0
220
0.0
230
1.0
 70
     8
 71
     3
 72
    17
 73
    13
 74
     0
 42
0.0
 43
0.0
 12
1.0
 22
0.0
 32
0.0
 13
1.0
 23
0.0
 33
0.0
 40
0.0
 40
0.0
 40
0.0
 40
0.0
 40
1.0
 40
1.0
 40
1.0
 40
2.0
 40
2.0
 40
2.0
 40
3.0
 40
3.0
 40
3.0
 40
4.0
 40
4.0
 40
4.0
 40
4.0
 10
130.1555098931807
 20
198.5513669493622
 30
0.0
 10
130.5543017549055
 20
196.6213082763573
 30
0.0
 10
130.3833750809339
 20
195.0259926526225
 30
0.0
 10
129.6427298712659
 20
193.7654200781579
 30
0.0
 10
128.9020554753347
 20
192.5047978288927
 30
0.0
 10
127.1595083238057
 20
191.4803253521091
 30
0.0
 10
125.7114163699195
 20
190.9878616261196
 30
0.0
 10
124.0659371148834
 20
190.4282708882533
 30
0.0
 10
121.7558666129947
 20
191.8381254130907
 30
0.0
 10
120.2417628028289
 20
190.9878616261196
 30
0.0
 10
119.6707791913379
 20
190.6672186922962
 30
0.0
 10
119.1437552799255
 20
190.2256581178696
 30
0.0
 10
118.6606910685917
 20
189.6631799028399
 30
0.0
  0
SPLINE
  5
B6
330
1F
100
AcDbEntity
  8
0
  6
K5LT32769
 62
    30
420
 16744448
100
AcDbSpline
210
0.0
220
0.0
230
1.0
 70
     8
 71
     3
 72
    14
 73
    10
 74
     0
 42
0.0
 43
0.0
 12
1.0
 22
0.0
 32
0.0
 13
1.0
 23
0.0
 33
0.0
 40
0.0
 40
0.0
 40
0.0
 40
0.0
 40
1.0
 40
1.0
 40
1.0
 40
2.0
 40
2.0
 40
2.0
 40
3.0
 40
3.0
 40
3.0
 40
3.0
 10
118.6606910685917
 20
189.6631799028399
 30
0.0
 10
117.9678876776223
 20
192.5301667798297
 30
0.0
 10
116.7454841079045
 20
194.4906144379602
 30
0.0
 10
114.9934803594384
 20
195.5445228772313
 30
0.0
 10
113.1539063291185
 20
196.6511087489314
 30
0.0
 10
109.720719762637
 20
197.0696355072829
 30
0.0
 10
107.7231626283782
 20
195.8659995115979
 30
0.0
 10
107.2546091358935
 20
195.5836707412282
 30
0.0
 10
106.8094876421551
 20
195.2292221443625
 30
0.0
 10
106.3877981471631
 20
194.8026537210007
 30
0.0
  0
SPLINE
  5
B7
330
1F
100
AcDbEntity
  8
0
  6
K5LT32769
 62
    30
420
 16744448
100
AcDbSpline
210
0.0
220
0.0
230
1.0
 70
     8
 71
     3
 72
    23
 73
    19
 74
     0
 42
0.0
 43
0.0
 12
1.0
 22
0.0
 32
0.0
 13
1.0
 23
0.0
 33
0.0
 40
0.0
 40
0.0
 40
0.0
 40
0.0
 40
1.0
 40
1.0
 40
1.0
 40
2.0
 40
2.0
 40
2.0
 40
3.0
 40
3.0
 40
3.0
 40
4.0
 40
4.0
 40
4.0
 40
5.0
 40
5.0
 40
5.0
 40
6.0
 40
6.0
 40
6.0
 40
6.0
 10
106.3877981471631
 20
194.8026537210007
 30
0.0
 10
106.5642552046047
 20
196.7321357661919
 30
0.0
 10
106.3173080560823
 20
198.4688616606193
 30
0.0
 10
105.6469567015956
 20
200.0128314042831
 30
0.0
 10
104.8912413512229
 20
201.7534136049279
 30
0.0
 10
103.1705308831904
 20
203.1197078634622
 30
0.0
 10
101.7654969677262
 20
204.4996564177467
 30
0.0
 10
99.99535538019717
 20
206.238194041433
 30
0.0
 10
97.3378583954371
 20
207.1736941904
 30
0.0
 10
95.92550250575768
 20
209.1645300428557
 30
0.0
 10
95.1852137681811
 20
210.2080300351071
 30
0.0
 10
94.40066532632626
 20
211.4223537462119
 30
0.0
 10
94.14501638930388
 20
212.6542828311053
 30
0.0
 10
93.88178139058562
 20
213.9227678671081
 30
0.0
 10
93.89818986183104
 20
215.5457584898126
 30
0.0
 10
94.42989416793648
 20
216.678181454291
 30
0.0
 10
94.98118741567644
 20
217.8523249147331
 30
0.0
 10
96.00199945577666
 20
218.8019175101751
 30
0.0
 10
97.49233028823707
 20
219.5269592406171
 30
0.0
  0
SPLINE
  5
B8
330
1F
100
AcDbEntity
  8
0
  6
K5LT32769
 62
    30
420
 16744448
100
AcDbSpline
210
0.0
220
0.0
230
1.0
 70
     8
 71
     3
 72
    14
 73
    10
 74
     0
 42
0.0
 43
0.0
 12
1.0
 22
0.0
 32
0.0
 13
1.0
 23
0.0
 33
0.0
 40
0.0
 40
0.0
 40
0.0
 40
0.0
 40
1.0
 40
1.0
 40
1.0
 40
2.0
 40
2.0
 40
2.0
 40
3.0
 40
3.0
 40
3.0
 40
3.0
 10
97.49233028823707
 20
219.5269592406171
 30
0.0
 10
94.58642880266204
 20
219.4987594534273
 30
0.0
 10
91.88008990565221
 20
218.9764835259341
 30
0.0
 10
89.37331359720761
 20
217.9601314581377
 30
0.0
 10
86.90002503448203
 20
216.9573567245025
 30
0.0
 10
84.37863494649731
 20
215.4307607495037
 30
0.0
 10
82.5362469100249
 20
213.5089161670031
 30
0.0
 10
81.05524482083483
 20
211.9640429994419
 30
0.0
 10
79.85638416908924
 20
210.136077253216
 30
0.0
 10
78.93966495478817
 20
208.0250189283253
 30
0.0
  0
SPLINE
  5
B9
330
1F
100
AcDbEntity
  8
0
  6
K5LT32769
 62
    30
420
 16744448
100
AcDbSpline
210
0.0
220
0.0
230
1.0
 70
     8
 71
     3
 72
    11
 73
     7
 74
     0
 42
0.0
 43
0.0
 12
1.0
 22
0.0
 32
0.0
 13
1.0
 23
0.0
 33
0.0
 40
0.0
 40
0.0
 40
0.0
 40
0.0
 40
1.0
 40
1.0
 40
1.0
 40
2.0
 40
2.0
 40
2.0
 40
2.0
 10
78.93966495478817
 20
208.0250189283253
 30
0.0
 10
78.49635640452337
 20
209.2925049106958
 30
0.0
 10
78.4132670524222
 20
210.4557558401123
 30
0.0
 10
78.69039689848464
 20
211.5147717165748
 30
0.0
 10
79.00914499214825
 20
212.7328263453998
 30
0.0
 10
79.80442879083095
 20
213.8129879227151
 30
0.0
 10
81.07624829453276
 20
214.7552564485208
 30
0.0
  0
SPLINE
  5
BA
330
1F
100
AcDbEntity
  8
0
  6
K5LT32769
 62
    30
420
 16744448
100
AcDbSpline
210
0.0
220
0.0
230
1.0
 70
     8
 71
     3
 72
    20
 73
    16
 74
     0
 42
0.0
 43
0.0
 12
1.0
 22
0.0
 32
0.0
 13
1.0
 23
0.0
 33
0.0
 40
0.0
 40
0.0
 40
0.0
 40
0.0
 40
1.0
 40
1.0
 40
1.0
 40
2.0
 40
2.0
 40
2.0
 40
3.0
 40
3.0
 40
3.0
 40
4.0
 40
4.0
 40
4.0
 40
5.0
 40
5.0
 40
5.0
 40
5.0
 10
81.07624829453276
 20
214.7552564485208
 30
0.0
 10
78.54393733004582
 20
214.5794248594299
 30
0.0
 10
76.27156214195236
 20
213.9626645187249
 30
0.0
 10
74.25912273025239
 20
212.9049754264055
 30
0.0
 10
71.37499337623657
 20
211.3891473518581
 30
0.0
 10
68.75431343291503
 20
208.5142294240017
 30
0.0
 10
67.20839770909524
 20
205.6405920712739
 30
0.0
 10
65.8657357622081
 20
203.1447745676343
 30
0.0
 10
65.00349110587163
 20
199.988588560559
 30
0.0
 10
65.00059492469249
 20
197.1298684346246
 30
0.0
 10
64.99834744707648
 20
194.9114611265028
 30
0.0
 10
65.39856992767024
 20
192.4418140585349
 30
0.0
 10
66.31815465086832
 20
190.4352406367582
 30
0.0
 10
67.30081358612202
 20
188.2910365711511
 30
0.0
 10
68.83203164627231
 20
186.4037212877101
 30
0.0
 10
70.9118088313192
 20
184.773294786435
 30
0.0
  0
SPLINE
  5
BB
330
1F
100
AcDbEntity
  8
0
  6
K5LT32769
 62
    30
420
 16744448
100
AcDbSpline
210
0.0
220
0.0
230
1.0
 70
     8
 71
     3
 72
    11
 73
     7
 74
     0
 42
0.0
 43
0.0
 12
1.0
 22
0.0
 32
0.0
 13
1.0
 23
0.0
 33
0.0
 40
0.0
 40
0.0
 40
0.0
 40
0.0
 40
1.0
 40
1.0
 40
1.0
 40
2.0
 40
2.0
 40
2.0
 40
2.0
 10
70.9118088313192
 20
184.773294786435
 30
0.0
 10
69.23171015300224
 20
181.5256143784701
 30
0.0
 10
67.06735926236821
 20
179.1005255042218
 30
0.0
 10
64.41875615941711
 20
177.4980281636901
 30
0.0
 10
61.56313349403407
 20
175.7702767607941
 30
0.0
 10
58.14460015044272
 20
174.9987327769974
 30
0.0
 10
54.16315612864307
 20
175.1833962123001
 30
0.0
  0
SPLINE
  5
BC
330
1F
100
AcDbEntity
  8
0
  6
K5LT32769
 62
    30
420
 16744448
100
AcDbSpline
210
0.0
220
0.0
230
1.0
 70
     8
 71
     3
 72
    17
 73
    13
 74
     0
 42
0.0
 43
0.0
 12
1.0
 22
0.0
 32
0.0
 13
1.0
 23
0.0
 33
0.0
 40
0.0
 40
0.0
 40
0.0
 40
0.0
 40
1.0
 40
1.0
 40
1.0
 40
2.0
 40
2.0
 40
2.0
 40
3.0
 40
3.0
 40
3.0
 40
4.0
 40
4.0
 40
4.0
 40
4.0
 10
54.16315612864307
 20
175.1833962123001
 30
0.0
 10
55.96567201438651
 20
176.7661622511642
 30
0.0
 10
57.01615857075204
 20
178.4615809487728
 30
0.0
 10
57.31461579773966
 20
180.2696523051257
 30
0.0
 10
57.6345082122785
 20
182.2075792827366
 30
0.0
 10
56.99182319174555
 20
185.1384786860556
 30
0.0
 10
55.68250358917797
 20
186.4716786976602
 30
0.0
 10
54.42729909825626
 20
187.7497766033062
 30
0.0
 10
51.67586948784203
 20
188.604973571662
 30
0.0
 10
49.80689963835585
 20
188.2818395107923
 30
0.0
 10
48.50736581813486
 20
188.0571576408942
 30
0.0
 10
47.25113399699949
 20
187.3845295791839
 30
0.0
 10
46.03820417494975
 20
186.2639553256614
 30
0.0
  0
SPLINE
  5
BD
330
1F
100
AcDbEntity
  8
0
  6
K5LT32769
 62
    30
420
 16744448
100
AcDbSpline
210
0.0
220
0.0
230
1.0
 70
     8
 71
     3
 72
    14
 73
    10
 74
     0
 42
0.0
 43
0.0
 12
1.0
 22
0.0
 32
0.0
 13
1.0
 23
0.0
 33
0.0
 40
0.0
 40
0.0
 40
0.0
 40
0.0
 40
1.0
 40
1.0
 40
1.0
 40
2.0
 40
2.0
 40
2.0
 40
3.0
 40
3.0
 40
3.0
 40
3.0
 10
46.03820417494975
 20
186.2639553256614
 30
0.0
 10
44.60431817765956
 20
187.0431083598842
 30
0.0
 10
43.17992934109661
 20
187.4684466930245
 30
0.0
 10
41.76503766526094
 20
187.5399703250824
 30
0.0
 10
39.47498442836208
 20
187.6557339046597
 30
0.0
 10
36.69652104548717
 20
186.5907351609109
 30
0.0
 10
34.9695159241586
 20
185.1066393959541
 30
0.0
 10
33.56512386137265
 20
183.8997800259504
 30
0.0
 10
32.51661541223605
 20
182.2478846391031
 30
0.0
 10
31.82399057674878
 20
180.1509532354122
 30
0.0
  0
SPLINE
  5
BE
330
1F
100
AcDbEntity
  8
0
  6
K5LT32769
 62
    30
420
 16744448
100
AcDbSpline
210
0.0
220
0.0
230
1.0
 70
     8
 71
     3
 72
    38
 73
    34
 74
     0
 42
0.0
 43
0.0
 12
1.0
 22
0.0
 32
0.0
 13
1.0
 23
0.0
 33
0.0
 40
0.0
 40
0.0
 40
0.0
 40
0.0
 40
1.0
 40
1.0
 40
1.0
 40
2.0
 40
2.0
 40
2.0
 40
3.0
 40
3.0
 40
3.0
 40
4.0
 40
4.0
 40
4.0
 40
5.0
 40
5.0
 40
5.0
 40
6.0
 40
6.0
 40
6.0
 40
7.0
 40
7.0
 40
7.0
 40
8.0
 40
8.0
 40
8.0
 40
9.0
 40
9.0
 40
9.0
 40
10.0
 40
10.0
 40
10.0
 40
11.0
 40
11.0
 40
11.0
 40
11.0
 10
31.82399057674878
 20
180.1509532354122
 30
0.0
 10
33.45460691574154
 20
181.298639432902
 30
0.0
 10
34.95812846544686
 20
181.7536525334707
 30
0.0
 10
36.33455522586475
 20
181.5159925371184
 30
0.0
 10
37.76824268289259
 20
181.2684456529643
 30
0.0
 10
40.26079476846014
 20
180.0268536489761
 30
0.0
 10
40.22194975898443
 20
178.5188410268505
 30
0.0
 10
40.21430411194334
 20
178.2220272945874
 30
0.0
 10
40.11625296312665
 20
177.8826329005933
 30
0.0
 10
40.04390115441406
 20
177.5692484691419
 30
0.0
 10
39.93491934851224
 20
177.0972049654783
 30
0.0
 10
39.64806082897663
 20
176.6377888322206
 30
0.0
 10
39.62845441041654
 20
176.1745344000073
 30
0.0
 10
39.60026084773249
 20
175.5083855654694
 30
0.0
 10
39.8009609608002
 20
174.6416847729073
 30
0.0
 10
40.28129929384122
 20
174.1863249823049
 30
0.0
 10
40.48924309242863
 20
173.9891946721288
 30
0.0
 10
40.85933752215951
 20
173.9272310583339
 30
0.0
 10
41.05284324697948
 20
173.7115287034506
 30
0.0
 10
41.24278656937418
 20
173.4997973865967
 30
0.0
 10
41.36623015352838
 20
173.1859419087601
 30
0.0
 10
41.4386152235486
 20
172.9103099828839
 30
0.0
 10
41.58755712254967
 20
172.3431606735878
 30
0.0
 10
41.3002777257378
 20
171.6921000402563
 30
0.0
 10
41.17154231669305
 20
171.1001491697519
 30
0.0
 10
40.79293335971285
 20
169.3592303089022
 30
0.0
 10
40.02592643177686
 20
167.598909748493
 30
0.0
 10
39.00528429442026
 20
166.1741377766384
 30
0.0
 10
37.91296571119685
 20
164.6493086080686
 30
0.0
 10
36.44652517907092
 20
163.0003066893367
 30
0.0
 10
34.70244301730305
 20
162.3460927783755
 30
0.0
 10
33.92346036794546
 20
162.053892504341
 30
0.0
 10
33.08267529080761
 20
161.8857354889135
 30
0.0
 10
32.18008778588952
 20
161.8416217320928
 30
0.0
  0
SPLINE
  5
BF
330
1F
100
AcDbEntity
  8
0
  6
K5LT32769
 62
    30
420
 16744448
100
AcDbSpline
210
0.0
220
0.0
230
1.0
 70
     8
 71
     3
 72
    29
 73
    25
 74
     0
 42
0.0
 43
0.0
 12
1.0
 22
0.0
 32
0.0
 13
1.0
 23
0.0
 33
0.0
 40
0.0
 40
0.0
 40
0.0
 40
0.0
 40
1.0
 40
1.0
 40
1.0
 40
2.0
 40
2.0
 40
2.0
 40
3.0
 40
3.0
 40
3.0
 40
4.0
 40
4.0
 40
4.0
 40
5.0
 40
5.0
 40
5.0
 40
6.0
 40
6.0
 40
6.0
 40
7.0
 40
7.0
 40
7.0
 40
8.0
 40
8.0
 40
8.0
 40
8.0
 10
32.18008778588952
 20
161.8416217320928
 30
0.0
 10
33.14011175094851
 20
162.4836992202158
 30
0.0
 10
33.67663123663982
 20
163.1835488596293
 30
0.0
 10
33.78964624296346
 20
163.9411706503332
 30
0.0
 10
33.9077250423589
 20
164.7327387292302
 30
0.0
 10
33.36953822083284
 20
166.1014464586939
 30
0.0
 10
32.75696429542024
 20
166.5050706580267
 30
0.0
 10
32.0658508372966
 20
166.9604444580059
 30
0.0
 10
30.38432674903664
 20
166.635382050556
 30
0.0
 10
29.65891845279058
 20
166.148973434736
 30
0.0
 10
28.65524839398064
 20
165.4759817325841
 30
0.0
 10
28.50443057815792
 20
163.3938018436083
 30
0.0
 10
28.4125781712729
 20
162.0182456445631
 30
0.0
 10
28.2653167942134
 20
159.8129000584894
 30
0.0
 10
29.44919890363023
 20
157.4414189989586
 30
0.0
 10
30.46607137830623
 20
155.4126425381078
 30
0.0
 10
31.67382565135537
 20
153.0030351382864
 30
0.0
 10
33.43771704169897
 20
150.6682644993217
 30
0.0
 10
35.4959433725834
 20
148.9163420967122
 30
0.0
 10
36.76127298963286
 20
147.8393180252915
 30
0.0
 10
38.21598448002091
 20
146.8834898252511
 30
0.0
 10
39.72459881596532
 20
146.1541151004487
 30
0.0
 10
40.59198587913736
 20
145.7347566299472
 30
0.0
 10
41.46907464917538
 20
145.3475360165345
 30
0.0
 10
42.42500265194921
 20
145.0858234730266
 30
0.0
  0
SPLINE
  5
C0
330
1F
100
AcDbEntity
  8
0
  6
K5LT32769
 62
    30
420
 16744448
100
AcDbSpline
210
0.0
220
0.0
230
1.0
 70
     8
 71
     3
 72
    11
 73
     7
 74
     0
 42
0.0
 43
0.0
 12
1.0
 22
0.0
 32
0.0
 13
1.0
 23
0.0
 33
0.0
 40
0.0
 40
0.0
 40
0.0
 40
0.0
 40
1.0
 40
1.0
 40
1.0
 40
2.0
 40
2.0
 40
2.0
 40
2.0
 10
42.42500265194921
 20
145.0858234730266
 30
0.0
 10
42.3157339351675
 20
142.8755629160721
 30
0.0
 10
42.74229265618249
 20
140.9545389976693
 30
0.0
 10
43.70467881499416
 20
139.3227517178184
 30
0.0
 10
44.44020392514926
 20
138.0756218544337
 30
0.0
 10
45.48871237428586
 20
136.9974386378687
 30
0.0
 10
46.85020416240398
 20
136.0882020681234
 30
0.0
  0
LINE
  5
C1
330
1F
100
AcDbEntity
  8
0
  6
K5LT32769
 62
    30
420
 16744448
100
AcDbLine
 10
46.85020416240398
 20
136.0882020681234
 30
0.0
 11
46.87956122612273
 21
126.0882451600757
 31
0.0
  0
SPLINE
  5
C2
330
1F
100
AcDbEntity
  8
0
  6
K5LT32769
 62
    30
420
 16744448
100
AcDbSpline
210
0.0
220
0.0
230
1.0
 70
     8
 71
     3
 72
    11
 73
     7
 74
     0
 42
0.0
 43
0.0
 12
1.0
 22
0.0
 32
0.0
 13
1.0
 23
0.0
 33
0.0
 40
0.0
 40
0.0
 40
0.0
 40
0.0
 40
1.0
 40
1.0
 40
1.0
 40
2.0
 40
2.0
 40
2.0
 40
2.0
 10
46.87956122612273
 20
126.0882451600757
 30
0.0
 10
45.47782820913445
 20
125.9534677889196
 30
0.0
 10
44.41323006558817
 20
125.503072485595
 30
0.0
 10
43.68576679548391
 20
124.737059250102
 30
0.0
 10
42.93452445155661
 20
123.9460068325296
 30
0.0
 10
42.54281750593677
 20
122.8183656254422
 30
0.0
 10
42.51064595862438
 20
121.3541356288397
 30
0.0
  0
SPLINE
  5
C3
330
1F
100
AcDbEntity
  8
0
  6
K5LT32769
 62
    30
420
 16744448
100
AcDbSpline
210
0.0
220
0.0
230
1.0
 70
     8
 71
     3
 72
    17
 73
    13
 74
     0
 42
0.0
 43
0.0
 12
1.0
 22
0.0
 32
0.0
 13
1.0
 23
0.0
 33
0.0
 40
0.0
 40
0.0
 40
0.0
 40
0.0
 40
1.0
 40
1.0
 40
1.0
 40
2.0
 40
2.0
 40
2.0
 40
3.0
 40
3.0
 40
3.0
 40
4.0
 40
4.0
 40
4.0
 40
4.0
 10
42.51064595862438
 20
121.3541356288397
 30
0.0
 10
40.32786739169816
 20
120.9187797029708
 30
0.0
 10
38.70169007200366
 20
120.0404065521869
 30
0.0
 10
37.63211399954089
 20
118.719016176488
 30
0.0
 10
36.52056944953564
 20
117.3457765272918
 30
0.0
 10
35.9290363377599
 20
114.9376026437675
 30
0.0
 10
36.1008959393906
 20
113.1638994931521
 30
0.0
 10
36.28813437474563
 20
111.2314767506673
 30
0.0
 10
37.42328964278575
 20
108.6179221503465
 30
0.0
 10
39.09211261503303
 20
107.6443925321452
 30
0.0
 10
39.98977923160602
 20
107.1207270187639
 30
0.0
 10
41.08181071636437
 20
106.8477191475743
 30
0.0
 10
42.36820706930807
 20
106.8253689185765
 30
0.0
  0
SPLINE
  5
C4
330
1F
100
AcDbEntity
  8
0
  6
K5LT32769
 62
    30
420
 16744448
100
AcDbSpline
210
0.0
220
0.0
230
1.0
 70
     8
 71
     3
 72
    11
 73
     7
 74
     0
 42
0.0
 43
0.0
 12
1.0
 22
0.0
 32
0.0
 13
1.0
 23
0.0
 33
0.0
 40
0.0
 40
0.0
 40
0.0
 40
0.0
 40
1.0
 40
1.0
 40
1.0
 40
2.0
 40
2.0
 40
2.0
 40
2.0
 10
42.36820706930807
 20
106.8253689185765
 30
0.0
 10
42.54673245573564
 20
105.205203603851
 30
0.0
 10
43.09274819811482
 20
103.9944730446624
 30
0.0
 10
44.0062542964456
 20
103.1931772410107
 30
0.0
 10
44.87372787800797
 20
102.4322595613643
 30
0.0
 10
46.07258852975355
 20
102.0405526157445
 30
0.0
 10
47.60283625168233
 20
102.0180564041512
 30
0.0
  0
LINE
  5
C5
330
1F
100
AcDbEntity
  8
0
  6
K5LT32769
 62
    30
420
 16744448
100
AcDbLine
 10
47.60283625168233
 20
102.0180564041512
 30
0.0
 11
47.96390438831239
 21
80.97664489611584
 31
0.0
  0
LINE
  5
C6
330
1F
100
AcDbEntity
  8
0
  6
K5LT32769
 62
    30
420
 16744448
100
AcDbLine
 10
219.9750816054571
 20
142.3480365609978
 30
0.0
 11
219.9750816054571
 21
117.9743660000646
 31
0.0
  0
LINE
  5
C7
330
1F
100
AcDbEntity
  8
0
  6
K5LT32769
 62
    30
420
 16744448
100
AcDbLine
 10
222.8459939401506
 20
144.4746382904004
 30
0.0
 11
222.8459939401506
 21
118.3146732167644
 31
0.0
  0
LINE
  5
C8
330
1F
100
AcDbEntity
  8
0
  6
K5LT32769
 62
    30
420
 16744448
100
AcDbLine
 10
226.9928673124857
 20
153.4063655538913
 30
0.0
 11
226.9928673124857
 21
123.2215531726028
 31
0.0
  0
LINE
  5
C9
330
1F
100
AcDbEntity
  8
0
  6
K5LT32769
 62
    30
420
 16744448
100
AcDbLine
 10
297.8087049015922
 20
139.3707941398341
 30
0.0
 11
297.8087049015921
 21
123.4343180596567
 31
0.0
  0
LINE
  5
CA
330
1F
100
AcDbEntity
  8
0
  6
K5LT32769
 62
    30
420
 16744448
100
AcDbLine
 10
301.8492481874571
 20
137.7758428427822
 30
0.0
 11
301.8492481874571
 21
118.7753795734
 31
0.0
  0
LINE
  5
CB
330
1F
100
AcDbEntity
  8
0
  6
K5LT32769
 62
    30
420
 16744448
100
AcDbLine
 10
304.6138304356805
 20
138.3074932751329
 30
0.0
 11
304.6138304356805
 21
118.8050543408284
 31
0.0
  0
LINE
  5
CC
330
1F
100
AcDbEntity
  8
0
  6
K5LT32769
 62
    30
420
 16744448
100
AcDbLine
 10
231.2714117658188
 20
153.3395020438938
 30
0.0
 11
231.2743306918909
 21
74.84848987994225
 31
0.0
  0
LINE
  5
CD
330
1F
100
AcDbEntity
  8
0
  6
K5LT32769
 62
    30
420
 16744448
100
AcDbLine
 10
294.0485621452333
 20
153.3398739241881
 30
0.0
 11
294.0485621452333
 21
74.849675812504
 31
0.0
  0
LINE
  5
CE
330
1F
100
AcDbEntity
  8
0
  6
K5LT32769
 62
    30
420
 16744448
100
AcDbLine
 10
241.274520998686
 20
64.84886176204746
 30
0.0
 11
284.0487524589432
 21
64.84967581431496
 31
0.0
  0
LINE
  5
CF
330
1F
100
AcDbEntity
  8
0
  6
K5LT32769
 62
    30
420
 16744448
100
AcDbLine
 10
241.2714117589041
 20
163.3398739241881
 30
0.0
 11
284.0485621452333
 21
163.3398739241881
 31
0.0
  0
LINE
  5
D0
330
1F
100
AcDbEntity
  8
0
  6
K5LT32769
 62
    30
420
 16744448
100
AcDbLine
 10
244.8073469372981
 20
60.91609796494385
 30
0.0
 11
265.8073469372981
 21
60.91609796494385
 31
0.0
  0
LINE
  5
D1
330
1F
100
AcDbEntity
  8
0
  6
K5LT32769
 62
    30
420
 16744448
100
AcDbLine
 10
252.1618426447546
 20
166.5018752663433
 30
0.0
 11
277.1618426447545
 21
166.5018752663433
 31
0.0
  0
SPLINE
  5
D2
330
1F
100
AcDbEntity
  8
0
  6
K5LT32769
 62
    30
420
 16744448
100
AcDbSpline
210
0.0
220
0.0
230
1.0
 70
     8
 71
     3
 72
    11
 73
     7
 74
     0
 42
0.0
 43
0.0
 12
1.0
 22
0.0
 32
0.0
 13
1.0
 23
0.0
 33
0.0
 40
0.0
 40
0.0
 40
0.0
 40
0.0
 40
1.0
 40
1.0
 40
1.0
 40
2.0
 40
2.0
 40
2.0
 40
2.0
 10
214.5460154872293
 20
58.42012067706104
 30
0.0
 10
215.8621326877133
 20
55.47683848234358
 30
0.0
 10
217.6226774995783
 20
53.04967961550047
 30
0.0
 10
219.8276499228245
 20
51.13864407653174
 30
0.0
 10
222.093266511654
 20
49.17504862595631
 30
0.0
 10
224.8280934038716
 20
47.75635717561844
 30
0.0
 10
228.0321305994772
 20
46.88256972551814
 30
0.0
  0
SPLINE
  5
D3
330
1F
100
AcDbEntity
  8
0
  6
K5LT32769
 62
    30
420
 16744448
100
AcDbSpline
210
0.0
220
0.0
230
1.0
 70
     8
 71
     3
 72
    11
 73
     7
 74
     0
 42
0.0
 43
0.0
 12
1.0
 22
0.0
 32
0.0
 13
1.0
 23
0.0
 33
0.0
 40
0.0
 40
0.0
 40
0.0
 40
0.0
 40
1.0
 40
1.0
 40
1.0
 40
2.0
 40
2.0
 40
2.0
 40
2.0
 10
214.5460154872293
 20
58.42012067706104
 30
0.0
 10
216.5247468909064
 20
56.03053978499712
 30
0.0
 10
218.7980717450622
 20
54.21871696890297
 30
0.0
 10
221.3659900496968
 20
52.9846522287786
 30
0.0
 10
223.4027154674746
 20
52.00586290403324
 30
0.0
 10
225.6247623174014
 20
51.39052685328429
 30
0.0
 10
228.0321305994772
 20
51.13864407653174
 30
0.0
  0
SPLINE
  5
D4
330
1F
100
AcDbEntity
  8
0
  6
K5LT32769
 62
    30
420
 16744448
100
AcDbSpline
210
0.0
220
0.0
230
1.0
 70
     8
 71
     3
 72
    11
 73
     7
 74
     0
 42
0.0
 43
0.0
 12
1.0
 22
0.0
 32
0.0
 13
1.0
 23
0.0
 33
0.0
 40
0.0
 40
0.0
 40
0.0
 40
0.0
 40
1.0
 40
1.0
 40
1.0
 40
2.0
 40
2.0
 40
2.0
 40
2.0
 10
228.0321305994772
 20
51.13864407653174
 30
0.0
 10
227.2851804210472
 20
50.75312799776577
 30
0.0
 10
226.516010357611
 20
50.51383064469673
 30
0.0
 10
225.7246204091686
 20
50.42075201732462
 30
0.0
 10
225.2208443725084
 20
50.36150084527274
 30
0.0
 10
224.7080643302176
 20
50.36150084527274
 30
0.0
 10
224.1862802822962
 20
50.42075201732462
 30
0.0
  0
SPLINE
  5
D5
330
1F
100
AcDbEntity
  8
0
  6
K5LT32769
 62
    30
420
 16744448
100
AcDbSpline
210
0.0
220
0.0
230
1.0
 70
    24
 71
     3
 72
     8
 73
     4
 74
     0
 42
0.0
 43
0.0
 12
1.0
 22
0.0
 32
0.0
 13
1.0
 23
0.0
 33
0.0
 40
0.0
 40
0.0
 40
0.0
 40
0.0
 40
1.0
 40
1.0
 40
1.0
 40
1.0
 10
224.1862802822962
 20
50.42075201732462
 30
0.0
 10
226.7501804937502
 20
48.06196382278696
 30
0.0
 10
225.4682303880232
 20
49.24135792005579
 30
0.0
 10
228.0321305994772
 20
46.88256972551814
 30
0.0
  0
ARC
  5
D6
330
1F
100
AcDbEntity
  8
0
  6
K5LT32769
 62
    30
420
 16744448
100
AcDbCircle
 10
241.2743306849761
 20
74.8488617602365
 30
0.0
 40
10.0
100
AcDbArc
 50
180.0021307171349
 51
270.0010904172357
  0
ARC
  5
D7
330
1F
100
AcDbEntity
  8
0
  6
K5LT32769
 62
    30
420
 16744448
100
AcDbCircle
 10
284.0485621452333
 20
74.849675812504
 30
0.0
 40
10.0
100
AcDbArc
 50
270.0010904172357
 51
0.0
  0
ARC
  5
D8
330
1F
100
AcDbEntity
  8
0
  6
K5LT32769
 62
    30
420
 16744448
100
AcDbCircle
 10
284.0485621452333
 20
153.3398739241881
 30
0.0
 40
10.0
100
AcDbArc
 50
0.0
 51
90.0
  0
ARC
  5
D9
330
1F
100
AcDbEntity
  8
0
  6
K5LT32769
 62
    30
420
 16744448
100
AcDbCircle
 10
241.2714117589041
 20
153.3398739241881
 30
0.0
 40
10.0
100
AcDbArc
 50
90.0
 51
180.002130717135
  0
SPLINE
  5
DA
330
1F
100
AcDbEntity
  8
0
  6
K5LT32769
 62
    30
420
 16744448
100
AcDbSpline
210
0.0
220
0.0
230
1.0
 70
     8
 71
     3
 72
    23
 73
    19
 74
     0
 42
0.0
 43
0.0
 12
1.0
 22
0.0
 32
0.0
 13
1.0
 23
0.0
 33
0.0
 40
0.0
 40
0.0
 40
0.0
 40
0.0
 40
1.0
 40
1.0
 40
1.0
 40
2.0
 40
2.0
 40
2.0
 40
3.0
 40
3.0
 40
3.0
 40
4.0
 40
4.0
 40
4.0
 40
5.0
 40
5.0
 40
5.0
 40
6.0
 40
6.0
 40
6.0
 40
6.0
 10
219.9750816054571
 20
80.3480365609978
 30
0.0
 10
216.1017467160293
 20
78.39029808411102
 30
0.0
 10
213.3367672241205
 20
75.859197793337
 30
0.0
 10
211.6801431297308
 20
72.75473568867574
 30
0.0
 10
209.9040523164071
 20
69.4263966628984
 30
0.0
 10
209.4888352487914
 20
64.52731274844868
 30
0.0
 10
210.1738002979273
 20
60.79260143611864
 30
0.0
 10
210.9801616094569
 20
56.39598774642199
 30
0.0
 10
214.1344954084399
 20
51.52190203935151
 30
0.0
 10
217.5282976532031
 20
48.65325037981998
 30
0.0
 10
221.4612063439645
 20
45.32891259321284
 30
0.0
 10
228.0011977943896
 20
45.37636686703917
 30
0.0
 10
233.1233763824628
 20
43.42535466944317
 30
0.0
 10
234.8450791864609
 20
42.76956668519423
 30
0.0
 10
236.6825108898994
 20
42.29130076470671
 30
0.0
 10
238.2626636909688
 20
41.38736142641493
 30
0.0
 10
240.1693173194679
 20
40.29664461843869
 30
0.0
 10
241.8824130889699
 20
38.878910188506
 30
0.0
 10
243.4019509994748
 20
37.13415813661686
 30
0.0
  0
SPLINE
  5
DB
330
1F
100
AcDbEntity
  8
0
  6
K5LT32769
 62
    30
420
 16744448
100
AcDbSpline
210
0.0
220
0.0
230
1.0
 70
     8
 71
     3
 72
    11
 73
     7
 74
     0
 42
0.0
 43
0.0
 12
1.0
 22
0.0
 32
0.0
 13
1.0
 23
0.0
 33
0.0
 40
0.0
 40
0.0
 40
0.0
 40
0.0
 40
1.0
 40
1.0
 40
1.0
 40
2.0
 40
2.0
 40
2.0
 40
2.0
 10
243.4019509994748
 20
37.13415813661686
 30
0.0
 10
242.7716901768978
 20
39.02224423176483
 30
0.0
 10
241.9151422921468
 20
40.76487613522377
 30
0.0
 10
240.8323073452217
 20
42.36205384699366
 30
0.0
 10
240.1300167998868
 20
43.39792991414588
 30
0.0
 10
239.3325411830496
 20
44.3726223347246
 30
0.0
 10
238.4398804947103
 20
45.28613110872983
 30
0.0
  0
SPLINE
  5
DC
330
1F
100
AcDbEntity
  8
0
  6
K5LT32769
 62
    30
420
 16744448
100
AcDbSpline
210
0.0
220
0.0
230
1.0
 70
    24
 71
     3
 72
     8
 73
     4
 74
     0
 42
0.0
 43
0.0
 12
1.0
 22
0.0
 32
0.0
 13
1.0
 23
0.0
 33
0.0
 40
0.0
 40
0.0
 40
0.0
 40
0.0
 40
1.0
 40
1.0
 40
1.0
 40
1.0
 10
238.4398804947103
 20
45.28613110872983
 30
0.0
 10
240.6846266754371
 20
48.00345543276749
 30
0.0
 10
239.5622535850737
 20
46.64479327074866
 30
0.0
 10
241.8069997658005
 20
49.36211759478632
 30
0.0
  0
SPLINE
  5
DD
330
1F
100
AcDbEntity
  8
0
  6
K5LT32769
 62
    30
420
 16744448
100
AcDbSpline
210
0.0
220
0.0
230
1.0
 70
     8
 71
     3
 72
    11
 73
     7
 74
     0
 42
0.0
 43
0.0
 12
1.0
 22
0.0
 32
0.0
 13
1.0
 23
0.0
 33
0.0
 40
0.0
 40
0.0
 40
0.0
 40
0.0
 40
1.0
 40
1.0
 40
1.0
 40
2.0
 40
2.0
 40
2.0
 40
2.0
 10
241.8069997658005
 20
49.36211759478632
 30
0.0
 10
240.0280153210511
 20
48.5427596087074
 30
0.0
 10
238.2197462873468
 20
48.06443947907749
 30
0.0
 10
236.3821926646876
 20
47.92715720589658
 30
0.0
 10
234.7640064103541
 20
47.80626370668893
 30
0.0
 10
233.1231102098203
 20
47.94984212423565
 30
0.0
 10
231.4595040630859
 20
48.35789245853674
 30
0.0
  0
SPLINE
  5
DE
330
1F
100
AcDbEntity
  8
0
  6
K5LT32769
 62
    30
420
 16744448
100
AcDbSpline
210
0.0
220
0.0
230
1.0
 70
    24
 71
     3
 72
     8
 73
     4
 74
     0
 42
0.0
 43
0.0
 12
1.0
 22
0.0
 32
0.0
 13
1.0
 23
0.0
 33
0.0
 40
0.0
 40
0.0
 40
0.0
 40
0.0
 40
1.0
 40
1.0
 40
1.0
 40
1.0
 10
231.4595040630859
 20
48.35789245853674
 30
0.0
 10
232.6206644849733
 20
49.84039821131609
 30
0.0
 10
232.0400842740296
 20
49.0991453349264
 30
0.0
 10
233.201244695917
 20
50.58165108770576
 30
0.0
  0
SPLINE
  5
DF
330
1F
100
AcDbEntity
  8
0
  6
K5LT32769
 62
    30
420
 16744448
100
AcDbSpline
210
0.0
220
0.0
230
1.0
 70
     8
 71
     3
 72
    11
 73
     7
 74
     0
 42
0.0
 43
0.0
 12
1.0
 22
0.0
 32
0.0
 13
1.0
 23
0.0
 33
0.0
 40
0.0
 40
0.0
 40
0.0
 40
0.0
 40
1.0
 40
1.0
 40
1.0
 40
2.0
 40
2.0
 40
2.0
 40
2.0
 10
233.201244695917
 20
50.58165108770576
 30
0.0
 10
232.2232896619217
 20
50.40909787926394
 30
0.0
 10
231.2974368445757
 20
50.45182954775684
 30
0.0
 10
230.4236862438788
 20
50.70984609318445
 30
0.0
 10
229.9069254107395
 20
50.8624443802386
 30
0.0
 10
229.4083892783225
 20
51.09034661220071
 30
0.0
 10
228.9280778466274
 20
51.39355278907078
 30
0.0
  0
SPLINE
  5
E0
330
1F
100
AcDbEntity
  8
0
  6
K5LT32769
 62
    30
420
 16744448
100
AcDbSpline
210
0.0
220
0.0
230
1.0
 70
     8
 71
     3
 72
    11
 73
     7
 74
     0
 42
0.0
 43
0.0
 12
1.0
 22
0.0
 32
0.0
 13
1.0
 23
0.0
 33
0.0
 40
0.0
 40
0.0
 40
0.0
 40
0.0
 40
1.0
 40
1.0
 40
1.0
 40
2.0
 40
2.0
 40
2.0
 40
2.0
 10
228.9280778466274
 20
51.39355278907078
 30
0.0
 10
229.9632951069014
 20
51.58122237661294
 30
0.0
 10
230.8606601452522
 20
51.965807393049
 30
0.0
 10
231.6201729616799
 20
52.54730783837896
 30
0.0
 10
232.1218861659367
 20
52.93143098336478
 30
0.0
 10
232.5634467403632
 20
53.40147933678664
 30
0.0
 10
232.9448546849596
 20
53.95745289864452
 30
0.0
  0
SPLINE
  5
E1
330
1F
100
AcDbEntity
  8
0
  6
K5LT32769
 62
    30
420
 16744448
100
AcDbSpline
210
0.0
220
0.0
230
1.0
 70
     8
 71
     3
 72
    29
 73
    25
 74
     0
 42
0.0
 43
0.0
 12
1.0
 22
0.0
 32
0.0
 13
1.0
 23
0.0
 33
0.0
 40
0.0
 40
0.0
 40
0.0
 40
0.0
 40
1.0
 40
1.0
 40
1.0
 40
2.0
 40
2.0
 40
2.0
 40
3.0
 40
3.0
 40
3.0
 40
4.0
 40
4.0
 40
4.0
 40
5.0
 40
5.0
 40
5.0
 40
6.0
 40
6.0
 40
6.0
 40
7.0
 40
7.0
 40
7.0
 40
8.0
 40
8.0
 40
8.0
 40
8.0
 10
232.9448546849596
 20
53.95745289864452
 30
0.0
 10
233.1639643042281
 20
52.76048912924264
 30
0.0
 10
233.6197687681523
 20
51.86312409089182
 30
0.0
 10
234.3122680767323
 20
51.26535778359209
 30
0.0
 10
235.1489734080007
 20
50.54311264923101
 30
0.0
 10
236.8138014901221
 20
50.13110705814693
 30
0.0
 10
237.8589965616426
 20
50.41072441373417
 30
0.0
 10
238.8137397882992
 20
50.66614350589862
 30
0.0
 10
240.070325612913
 20
51.65918129477496
 30
0.0
 10
240.3801650027235
 20
52.59003950687186
 30
0.0
 10
240.6403555076513
 20
53.37173633492805
 30
0.0
 10
240.5918480059618
 20
54.78451872648585
 30
0.0
 10
240.0383116547803
 20
55.36759795891007
 30
0.0
 10
239.6396236850638
 20
55.78756437098561
 30
0.0
 10
238.7189213163413
 20
56.22503394216169
 30
0.0
 10
238.1581182410929
 20
56.0940363232893
 30
0.0
 10
237.6903374855319
 20
55.98476772645488
 30
0.0
 10
237.0281317517276
 20
55.45241329237393
 30
0.0
 10
236.8923877180184
 20
54.98736704640763
 30
0.0
 10
236.774135367893
 20
54.5822456572766
 30
0.0
 10
236.9121216047115
 20
53.86727015450256
 30
0.0
 10
237.1891353805107
 20
53.55308667769508
 30
0.0
 10
237.486596931148
 20
53.21571174417002
 30
0.0
 10
237.9894193592598
 20
53.0673379129239
 30
0.0
 10
238.6976026648463
 20
53.1079651839567
 30
0.0
  0
SPLINE
  5
E2
330
1F
100
AcDbEntity
  8
0
  6
K5LT32769
 62
    30
420
 16744448
100
AcDbSpline
210
0.0
220
0.0
230
1.0
 70
     8
 71
     3
 72
    32
 73
    28
 74
     0
 42
0.0
 43
0.0
 12
1.0
 22
0.0
 32
0.0
 13
1.0
 23
0.0
 33
0.0
 40
0.0
 40
0.0
 40
0.0
 40
0.0
 40
1.0
 40
1.0
 40
1.0
 40
2.0
 40
2.0
 40
2.0
 40
3.0
 40
3.0
 40
3.0
 40
4.0
 40
4.0
 40
4.0
 40
5.0
 40
5.0
 40
5.0
 40
6.0
 40
6.0
 40
6.0
 40
7.0
 40
7.0
 40
7.0
 40
8.0
 40
8.0
 40
8.0
 40
9.0
 40
9.0
 40
9.0
 40
9.0
 10
238.6976026648463
 20
53.1079651839567
 30
0.0
 10
238.3271298334019
 20
52.5432371295668
 30
0.0
 10
237.9314662834122
 20
52.23000348582498
 30
0.0
 10
237.5106120148773
 20
52.16826425273124
 30
0.0
 10
237.0248621054349
 20
52.09700484270144
 30
0.0
 10
236.313799546128
 20
52.56056130706187
 30
0.0
 10
235.952686786793
 20
52.95959135271058
 30
0.0
 10
235.5389584481165
 20
53.41676167860054
 30
0.0
 10
235.3548483158987
 20
54.25238806261715
 30
0.0
 10
235.3344624899341
 20
54.86372218703586
 30
0.0
 10
235.2930359072461
 20
56.10603062718461
 30
0.0
 10
236.5466541537007
 20
57.61459275341415
 30
0.0
 10
237.5106120148773
 20
58.3010492775711
 30
0.0
 10
239.0886333564301
 20
59.42479450419932
 30
0.0
 10
242.1801097240916
 20
58.71752707599642
 30
0.0
 10
244.1627054490786
 20
57.9795726432045
 30
0.0
 10
246.1448911091037
 20
57.24177084327287
 30
0.0
 10
248.5626566499217
 20
55.75598233897225
 30
0.0
 10
249.4052474864417
 20
53.87456331206168
 30
0.0
 10
249.9319568216204
 20
52.6984753202323
 30
0.0
 10
250.4427230522815
 20
50.91691084347694
 30
0.0
 10
249.9245558958031
 20
49.74482500904451
 30
0.0
 10
249.6427211620152
 20
49.1073193412426
 30
0.0
 10
249.1053428877702
 20
48.27893474494456
 30
0.0
 10
248.4655465552162
 20
48.01379697783971
 30
0.0
 10
247.9898555099257
 20
47.81666602356145
 30
0.0
 10
247.4293321474403
 20
47.79193705168709
 30
0.0
 10
246.7839764677601
 20
47.93961006221664
 30
0.0
  0
SPLINE
  5
E3
330
1F
100
AcDbEntity
  8
0
  6
K5LT32769
 62
    30
420
 16744448
100
AcDbSpline
210
0.0
220
0.0
230
1.0
 70
     8
 71
     3
 72
    29
 73
    25
 74
     0
 42
0.0
 43
0.0
 12
1.0
 22
0.0
 32
0.0
 13
1.0
 23
0.0
 33
0.0
 40
0.0
 40
0.0
 40
0.0
 40
0.0
 40
1.0
 40
1.0
 40
1.0
 40
2.0
 40
2.0
 40
2.0
 40
3.0
 40
3.0
 40
3.0
 40
4.0
 40
4.0
 40
4.0
 40
5.0
 40
5.0
 40
5.0
 40
6.0
 40
6.0
 40
6.0
 40
7.0
 40
7.0
 40
7.0
 40
8.0
 40
8.0
 40
8.0
 40
8.0
 10
246.7839764677601
 20
47.93961006221664
 30
0.0
 10
247.6962520634611
 20
48.18831874316728
 30
0.0
 10
248.2705134171992
 20
48.59359924848201
 30
0.0
 10
248.5067605289745
 20
49.15545157816087
 30
0.0
 10
248.7153755590179
 20
49.65158818594864
 30
0.0
 10
248.6261228723885
 20
50.54301439517042
 30
0.0
 10
248.3419007230298
 20
51.01012439503937
 30
0.0
 10
248.0167889413168
 20
51.54443519613606
 30
0.0
 10
247.0529977570959
 20
52.06327979596205
 30
0.0
 10
246.4666204304082
 20
52.01989070645099
 30
0.0
 10
245.8302775302543
 20
51.97280440587647
 30
0.0
 10
245.0326891927346
 20
51.14965578533077
 30
0.0
 10
244.694377516502
 20
50.53615245294819
 30
0.0
 10
244.247952734564
 20
49.72659395816864
 30
0.0
 10
244.3324923423599
 20
48.37209368414462
 30
0.0
 10
244.673770040759
 20
47.48624604297022
 30
0.0
 10
245.0004568540956
 20
46.63827166798303
 30
0.0
 10
245.8028955412531
 20
45.61937311270191
 30
0.0
 10
246.6108727606098
 20
45.30185361420222
 30
0.0
 10
247.4127283165501
 20
44.98673981161995
 30
0.0
 10
248.6666195039019
 20
45.17333875104663
 30
0.0
 10
249.495919364643
 20
45.56975079886244
 30
0.0
 10
250.147876889279
 20
45.88139177417732
 30
0.0
 10
250.7180170515046
 20
46.38284035059262
 30
0.0
 10
251.2063398513199
 20
47.07409652810833
 30
0.0
  0
SPLINE
  5
E4
330
1F
100
AcDbEntity
  8
0
  6
K5LT32769
 62
    30
420
 16744448
100
AcDbSpline
210
0.0
220
0.0
230
1.0
 70
     8
 71
     3
 72
    32
 73
    28
 74
     0
 42
0.0
 43
0.0
 12
1.0
 22
0.0
 32
0.0
 13
1.0
 23
0.0
 33
0.0
 40
0.0
 40
0.0
 40
0.0
 40
0.0
 40
1.0
 40
1.0
 40
1.0
 40
2.0
 40
2.0
 40
2.0
 40
3.0
 40
3.0
 40
3.0
 40
4.0
 40
4.0
 40
4.0
 40
5.0
 40
5.0
 40
5.0
 40
6.0
 40
6.0
 40
6.0
 40
7.0
 40
7.0
 40
7.0
 40
8.0
 40
8.0
 40
8.0
 40
9.0
 40
9.0
 40
9.0
 40
9.0
 10
251.2063398513199
 20
47.07409652810833
 30
0.0
 10
250.6346919863671
 20
45.909735646321
 30
0.0
 10
250.335120770026
 20
44.75084770347516
 30
0.0
 10
250.3076262022966
 20
43.5974326995708
 30
0.0
 10
250.2698896601959
 20
42.01436020747866
 30
0.0
 10
250.8173682528794
 20
40.13032054088438
 30
0.0
 10
251.7320150388595
 20
38.87914467845609
 30
0.0
 10
252.6469933387273
 20
37.62751532711749
 30
0.0
 10
254.3715826709875
 20
36.26305338027008
 30
0.0
 10
255.7974581765496
 20
36.089716540187
 30
0.0
 10
257.37290113428
 20
35.89819750296466
 30
0.0
 10
259.8275589052943
 20
36.99852991187181
 30
0.0
 10
260.7828191045198
 20
38.28564932988819
 30
0.0
 10
261.644330944887
 20
39.44645203001813
 30
0.0
 10
262.2072431447428
 20
41.85570573277281
 30
0.0
 10
261.6433873599432
 20
43.12263642071648
 30
0.0
 10
261.1358268770716
 20
44.26307688275077
 30
0.0
 10
259.3345032831061
 20
45.67573611428661
 30
0.0
 10
258.0527405011075
 20
45.7043411869868
 30
0.0
 10
257.0825382605536
 20
45.72599316972079
 30
0.0
 10
255.6209257115775
 20
45.14117307279149
 30
0.0
 10
254.9962394559829
 20
44.33930188528065
 30
0.0
 10
254.5162091568968
 20
43.7231166202424
 30
0.0
 10
254.1578288554896
 20
42.65212048608451
 30
0.0
 10
254.254370270273
 20
41.87629618872391
 30
0.0
 10
254.3538914519094
 20
41.07652594515808
 30
0.0
 10
254.8187961416209
 20
40.32476517030543
 30
0.0
 10
255.6490843394076
 20
39.62101386416594
 30
0.0
  0
SPLINE
  5
E5
330
1F
100
AcDbEntity
  8
0
  6
K5LT32769
 62
    30
420
 16744448
100
AcDbSpline
210
0.0
220
0.0
230
1.0
 70
     8
 71
     3
 72
    35
 73
    31
 74
     0
 42
0.0
 43
0.0
 12
1.0
 22
0.0
 32
0.0
 13
1.0
 23
0.0
 33
0.0
 40
0.0
 40
0.0
 40
0.0
 40
0.0
 40
1.0
 40
1.0
 40
1.0
 40
2.0
 40
2.0
 40
2.0
 40
3.0
 40
3.0
 40
3.0
 40
4.0
 40
4.0
 40
4.0
 40
5.0
 40
5.0
 40
5.0
 40
6.0
 40
6.0
 40
6.0
 40
7.0
 40
7.0
 40
7.0
 40
8.0
 40
8.0
 40
8.0
 40
9.0
 40
9.0
 40
9.0
 40
10.0
 40
10.0
 40
10.0
 40
10.0
 10
255.6490843394076
 20
39.62101386416594
 30
0.0
 10
254.7670653007063
 20
39.6416804771977
 30
0.0
 10
254.094437238996
 20
39.84940384919646
 30
0.0
 10
253.6312001542768
 20
40.24418398016222
 30
0.0
 10
252.8958859336384
 20
40.87083381865804
 30
0.0
 10
252.941018622118
 20
42.46328373044166
 30
0.0
 10
253.0080300382805
 20
43.538083164714
 30
0.0
 10
253.086482966892
 20
44.79639358579558
 30
0.0
 10
253.7285100544591
 20
46.11178605933459
 30
0.0
 10
254.3730693399866
 20
47.21775432583491
 30
0.0
 10
255.3035424260935
 20
48.81430832664265
 30
0.0
 10
256.7453778629602
 20
50.5196700126825
 30
0.0
 10
258.3494881753915
 20
51.25352269609655
 30
0.0
 10
259.9657858857582
 20
51.99295090297024
 30
0.0
 10
262.3809818623804
 20
52.14091845143272
 30
0.0
 10
264.0470435216432
 20
51.60961990523729
 30
0.0
 10
266.0139700655621
 20
50.98237708535288
 30
0.0
 10
267.2857062567033
 20
48.49164959212395
 30
0.0
 10
268.9730549147567
 20
47.01003095383615
 30
0.0
 10
270.5930450782521
 20
45.58755812427472
 30
0.0
 10
272.1112857828936
 20
43.92660092539769
 30
0.0
 10
273.9584158427269
 20
42.88523828128933
 30
0.0
 10
275.9327148982624
 20
41.77218115042407
 30
0.0
 10
278.2873796386053
 20
40.88332049019024
 30
0.0
 10
280.516539444402
 20
40.68930549158814
 30
0.0
 10
282.8720504528516
 20
40.48429351181748
 30
0.0
 10
285.4885271632284
 20
41.02223903936734
 30
0.0
 10
287.7275079295019
 20
41.87629618872391
 30
0.0
 10
289.5363405420605
 20
42.5662737213653
 30
0.0
 10
291.2376938746218
 20
43.55543263564512
 30
0.0
 10
292.8315679271857
 20
44.84377293156336
 30
0.0
  0
SPLINE
  5
E6
330
1F
100
AcDbEntity
  8
0
  6
K5LT32769
 62
    30
420
 16744448
100
AcDbSpline
210
0.0
220
0.0
230
1.0
 70
     8
 71
     3
 72
    11
 73
     7
 74
     0
 42
0.0
 43
0.0
 12
1.0
 22
0.0
 32
0.0
 13
1.0
 23
0.0
 33
0.0
 40
0.0
 40
0.0
 40
0.0
 40
0.0
 40
1.0
 40
1.0
 40
1.0
 40
2.0
 40
2.0
 40
2.0
 40
2.0
 10
244.8073469372981
 20
60.91609796494385
 30
0.0
 10
247.7391788359994
 20
60.21109526699826
 30
0.0
 10
249.8497419398404
 20
58.93601920116627
 30
0.0
 10
251.1390362488211
 20
57.09086976744788
 30
0.0
 10
252.446355830154
 20
55.21992380237006
 30
0.0
 10
252.909282220432
 20
52.76285296166378
 30
0.0
 10
252.5278154196551
 20
49.71965724532905
 30
0.0
  0
SPLINE
  5
E7
330
1F
100
AcDbEntity
  8
0
  6
K5LT32769
 62
    30
420
 16744448
100
AcDbSpline
210
0.0
220
0.0
230
1.0
 70
     8
 71
     3
 72
    11
 73
     7
 74
     0
 42
0.0
 43
0.0
 12
1.0
 22
0.0
 32
0.0
 13
1.0
 23
0.0
 33
0.0
 40
0.0
 40
0.0
 40
0.0
 40
0.0
 40
1.0
 40
1.0
 40
1.0
 40
2.0
 40
2.0
 40
2.0
 40
2.0
 10
265.8073469372981
 20
60.91609796494385
 30
0.0
 10
262.6793222126792
 20
59.97086446343884
 30
0.0
 10
259.9858181934799
 20
58.51773978596147
 30
0.0
 10
257.7268348797003
 20
56.55672393251173
 30
0.0
 10
255.6135515438092
 20
54.72218974218183
 30
0.0
 10
253.8805450571275
 20
52.44316751312093
 30
0.0
 10
252.5278154196551
 20
49.71965724532905
 30
0.0
  0
SPLINE
  5
E8
330
1F
100
AcDbEntity
  8
0
  6
K5LT32769
 62
    30
420
 16744448
100
AcDbSpline
210
0.0
220
0.0
230
1.0
 70
     8
 71
     3
 72
    11
 73
     7
 74
     0
 42
0.0
 43
0.0
 12
1.0
 22
0.0
 32
0.0
 13
1.0
 23
0.0
 33
0.0
 40
0.0
 40
0.0
 40
0.0
 40
0.0
 40
1.0
 40
1.0
 40
1.0
 40
2.0
 40
2.0
 40
2.0
 40
2.0
 10
270.7243835298132
 20
60.04647672076123
 30
0.0
 10
268.0187930459126
 20
59.6619194149588
 30
0.0
 10
265.5498522977633
 20
58.84289580139004
 30
0.0
 10
263.3175612853653
 20
57.58940588005495
 30
0.0
 10
261.3830997788028
 20
56.50315503362889
 30
0.0
 10
259.6263534772351
 20
55.09063604790886
 30
0.0
 10
258.047322380662
 20
53.35184892289486
 30
0.0
  0
SPLINE
  5
E9
330
1F
100
AcDbEntity
  8
0
  6
K5LT32769
 62
    30
420
 16744448
100
AcDbSpline
210
0.0
220
0.0
230
1.0
 70
     8
 71
     3
 72
    11
 73
     7
 74
     0
 42
0.0
 43
0.0
 12
1.0
 22
0.0
 32
0.0
 13
1.0
 23
0.0
 33
0.0
 40
0.0
 40
0.0
 40
0.0
 40
0.0
 40
1.0
 40
1.0
 40
1.0
 40
2.0
 40
2.0
 40
2.0
 40
2.0
 10
258.047322380662
 20
53.35184892289486
 30
0.0
 10
259.4036623124464
 20
54.00357814277895
 30
0.0
 10
260.7568317609513
 20
54.30032582885458
 30
0.0
 10
262.1068307261767
 20
54.24209198112177
 30
0.0
 10
263.1056384424218
 20
54.19900719516235
 30
0.0
 10
264.1027106676359
 20
53.96160904630184
 30
0.0
 10
265.0980474018191
 20
53.52989753454024
 30
0.0
  0
SPLINE
  5
EA
330
1F
100
AcDbEntity
  8
0
  6
K5LT32769
 62
    30
420
 16744448
100
AcDbSpline
210
0.0
220
0.0
230
1.0
 70
     8
 71
     3
 72
    11
 73
     7
 74
     0
 42
0.0
 43
0.0
 12
1.0
 22
0.0
 32
0.0
 13
1.0
 23
0.0
 33
0.0
 40
0.0
 40
0.0
 40
0.0
 40
0.0
 40
1.0
 40
1.0
 40
1.0
 40
2.0
 40
2.0
 40
2.0
 40
2.0
 10
265.0980474018191
 20
53.52989753454024
 30
0.0
 10
266.5472250912222
 20
54.52618083521109
 30
0.0
 10
267.7935653727399
 20
55.68943176462759
 30
0.0
 10
268.8370682463722
 20
57.01965032278972
 30
0.0
 10
269.5648339909433
 20
57.94737896052064
 30
0.0
 10
270.1939390854236
 20
58.95632109317781
 30
0.0
 10
270.7243835298132
 20
60.04647672076123
 30
0.0
  0
SPLINE
  5
EB
330
1F
100
AcDbEntity
  8
0
  6
K5LT32769
 62
    30
420
 16744448
100
AcDbSpline
210
0.0
220
0.0
230
1.0
 70
     8
 71
     3
 72
    11
 73
     7
 74
     0
 42
0.0
 43
0.0
 12
1.0
 22
0.0
 32
0.0
 13
1.0
 23
0.0
 33
0.0
 40
0.0
 40
0.0
 40
0.0
 40
0.0
 40
1.0
 40
1.0
 40
1.0
 40
2.0
 40
2.0
 40
2.0
 40
2.0
 10
269.3375348257402
 20
50.88958742769499
 30
0.0
 10
270.6261847829956
 20
48.78065941291717
 30
0.0
 10
272.216752380361
 20
47.11887237089359
 30
0.0
 10
274.1092376178365
 20
45.90422630162428
 30
0.0
 10
275.6343078075597
 20
44.9253967315833
 30
0.0
 10
277.3554443867984
 20
44.23694209988783
 30
0.0
 10
279.2726473555526
 20
43.83886240653785
 30
0.0
  0
SPLINE
  5
EC
330
1F
100
AcDbEntity
  8
0
  6
K5LT32769
 62
    30
420
 16744448
100
AcDbSpline
210
0.0
220
0.0
230
1.0
 70
     8
 71
     3
 72
    11
 73
     7
 74
     0
 42
0.0
 43
0.0
 12
1.0
 22
0.0
 32
0.0
 13
1.0
 23
0.0
 33
0.0
 40
0.0
 40
0.0
 40
0.0
 40
0.0
 40
1.0
 40
1.0
 40
1.0
 40
2.0
 40
2.0
 40
2.0
 40
2.0
 10
269.3375348257402
 20
50.88958742769499
 30
0.0
 10
271.4676123646723
 20
50.08582675592565
 30
0.0
 10
273.4142771853284
 20
49.02940499349639
 30
0.0
 10
275.1775292877088
 20
47.72032214040718
 30
0.0
 10
276.6748247169839
 20
46.60869223233734
 30
0.0
 10
278.0398640729319
 20
45.31487232104756
 30
0.0
 10
279.2726473555526
 20
43.83886240653785
 30
0.0
  0
SPLINE
  5
ED
330
1F
100
AcDbEntity
  8
0
  6
K5LT32769
 62
    30
420
 16744448
100
AcDbSpline
210
0.0
220
0.0
230
1.0
 70
     8
 71
     3
 72
    11
 73
     7
 74
     0
 42
0.0
 43
0.0
 12
1.0
 22
0.0
 32
0.0
 13
1.0
 23
0.0
 33
0.0
 40
0.0
 40
0.0
 40
0.0
 40
0.0
 40
1.0
 40
1.0
 40
1.0
 40
2.0
 40
2.0
 40
2.0
 40
2.0
 10
267.1554499485163
 20
53.14684918290289
 30
0.0
 10
267.8443673189412
 20
52.80664438529051
 30
0.0
 10
268.5532645126727
 20
52.58408363842132
 30
0.0
 10
269.2821415297108
 20
52.47916694229532
 30
0.0
 10
269.7837445041295
 20
52.40696473861378
 30
0.0
 10
270.2948099228661
 20
52.39047875736422
 30
0.0
 10
270.8153377859207
 20
52.42970899854662
 30
0.0
  0
SPLINE
  5
EE
330
1F
100
AcDbEntity
  8
0
  6
K5LT32769
 62
    30
420
 16744448
100
AcDbSpline
210
0.0
220
0.0
230
1.0
 70
    24
 71
     3
 72
     8
 73
     4
 74
     0
 42
0.0
 43
0.0
 12
1.0
 22
0.0
 32
0.0
 13
1.0
 23
0.0
 33
0.0
 40
0.0
 40
0.0
 40
0.0
 40
0.0
 40
1.0
 40
1.0
 40
1.0
 40
1.0
 10
267.1554499485163
 20
53.14684918290289
 30
0.0
 10
269.6613190984509
 20
55.37245665159477
 30
0.0
 10
268.4083845234836
 20
54.25965291724883
 30
0.0
 10
270.9142536734182
 20
56.48526038594072
 30
0.0
  0
SPLINE
  5
EF
330
1F
100
AcDbEntity
  8
0
  6
K5LT32769
 62
    30
420
 16744448
100
AcDbSpline
210
0.0
220
0.0
230
1.0
 70
    24
 71
     3
 72
     8
 73
     4
 74
     0
 42
0.0
 43
0.0
 12
1.0
 22
0.0
 32
0.0
 13
1.0
 23
0.0
 33
0.0
 40
0.0
 40
0.0
 40
0.0
 40
0.0
 40
1.0
 40
1.0
 40
1.0
 40
1.0
 10
270.9142536734182
 20
56.48526038594072
 30
0.0
 10
272.4474499296281
 20
55.10043796097688
 30
0.0
 10
271.6808518015231
 20
55.7928491734588
 30
0.0
 10
273.2140480577331
 20
54.40802674849496
 30
0.0
  0
SPLINE
  5
F0
330
1F
100
AcDbEntity
  8
0
  6
K5LT32769
 62
    30
420
 16744448
100
AcDbSpline
210
0.0
220
0.0
230
1.0
 70
    24
 71
     3
 72
     8
 73
     4
 74
     0
 42
0.0
 43
0.0
 12
1.0
 22
0.0
 32
0.0
 13
1.0
 23
0.0
 33
0.0
 40
0.0
 40
0.0
 40
0.0
 40
0.0
 40
1.0
 40
1.0
 40
1.0
 40
1.0
 10
273.2140480577331
 20
54.40802674849496
 30
0.0
 10
271.6149078765249
 20
53.0891482485294
 30
0.0
 10
272.414477967129
 20
53.74858749851219
 30
0.0
 10
270.8153377859207
 20
52.42970899854662
 30
0.0
  0
SPLINE
  5
F1
330
1F
100
AcDbEntity
  8
0
  6
K5LT32769
 62
    30
420
 16744448
100
AcDbSpline
210
0.0
220
0.0
230
1.0
 70
    24
 71
     3
 72
     8
 73
     4
 74
     0
 42
0.0
 43
0.0
 12
1.0
 22
0.0
 32
0.0
 13
1.0
 23
0.0
 33
0.0
 40
0.0
 40
0.0
 40
0.0
 40
0.0
 40
1.0
 40
1.0
 40
1.0
 40
1.0
 10
273.0162162827383
 20
58.21628841714552
 30
0.0
 10
274.5329265576987
 20
56.7655220671834
 30
0.0
 10
273.7745714202185
 20
57.49090524216447
 30
0.0
 10
275.2912816951789
 20
56.04013889220234
 30
0.0
  0
SPLINE
  5
F2
330
1F
100
AcDbEntity
  8
0
  6
K5LT32769
 62
    30
420
 16744448
100
AcDbSpline
210
0.0
220
0.0
230
1.0
 70
    24
 71
     3
 72
     8
 73
     4
 74
     0
 42
0.0
 43
0.0
 12
1.0
 22
0.0
 32
0.0
 13
1.0
 23
0.0
 33
0.0
 40
0.0
 40
0.0
 40
0.0
 40
0.0
 40
1.0
 40
1.0
 40
1.0
 40
1.0
 10
273.0162162827383
 20
58.21628841714552
 30
0.0
 10
274.4999545951996
 20
59.7989426171042
 30
0.0
 10
273.7580854389689
 20
59.00761551712485
 30
0.0
 10
275.2418237514302
 20
60.59026971708353
 30
0.0
  0
SPLINE
  5
F3
330
1F
100
AcDbEntity
  8
0
  6
K5LT32769
 62
    30
420
 16744448
100
AcDbSpline
210
0.0
220
0.0
230
1.0
 70
    24
 71
     3
 72
     8
 73
     4
 74
     0
 42
0.0
 43
0.0
 12
1.0
 22
0.0
 32
0.0
 13
1.0
 23
0.0
 33
0.0
 40
0.0
 40
0.0
 40
0.0
 40
0.0
 40
1.0
 40
1.0
 40
1.0
 40
1.0
 10
275.2418237514302
 20
60.59026971708353
 30
0.0
 10
276.8079919701394
 20
59.07355944212313
 30
0.0
 10
276.0249078607848
 20
59.83191457960332
 30
0.0
 10
277.5910760794939
 20
58.31520430464293
 30
0.0
  0
SPLINE
  5
F4
330
1F
100
AcDbEntity
  8
0
  6
K5LT32769
 62
    30
420
 16744448
100
AcDbSpline
210
0.0
220
0.0
230
1.0
 70
    24
 71
     3
 72
     8
 73
     4
 74
     0
 42
0.0
 43
0.0
 12
1.0
 22
0.0
 32
0.0
 13
1.0
 23
0.0
 33
0.0
 40
0.0
 40
0.0
 40
0.0
 40
0.0
 40
1.0
 40
1.0
 40
1.0
 40
1.0
 10
277.5910760794939
 20
58.31520430464293
 30
0.0
 10
276.0578798232839
 20
56.79849402968254
 30
0.0
 10
276.8244779513889
 20
57.55684916716274
 30
0.0
 10
275.2912816951789
 20
56.04013889220234
 30
0.0
  0
SPLINE
  5
F5
330
1F
100
AcDbEntity
  8
0
  6
K5LT32769
 62
    30
420
 16744448
100
AcDbSpline
210
0.0
220
0.0
230
1.0
 70
    24
 71
     3
 72
     8
 73
     4
 74
     0
 42
0.0
 43
0.0
 12
1.0
 22
0.0
 32
0.0
 13
1.0
 23
0.0
 33
0.0
 40
0.0
 40
0.0
 40
0.0
 40
0.0
 40
1.0
 40
1.0
 40
1.0
 40
1.0
 10
272.9873656231177
 20
51.50649450386107
 30
0.0
 10
274.1276459475689
 20
52.6467748283123
 30
0.0
 10
273.5575057853433
 20
52.07663466608668
 30
0.0
 10
274.6977861097945
 20
53.21691499053791
 30
0.0
  0
SPLINE
  5
F6
330
1F
100
AcDbEntity
  8
0
  6
K5LT32769
 62
    30
420
 16744448
100
AcDbSpline
210
0.0
220
0.0
230
1.0
 70
    24
 71
     3
 72
     8
 73
     4
 74
     0
 42
0.0
 43
0.0
 12
1.0
 22
0.0
 32
0.0
 13
1.0
 23
0.0
 33
0.0
 40
0.0
 40
0.0
 40
0.0
 40
0.0
 40
1.0
 40
1.0
 40
1.0
 40
1.0
 10
274.6977861097945
 20
53.21691499053791
 30
0.0
 10
276.2639542662696
 20
51.7743916885213
 30
0.0
 10
275.4808701880321
 20
52.4956533395296
 30
0.0
 10
277.0470383445073
 20
51.05313003751299
 30
0.0
  0
SPLINE
  5
F7
330
1F
100
AcDbEntity
  8
0
  6
K5LT32769
 62
    30
420
 16744448
100
AcDbSpline
210
0.0
220
0.0
230
1.0
 70
    24
 71
     3
 72
     8
 73
     4
 74
     0
 42
0.0
 43
0.0
 12
1.0
 22
0.0
 32
0.0
 13
1.0
 23
0.0
 33
0.0
 40
0.0
 40
0.0
 40
0.0
 40
0.0
 40
1.0
 40
1.0
 40
1.0
 40
1.0
 10
272.9873656231177
 20
51.50649450386107
 30
0.0
 10
274.5947487310791
 20
50.0502328846824
 30
0.0
 10
273.7910571770984
 20
50.77836369427174
 30
0.0
 10
275.3984402850597
 20
49.32210207509307
 30
0.0
  0
SPLINE
  5
F8
330
1F
100
AcDbEntity
  8
0
  6
K5LT32769
 62
    30
420
 16744448
100
AcDbSpline
210
0.0
220
0.0
230
1.0
 70
    24
 71
     3
 72
     8
 73
     4
 74
     0
 42
0.0
 43
0.0
 12
1.0
 22
0.0
 32
0.0
 13
1.0
 23
0.0
 33
0.0
 40
0.0
 40
0.0
 40
0.0
 40
0.0
 40
1.0
 40
1.0
 40
1.0
 40
1.0
 10
277.0470383445073
 20
51.05313003751299
 30
0.0
 10
275.9479729715422
 20
49.89911139589972
 30
0.0
 10
276.4975056580247
 20
50.47612071670635
 30
0.0
 10
275.3984402850597
 20
49.32210207509307
 30
0.0
  0
SPLINE
  5
F9
330
1F
100
AcDbEntity
  8
0
  6
K5LT32769
 62
    30
420
 16744448
100
AcDbSpline
210
0.0
220
0.0
230
1.0
 70
    24
 71
     3
 72
     8
 73
     4
 74
     0
 42
0.0
 43
0.0
 12
1.0
 22
0.0
 32
0.0
 13
1.0
 23
0.0
 33
0.0
 40
0.0
 40
0.0
 40
0.0
 40
0.0
 40
1.0
 40
1.0
 40
1.0
 40
1.0
 10
276.3875991207283
 20
54.6594382925545
 30
0.0
 10
277.9400289600414
 20
53.23065330769997
 30
0.0
 10
277.1638140403849
 20
53.94504580012724
 30
0.0
 10
278.716243879698
 20
52.51626081527269
 30
0.0
  0
SPLINE
  5
FA
330
1F
100
AcDbEntity
  8
0
  6
K5LT32769
 62
    30
420
 16744448
100
AcDbSpline
210
0.0
220
0.0
230
1.0
 70
    24
 71
     3
 72
     8
 73
     4
 74
     0
 42
0.0
 43
0.0
 12
1.0
 22
0.0
 32
0.0
 13
1.0
 23
0.0
 33
0.0
 40
0.0
 40
0.0
 40
0.0
 40
0.0
 40
1.0
 40
1.0
 40
1.0
 40
1.0
 10
276.3875991207283
 20
54.6594382925545
 30
0.0
 10
278.0361971801759
 20
56.30803635200206
 30
0.0
 10
277.211898150452
 20
55.48373732227828
 30
0.0
 10
278.8604962098996
 20
57.13233538172583
 30
0.0
  0
SPLINE
  5
FB
330
1F
100
AcDbEntity
  8
0
  6
K5LT32769
 62
    30
420
 16744448
100
AcDbSpline
210
0.0
220
0.0
230
1.0
 70
    24
 71
     3
 72
     8
 73
     4
 74
     0
 42
0.0
 43
0.0
 12
1.0
 22
0.0
 32
0.0
 13
1.0
 23
0.0
 33
0.0
 40
0.0
 40
0.0
 40
0.0
 40
0.0
 40
1.0
 40
1.0
 40
1.0
 40
1.0
 10
278.8604962098996
 20
57.13233538172583
 30
0.0
 10
280.3631241015794
 20
55.65597579044769
 30
0.0
 10
279.6118101557395
 20
56.39415558608676
 30
0.0
 10
281.1144380474192
 20
54.91779599480863
 30
0.0
  0
SPLINE
  5
FC
330
1F
100
AcDbEntity
  8
0
  6
K5LT32769
 62
    30
420
 16744448
100
AcDbSpline
210
0.0
220
0.0
230
1.0
 70
    24
 71
     3
 72
     8
 73
     4
 74
     0
 42
0.0
 43
0.0
 12
1.0
 22
0.0
 32
0.0
 13
1.0
 23
0.0
 33
0.0
 40
0.0
 40
0.0
 40
0.0
 40
0.0
 40
1.0
 40
1.0
 40
1.0
 40
1.0
 10
281.1144380474192
 20
54.91779599480863
 30
0.0
 10
279.5156419356051
 20
53.31677254178466
 30
0.0
 10
280.3150399915122
 20
54.11728426829665
 30
0.0
 10
278.716243879698
 20
52.51626081527269
 30
0.0
  0
SPLINE
  5
FD
330
1F
100
AcDbEntity
  8
0
  6
K5LT32769
 62
    30
420
 16744448
100
AcDbSpline
210
0.0
220
0.0
230
1.0
 70
    24
 71
     3
 72
     8
 73
     4
 74
     0
 42
0.0
 43
0.0
 12
1.0
 22
0.0
 32
0.0
 13
1.0
 23
0.0
 33
0.0
 40
0.0
 40
0.0
 40
0.0
 40
0.0
 40
1.0
 40
1.0
 40
1.0
 40
1.0
 10
280.3449973101883
 20
58.58897900114412
 30
0.0
 10
281.8905579295053
 20
56.97472679874634
 30
0.0
 10
281.1177776198468
 20
57.78185289994524
 30
0.0
 10
282.6633382391639
 20
56.16760069754746
 30
0.0
  0
SPLINE
  5
FE
330
1F
100
AcDbEntity
  8
0
  6
K5LT32769
 62
    30
420
 16744448
100
AcDbSpline
210
0.0
220
0.0
230
1.0
 70
    24
 71
     3
 72
     8
 73
     4
 74
     0
 42
0.0
 43
0.0
 12
1.0
 22
0.0
 32
0.0
 13
1.0
 23
0.0
 33
0.0
 40
0.0
 40
0.0
 40
0.0
 40
0.0
 40
1.0
 40
1.0
 40
1.0
 40
1.0
 10
280.3449973101883
 20
58.58897900114412
 30
0.0
 10
282.0851840815675
 20
60.18033400918164
 30
0.0
 10
281.2150906958778
 20
59.38465650516289
 30
0.0
 10
282.9552774672571
 20
60.9760115132004
 30
0.0
  0
SPLINE
  5
FF
330
1F
100
AcDbEntity
  8
0
  6
K5LT32769
 62
    30
420
 16744448
100
AcDbSpline
210
0.0
220
0.0
230
1.0
 70
    24
 71
     3
 72
     8
 73
     4
 74
     0
 42
0.0
 43
0.0
 12
1.0
 22
0.0
 32
0.0
 13
1.0
 23
0.0
 33
0.0
 40
0.0
 40
0.0
 40
0.0
 40
0.0
 40
1.0
 40
1.0
 40
1.0
 40
1.0
 10
282.9552774672571
 20
60.9760115132004
 30
0.0
 10
284.4893894893939
 20
59.33886211644238
 30
0.0
 10
283.7223334783255
 20
60.15743681482139
 30
0.0
 10
285.2564455004624
 20
58.52028741806336
 30
0.0
  0
SPLINE
  5
100
330
1F
100
AcDbEntity
  8
0
  6
K5LT32769
 62
    30
420
 16744448
100
AcDbSpline
210
0.0
220
0.0
230
1.0
 70
    24
 71
     3
 72
     8
 73
     4
 74
     0
 42
0.0
 43
0.0
 12
1.0
 22
0.0
 32
0.0
 13
1.0
 23
0.0
 33
0.0
 40
0.0
 40
0.0
 40
0.0
 40
0.0
 40
1.0
 40
1.0
 40
1.0
 40
1.0
 10
285.2564455004624
 20
58.52028741806336
 30
0.0
 10
283.5277073262634
 20
56.95182960438609
 30
0.0
 10
284.3920764133629
 20
57.73605851122473
 30
0.0
 10
282.6633382391639
 20
56.16760069754746
 30
0.0
  0
SPLINE
  5
101
330
1F
100
AcDbEntity
  8
0
  6
K5LT32769
 62
    30
420
 16744448
100
AcDbSpline
210
0.0
220
0.0
230
1.0
 70
    24
 71
     3
 72
     8
 73
     4
 74
     0
 42
0.0
 43
0.0
 12
1.0
 22
0.0
 32
0.0
 13
1.0
 23
0.0
 33
0.0
 40
0.0
 40
0.0
 40
0.0
 40
0.0
 40
1.0
 40
1.0
 40
1.0
 40
1.0
 10
277.0835204851467
 20
48.35530651879063
 30
0.0
 10
277.839127899035
 20
49.0880167383187
 30
0.0
 10
277.4613241920908
 20
48.72166162855467
 30
0.0
 10
278.2169316059791
 20
49.45437184808274
 30
0.0
  0
SPLINE
  5
102
330
1F
100
AcDbEntity
  8
0
  6
K5LT32769
 62
    30
420
 16744448
100
AcDbSpline
210
0.0
220
0.0
230
1.0
 70
    24
 71
     3
 72
     8
 73
     4
 74
     0
 42
0.0
 43
0.0
 12
1.0
 22
0.0
 32
0.0
 13
1.0
 23
0.0
 33
0.0
 40
0.0
 40
0.0
 40
0.0
 40
0.0
 40
1.0
 40
1.0
 40
1.0
 40
1.0
 10
278.2169316059791
 20
49.45437184808274
 30
0.0
 10
279.8433210761989
 20
47.98640783411015
 30
0.0
 10
279.030126341089
 20
48.72038984109644
 30
0.0
 10
280.6565158113088
 20
47.25242582712386
 30
0.0
  0
SPLINE
  5
103
330
1F
100
AcDbEntity
  8
0
  6
K5LT32769
 62
    30
420
 16744448
100
AcDbSpline
210
0.0
220
0.0
230
1.0
 70
    24
 71
     3
 72
     8
 73
     4
 74
     0
 42
0.0
 43
0.0
 12
1.0
 22
0.0
 32
0.0
 13
1.0
 23
0.0
 33
0.0
 40
0.0
 40
0.0
 40
0.0
 40
0.0
 40
1.0
 40
1.0
 40
1.0
 40
1.0
 10
277.0835204851467
 20
48.35530651879063
 30
0.0
 10
279.0297820057681
 20
46.60367115023135
 30
0.0
 10
278.0566512454574
 20
47.47948883451099
 30
0.0
 10
280.0029127660788
 20
45.7278534659517
 30
0.0
  0
SPLINE
  5
104
330
1F
100
AcDbEntity
  8
0
  6
K5LT32769
 62
    30
420
 16744448
100
AcDbSpline
210
0.0
220
0.0
230
1.0
 70
     8
 71
     3
 72
    11
 73
     7
 74
     0
 42
0.0
 43
0.0
 12
1.0
 22
0.0
 32
0.0
 13
1.0
 23
0.0
 33
0.0
 40
0.0
 40
0.0
 40
0.0
 40
0.0
 40
1.0
 40
1.0
 40
1.0
 40
2.0
 40
2.0
 40
2.0
 40
2.0
 10
280.6565158113088
 20
47.25242582712386
 30
0.0
 10
280.5327459568238
 20
47.00733318453255
 30
0.0
 10
280.4168024228142
 20
46.758882754512
 30
0.0
 10
280.30868520928
 20
46.5070745370622
 30
0.0
 10
280.1986553957597
 20
46.25081181715631
 30
0.0
 10
280.0967312480259
 20
45.99107146011948
 30
0.0
 10
280.0029127660788
 20
45.7278534659517
 30
0.0
  0
SPLINE
  5
105
330
1F
100
AcDbEntity
  8
0
  6
K5LT32769
 62
    30
420
 16744448
100
AcDbSpline
210
0.0
220
0.0
230
1.0
 70
    24
 71
     3
 72
     8
 73
     4
 74
     0
 42
0.0
 43
0.0
 12
1.0
 22
0.0
 32
0.0
 13
1.0
 23
0.0
 33
0.0
 40
0.0
 40
0.0
 40
0.0
 40
0.0
 40
1.0
 40
1.0
 40
1.0
 40
1.0
 10
279.9857398703086
 20
50.931240884319
 30
0.0
 10
281.6114406698866
 20
52.48825010081613
 30
0.0
 10
280.7985902700976
 20
51.70974549256757
 30
0.0
 10
282.4242910696755
 20
53.26675470906471
 30
0.0
  0
SPLINE
  5
106
330
1F
100
AcDbEntity
  8
0
  6
K5LT32769
 62
    30
420
 16744448
100
AcDbSpline
210
0.0
220
0.0
230
1.0
 70
    24
 71
     3
 72
     8
 73
     4
 74
     0
 42
0.0
 43
0.0
 12
1.0
 22
0.0
 32
0.0
 13
1.0
 23
0.0
 33
0.0
 40
0.0
 40
0.0
 40
0.0
 40
0.0
 40
1.0
 40
1.0
 40
1.0
 40
1.0
 10
282.4242910696755
 20
53.26675470906471
 30
0.0
 10
283.8439171200112
 20
51.90437164462971
 30
0.0
 10
283.1341040948433
 20
52.5855631768472
 30
0.0
 10
284.553730145179
 20
51.22318011241221
 30
0.0
  0
SPLINE
  5
107
330
1F
100
AcDbEntity
  8
0
  6
K5LT32769
 62
    30
420
 16744448
100
AcDbSpline
210
0.0
220
0.0
230
1.0
 70
    24
 71
     3
 72
     8
 73
     4
 74
     0
 42
0.0
 43
0.0
 12
1.0
 22
0.0
 32
0.0
 13
1.0
 23
0.0
 33
0.0
 40
0.0
 40
0.0
 40
0.0
 40
0.0
 40
1.0
 40
1.0
 40
1.0
 40
1.0
 10
279.9857398703086
 20
50.931240884319
 30
0.0
 10
281.4397117121846
 20
49.51161483398336
 30
0.0
 10
280.7127257912467
 20
50.22142785915118
 30
0.0
 10
282.1666976331227
 20
48.80180180881555
 30
0.0
  0
SPLINE
  5
108
330
1F
100
AcDbEntity
  8
0
  6
K5LT32769
 62
    30
420
 16744448
100
AcDbSpline
210
0.0
220
0.0
230
1.0
 70
     8
 71
     3
 72
    11
 73
     7
 74
     0
 42
0.0
 43
0.0
 12
1.0
 22
0.0
 32
0.0
 13
1.0
 23
0.0
 33
0.0
 40
0.0
 40
0.0
 40
0.0
 40
0.0
 40
1.0
 40
1.0
 40
1.0
 40
2.0
 40
2.0
 40
2.0
 40
2.0
 10
284.553730145179
 20
51.22318011241221
 30
0.0
 10
283.9728365321151
 20
50.97758139303513
 30
0.0
 10
283.4805468533697
 20
50.64557207481148
 30
0.0
 10
283.0768611089427
 20
50.22715215774124
 30
0.0
 10
282.6936144588533
 20
49.82991734387513
 30
0.0
 10
282.39022663358
 20
49.35480056089991
 30
0.0
 10
282.1666976331227
 20
48.80180180881555
 30
0.0
  0
SPLINE
  5
109
330
1F
100
AcDbEntity
  8
0
  6
K5LT32769
 62
    30
420
 16744448
100
AcDbSpline
210
0.0
220
0.0
230
1.0
 70
    24
 71
     3
 72
     8
 73
     4
 74
     0
 42
0.0
 43
0.0
 12
1.0
 22
0.0
 32
0.0
 13
1.0
 23
0.0
 33
0.0
 40
0.0
 40
0.0
 40
0.0
 40
0.0
 40
1.0
 40
1.0
 40
1.0
 40
1.0
 10
284.0044995406259
 20
54.63301716778572
 30
0.0
 10
285.8316957231803
 20
56.30909186155739
 30
0.0
 10
284.9180976319032
 20
55.47105451467156
 30
0.0
 10
286.7452938144575
 20
57.14712920844323
 30
0.0
  0
SPLINE
  5
10A
330
1F
100
AcDbEntity
  8
0
  6
K5LT32769
 62
    30
420
 16744448
100
AcDbSpline
210
0.0
220
0.0
230
1.0
 70
    24
 71
     3
 72
     8
 73
     4
 74
     0
 42
0.0
 43
0.0
 12
1.0
 22
0.0
 32
0.0
 13
1.0
 23
0.0
 33
0.0
 40
0.0
 40
0.0
 40
0.0
 40
0.0
 40
1.0
 40
1.0
 40
1.0
 40
1.0
 10
286.7452938144575
 20
57.14712920844323
 30
0.0
 10
288.6823965343084
 20
55.21002648859236
 30
0.0
 10
287.7138451743829
 20
56.1785778485178
 30
0.0
 10
289.6509478942338
 20
54.24147512866692
 30
0.0
  0
SPLINE
  5
10B
330
1F
100
AcDbEntity
  8
0
  6
K5LT32769
 62
    30
420
 16744448
100
AcDbSpline
210
0.0
220
0.0
230
1.0
 70
    24
 71
     3
 72
     8
 73
     4
 74
     0
 42
0.0
 43
0.0
 12
1.0
 22
0.0
 32
0.0
 13
1.0
 23
0.0
 33
0.0
 40
0.0
 40
0.0
 40
0.0
 40
0.0
 40
1.0
 40
1.0
 40
1.0
 40
1.0
 10
284.0044995406259
 20
54.63301716778572
 30
0.0
 10
285.3783312568323
 20
53.32787703738974
 30
0.0
 10
284.6914153987291
 20
53.98044710258772
 30
0.0
 10
286.0652471149354
 20
52.67530697219175
 30
0.0
  0
SPLINE
  5
10C
330
1F
100
AcDbEntity
  8
0
  6
K5LT32769
 62
    30
420
 16744448
100
AcDbSpline
210
0.0
220
0.0
230
1.0
 70
     8
 71
     3
 72
    11
 73
     7
 74
     0
 42
0.0
 43
0.0
 12
1.0
 22
0.0
 32
0.0
 13
1.0
 23
0.0
 33
0.0
 40
0.0
 40
0.0
 40
0.0
 40
0.0
 40
1.0
 40
1.0
 40
1.0
 40
2.0
 40
2.0
 40
2.0
 40
2.0
 10
289.6509478942338
 20
54.24147512866692
 30
0.0
 10
288.872655540773
 20
54.20125167112385
 30
0.0
 10
288.1582630483457
 20
54.02265354801703
 30
0.0
 10
287.507770416952
 20
53.70568075934646
 30
0.0
 10
286.9857825209745
 20
53.45132590418731
 30
0.0
 10
286.5049414203023
 20
53.10786797513574
 30
0.0
 10
286.0652471149354
 20
52.67530697219175
 30
0.0
  0
SPLINE
  5
10D
330
1F
100
AcDbEntity
  8
0
  6
K5LT32769
 62
    30
420
 16744448
100
AcDbSpline
210
0.0
220
0.0
230
1.0
 70
    24
 71
     3
 72
     8
 73
     4
 74
     0
 42
0.0
 43
0.0
 12
1.0
 22
0.0
 32
0.0
 13
1.0
 23
0.0
 33
0.0
 40
0.0
 40
0.0
 40
0.0
 40
0.0
 40
1.0
 40
1.0
 40
1.0
 40
1.0
 10
288.5793591555929
 20
58.48661513174437
 30
0.0
 10
289.8295460173406
 20
57.16773668418633
 30
0.0
 10
289.2044525864667
 20
57.82717590796535
 30
0.0
 10
290.4546394482145
 20
56.50829746040731
 30
0.0
  0
SPLINE
  5
10E
330
1F
100
AcDbEntity
  8
0
  6
K5LT32769
 62
    30
420
 16744448
100
AcDbSpline
210
0.0
220
0.0
230
1.0
 70
    24
 71
     3
 72
     8
 73
     4
 74
     0
 42
0.0
 43
0.0
 12
1.0
 22
0.0
 32
0.0
 13
1.0
 23
0.0
 33
0.0
 40
0.0
 40
0.0
 40
0.0
 40
0.0
 40
1.0
 40
1.0
 40
1.0
 40
1.0
 10
288.5793591555929
 20
58.48661513174437
 30
0.0
 10
290.8461814873333
 20
60.808390732133
 30
0.0
 10
289.7127703214632
 20
59.64750293193868
 30
0.0
 10
291.9795926532035
 20
61.96927853232732
 30
0.0
  0
SPLINE
  5
10F
330
1F
100
AcDbEntity
  8
0
  6
K5LT32769
 62
    30
420
 16744448
100
AcDbSpline
210
0.0
220
0.0
230
1.0
 70
     8
 71
     3
 72
    11
 73
     7
 74
     0
 42
0.0
 43
0.0
 12
1.0
 22
0.0
 32
0.0
 13
1.0
 23
0.0
 33
0.0
 40
0.0
 40
0.0
 40
0.0
 40
0.0
 40
1.0
 40
1.0
 40
1.0
 40
2.0
 40
2.0
 40
2.0
 40
2.0
 10
291.9795926532035
 20
61.96927853232732
 30
0.0
 10
292.0544678099849
 20
61.28063109200018
 30
0.0
 10
292.3685678381672
 20
60.76076827286995
 30
0.0
 10
292.6474403272783
 20
60.19604015082386
 30
0.0
 10
292.8096713889688
 20
59.86751565886677
 30
0.0
 10
292.9909408371178
 20
59.54790900028828
 30
0.0
 10
293.1912486717252
 20
59.23722017508839
 30
0.0
  0
SPLINE
  5
110
330
1F
100
AcDbEntity
  8
0
  6
K5LT32769
 62
    30
420
 16744448
100
AcDbSpline
210
0.0
220
0.0
230
1.0
 70
    24
 71
     3
 72
     8
 73
     4
 74
     0
 42
0.0
 43
0.0
 12
1.0
 22
0.0
 32
0.0
 13
1.0
 23
0.0
 33
0.0
 40
0.0
 40
0.0
 40
0.0
 40
0.0
 40
1.0
 40
1.0
 40
1.0
 40
1.0
 10
293.1912486717252
 20
59.23722017508839
 30
0.0
 10
291.3668425227181
 20
57.417938365301
 30
0.0
 10
292.2790455972217
 20
58.3275792701947
 30
0.0
 10
290.4546394482145
 20
56.50829746040731
 30
0.0
  0
SPLINE
  5
111
330
1F
100
AcDbEntity
  8
0
  6
K5LT32769
 62
    30
420
 16744448
100
AcDbSpline
210
0.0
220
0.0
230
1.0
 70
    24
 71
     3
 72
     8
 73
     4
 74
     0
 42
0.0
 43
0.0
 12
1.0
 22
0.0
 32
0.0
 13
1.0
 23
0.0
 33
0.0
 40
0.0
 40
0.0
 40
0.0
 40
0.0
 40
1.0
 40
1.0
 40
1.0
 40
1.0
 10
291.3029802061072
 20
55.04516710436435
 30
0.0
 10
293.2721389210889
 20
56.86549405600439
 30
0.0
 10
292.2875595635981
 20
55.95533058018437
 30
0.0
 10
294.2567182785797
 20
57.77565753182441
 30
0.0
  0
SPLINE
  5
112
330
1F
100
AcDbEntity
  8
0
  6
K5LT32769
 62
    30
420
 16744448
100
AcDbSpline
210
0.0
220
0.0
230
1.0
 70
     8
 71
     3
 72
    11
 73
     7
 74
     0
 42
0.0
 43
0.0
 12
1.0
 22
0.0
 32
0.0
 13
1.0
 23
0.0
 33
0.0
 40
0.0
 40
0.0
 40
0.0
 40
0.0
 40
1.0
 40
1.0
 40
1.0
 40
2.0
 40
2.0
 40
2.0
 40
2.0
 10
294.2567182785797
 20
57.77565753182441
 30
0.0
 10
294.5967708857553
 20
57.24042328928094
 30
0.0
 10
294.9790949047367
 20
56.7439854703589
 30
0.0
 10
295.4036903355239
 20
56.28634407505827
 30
0.0
 10
295.7783979117485
 20
55.88247327104326
 30
0.0
 10
296.1860270981958
 20
55.50881770427574
 30
0.0
 10
296.6265778948659
 20
55.16537737475568
 30
0.0
  0
SPLINE
  5
113
330
1F
100
AcDbEntity
  8
0
  6
K5LT32769
 62
    30
420
 16744448
100
AcDbSpline
210
0.0
220
0.0
230
1.0
 70
     8
 71
     3
 72
    11
 73
     7
 74
     0
 42
0.0
 43
0.0
 12
1.0
 22
0.0
 32
0.0
 13
1.0
 23
0.0
 33
0.0
 40
0.0
 40
0.0
 40
0.0
 40
0.0
 40
1.0
 40
1.0
 40
1.0
 40
2.0
 40
2.0
 40
2.0
 40
2.0
 10
296.6265778948659
 20
55.16537737475568
 30
0.0
 10
295.6408783528544
 20
55.21869377784518
 30
0.0
 10
294.6562989953635
 20
55.23014237502531
 30
0.0
 10
293.6728398223933
 20
55.19972316629605
 30
0.0
 10
292.882162555556
 20
55.17526686197916
 30
0.0
 10
292.0922093501273
 20
55.12374817466858
 30
0.0
 10
291.3029802061072
 20
55.04516710436435
 30
0.0
  0
SPLINE
  5
114
330
1F
100
AcDbEntity
  8
0
  6
K5LT32769
 62
    30
420
 16744448
100
AcDbSpline
210
0.0
220
0.0
230
1.0
 70
     8
 71
     3
 72
    11
 73
     7
 74
     0
 42
0.0
 43
0.0
 12
1.0
 22
0.0
 32
0.0
 13
1.0
 23
0.0
 33
0.0
 40
0.0
 40
0.0
 40
0.0
 40
0.0
 40
1.0
 40
1.0
 40
1.0
 40
2.0
 40
2.0
 40
2.0
 40
2.0
 10
294.5394556294398
 20
61.76451635493487
 30
0.0
 10
295.3911444179936
 20
60.07974735604149
 30
0.0
 10
296.4792191804652
 20
58.65370997795372
 30
0.0
 10
297.8036799168546
 20
57.48640422067158
 30
0.0
 10
298.8894962450167
 20
56.5294263228821
 30
0.0
 10
300.1341878293592
 20
55.74634221352754
 30
0.0
 10
301.5377546698821
 20
55.13715189260792
 30
0.0
  0
SPLINE
  5
115
330
1F
100
AcDbEntity
  8
0
  6
K5LT32769
 62
    30
420
 16744448
100
AcDbSpline
210
0.0
220
0.0
230
1.0
 70
     8
 71
     3
 72
    11
 73
     7
 74
     0
 42
0.0
 43
0.0
 12
1.0
 22
0.0
 32
0.0
 13
1.0
 23
0.0
 33
0.0
 40
0.0
 40
0.0
 40
0.0
 40
0.0
 40
1.0
 40
1.0
 40
1.0
 40
2.0
 40
2.0
 40
2.0
 40
2.0
 10
294.5394556294398
 20
61.76451635493487
 30
0.0
 10
295.4097095240601
 20
62.36669151086162
 30
0.0
 10
296.1192414687946
 20
63.08038300097051
 30
0.0
 10
296.6680514636433
 20
63.9055908252615
 30
0.0
 10
297.1073405328013
 20
64.566119569995
 30
0.0
 10
297.4436545636564
 20
65.29809716656206
 30
0.0
 10
297.6769935562087
 20
66.10152361496269
 30
0.0
  0
SPLINE
  5
116
330
1F
100
AcDbEntity
  8
0
  6
K5LT32769
 62
    30
420
 16744448
100
AcDbSpline
210
0.0
220
0.0
230
1.0
 70
     8
 71
     3
 72
    11
 73
     7
 74
     0
 42
0.0
 43
0.0
 12
1.0
 22
0.0
 32
0.0
 13
1.0
 23
0.0
 33
0.0
 40
0.0
 40
0.0
 40
0.0
 40
0.0
 40
1.0
 40
1.0
 40
1.0
 40
2.0
 40
2.0
 40
2.0
 40
2.0
 10
297.6769935562087
 20
66.10152361496269
 30
0.0
 10
298.4625513497211
 20
64.26418634179299
 30
0.0
 10
299.1846373571454
 20
62.40456758294693
 30
0.0
 10
299.8432515784816
 20
60.52266733842453
 30
0.0
 10
300.4645733516019
 20
58.7473251747067
 30
0.0
 10
301.029407715402
 20
56.9521533594345
 30
0.0
 10
301.5377546698821
 20
55.13715189260792
 30
0.0
  0
SPLINE
  5
117
330
1F
100
AcDbEntity
  8
0
  6
K5LT32769
 62
    30
420
 16744448
100
AcDbSpline
210
0.0
220
0.0
230
1.0
 70
     8
 71
     3
 72
    17
 73
    13
 74
     0
 42
0.0
 43
0.0
 12
1.0
 22
0.0
 32
0.0
 13
1.0
 23
0.0
 33
0.0
 40
0.0
 40
0.0
 40
0.0
 40
0.0
 40
1.0
 40
1.0
 40
1.0
 40
2.0
 40
2.0
 40
2.0
 40
3.0
 40
3.0
 40
3.0
 40
4.0
 40
4.0
 40
4.0
 40
4.0
 10
303.6041143961714
 20
53.59515052683504
 30
0.0
 10
303.9556514112094
 20
55.68813557844201
 30
0.0
 10
303.969895300707
 20
57.72501177660337
 30
0.0
 10
303.6468460646643
 20
59.70577912131911
 30
0.0
 10
303.3117701029973
 20
61.76028799742556
 30
0.0
 10
302.166024122235
 20
63.66787406967479
 30
0.0
 10
301.5529943085124
 20
65.68821271032449
 30
0.0
 10
301.0737856707534
 20
67.26752207852398
 30
0.0
 10
300.3681773966426
 20
68.86267815636776
 30
0.0
 10
300.2710442537255
 20
70.47415958152881
 30
0.0
 10
300.1632080864683
 20
72.2632088728074
 30
0.0
 10
300.4623297659185
 20
74.07218283900664
 30
0.0
 10
301.1684092920763
 20
75.90108148012655
 30
0.0
  0
SPLINE
  5
118
330
1F
100
AcDbEntity
  8
0
  6
K5LT32769
 62
    30
420
 16744448
100
AcDbSpline
210
0.0
220
0.0
230
1.0
 70
     8
 71
     3
 72
    17
 73
    13
 74
     0
 42
0.0
 43
0.0
 12
1.0
 22
0.0
 32
0.0
 13
1.0
 23
0.0
 33
0.0
 40
0.0
 40
0.0
 40
0.0
 40
0.0
 40
1.0
 40
1.0
 40
1.0
 40
2.0
 40
2.0
 40
2.0
 40
3.0
 40
3.0
 40
3.0
 40
4.0
 40
4.0
 40
4.0
 40
4.0
 10
301.1684092920763
 20
75.90108148012655
 30
0.0
 10
301.0398529140136
 20
73.73011650336687
 30
0.0
 10
301.2392673669805
 20
71.65050863671262
 30
0.0
 10
301.7666526509769
 20
69.66225788016379
 30
0.0
 10
302.3729685479213
 20
67.37643748018553
 30
0.0
 10
304.4236871963081
 20
65.48491632751505
 30
0.0
 10
304.8860644509583
 20
63.16704426924366
 30
0.0
 10
305.1224592786741
 20
61.98200984038318
 30
0.0
 10
305.2059647184831
 20
60.70323612671532
 30
0.0
 10
305.1424544619156
 20
59.49212077885463
 30
0.0
 10
305.0373874234339
 20
57.48853411841944
 30
0.0
 10
304.5246074015191
 20
55.52287736774624
 30
0.0
 10
303.6041143961714
 20
53.59515052683504
 30
0.0
  0
SPLINE
  5
119
330
1F
100
AcDbEntity
  8
0
  6
K5LT32769
 62
    30
420
 16744448
100
AcDbSpline
210
0.0
220
0.0
230
1.0
 70
     8
 71
     3
 72
    26
 73
    22
 74
     0
 42
0.0
 43
0.0
 12
1.0
 22
0.0
 32
0.0
 13
1.0
 23
0.0
 33
0.0
 40
0.0
 40
0.0
 40
0.0
 40
0.0
 40
1.0
 40
1.0
 40
1.0
 40
2.0
 40
2.0
 40
2.0
 40
3.0
 40
3.0
 40
3.0
 40
4.0
 40
4.0
 40
4.0
 40
5.0
 40
5.0
 40
5.0
 40
6.0
 40
6.0
 40
6.0
 40
7.0
 40
7.0
 40
7.0
 40
7.0
 10
281.8411440591168
 20
43.85331358334256
 30
0.0
 10
282.9034008060328
 20
46.02062295788573
 30
0.0
 10
284.2684401619808
 20
47.81297898178258
 30
0.0
 10
285.9362621269606
 20
49.2303816550331
 30
0.0
 10
287.9842601939573
 20
50.97087794056331
 30
0.0
 10
290.8320610665516
 20
52.64600038087002
 30
0.0
 10
293.4499135383957
 20
52.75574416561167
 30
0.0
 10
295.2481572074749
 20
52.83112888199848
 30
0.0
 10
297.8990057530924
 20
52.73129689027362
 30
0.0
 10
299.0050302217317
 20
51.47379416176491
 30
0.0
 10
299.7216348742251
 20
50.65904518348852
 30
0.0
 10
300.4554370112228
 20
49.01727676640114
 30
0.0
 10
300.2157607809202
 20
47.98404137351542
 30
0.0
 10
299.9981621507056
 20
47.04598170069217
 30
0.0
 10
298.8977667214695
 20
45.91812728137634
 30
0.0
 10
297.9723482741884
 20
45.49136081048007
 30
0.0
 10
296.9699925674572
 20
45.0291139114678
 30
0.0
 10
295.0796449093598
 20
44.84578344816548
 30
0.0
 10
294.3401565966226
 20
45.52697053280915
 30
0.0
 10
293.8378416219099
 20
45.98968301562164
 30
0.0
 10
293.5529638432773
 20
46.76122699941829
 30
0.0
 10
293.4855232607248
 20
47.84160248419912
 30
0.0
  0
SPLINE
  5
11A
330
1F
100
AcDbEntity
  8
0
  6
K5LT32769
 62
    30
420
 16744448
100
AcDbSpline
210
0.0
220
0.0
230
1.0
 70
     8
 71
     3
 72
    29
 73
    25
 74
     0
 42
0.0
 43
0.0
 12
1.0
 22
0.0
 32
0.0
 13
1.0
 23
0.0
 33
0.0
 40
0.0
 40
0.0
 40
0.0
 40
0.0
 40
1.0
 40
1.0
 40
1.0
 40
2.0
 40
2.0
 40
2.0
 40
3.0
 40
3.0
 40
3.0
 40
4.0
 40
4.0
 40
4.0
 40
5.0
 40
5.0
 40
5.0
 40
6.0
 40
6.0
 40
6.0
 40
7.0
 40
7.0
 40
7.0
 40
8.0
 40
8.0
 40
8.0
 40
8.0
 10
293.4855232607248
 20
47.84160248419912
 30
0.0
 10
294.2168688821711
 20
46.95406374240802
 30
0.0
 10
294.8934536064236
 20
46.55048688934517
 30
0.0
 10
295.5152774334821
 20
46.63087192501052
 30
0.0
 10
296.1116657423607
 20
46.70796883476771
 30
0.0
 10
296.9550325544267
 20
47.57870648911053
 30
0.0
 10
297.1533246606197
 20
48.19769970748989
 30
0.0
 10
297.3792707651982
 20
48.90301828591715
 30
0.0
 10
296.974430192098
 20
50.13266224183165
 30
0.0
 10
296.4767399363672
 20
50.69038027052524
 30
0.0
 10
295.865903939497
 20
51.37489085538555
 30
0.0
 10
294.2866123515276
 20
51.69748463153046
 30
0.0
 10
293.4143038160666
 20
51.509403884094
 30
0.0
 10
292.2236453283166
 20
51.25268286255858
 30
0.0
 10
291.570898029883
 20
49.29018637004664
 30
0.0
 10
290.6723551967278
 20
48.16208998516081
 30
0.0
 10
289.9135396075154
 20
47.2094174008394
 30
0.0
 10
289.3746682150887
 20
45.98841350834715
 30
0.0
 10
288.4289426899959
 20
45.27770247650562
 30
0.0
 10
287.6494260450052
 20
44.69189711924328
 30
0.0
 10
286.6400049550344
 20
44.28483505287584
 30
0.0
 10
285.6869940706571
 20
44.03136219498794
 30
0.0
 10
284.4688123675749
 20
43.70736170058778
 30
0.0
 10
283.1868623637281
 20
43.64801216337266
 30
0.0
 10
281.8411440591168
 20
43.85331358334256
 30
0.0
  0
SPLINE
  5
11B
330
1F
100
AcDbEntity
  8
0
  6
K5LT32769
 62
    30
420
 16744448
100
AcDbSpline
210
0.0
220
0.0
230
1.0
 70
     8
 71
     3
 72
    11
 73
     7
 74
     0
 42
0.0
 43
0.0
 12
1.0
 22
0.0
 32
0.0
 13
1.0
 23
0.0
 33
0.0
 40
0.0
 40
0.0
 40
0.0
 40
0.0
 40
1.0
 40
1.0
 40
1.0
 40
2.0
 40
2.0
 40
2.0
 40
2.0
 10
228.7013967956537
 20
57.62977742723884
 30
0.0
 10
226.7286737354105
 20
59.32055736025709
 30
0.0
 10
225.6461381335905
 20
61.1152874369587
 30
0.0
 10
225.4537899901937
 20
63.01396765734368
 30
0.0
 10
225.273962147789
 20
64.78905922526117
 30
0.0
 10
225.8722055066895
 20
66.65500874945096
 30
0.0
 10
227.2485200668953
 20
68.611816229913
 30
0.0
  0
SPLINE
  5
11C
330
1F
100
AcDbEntity
  8
0
  6
K5LT32769
 62
    30
420
 16744448
100
AcDbSpline
210
0.0
220
0.0
230
1.0
 70
     8
 71
     3
 72
    11
 73
     7
 74
     0
 42
0.0
 43
0.0
 12
1.0
 22
0.0
 32
0.0
 13
1.0
 23
0.0
 33
0.0
 40
0.0
 40
0.0
 40
0.0
 40
0.0
 40
1.0
 40
1.0
 40
1.0
 40
2.0
 40
2.0
 40
2.0
 40
2.0
 10
227.2485200668953
 20
68.611816229913
 30
0.0
 10
228.0842247010345
 20
66.11332758741337
 30
0.0
 10
229.3594756057313
 20
64.20047549241595
 30
0.0
 10
231.0742727809855
 20
62.87325994492075
 30
0.0
 10
232.9395991938936
 20
61.42953805635509
 30
0.0
 10
235.3250278900883
 20
60.67878281529535
 30
0.0
 10
238.2305588695695
 20
60.62099422174153
 30
0.0
  0
SPLINE
  5
11D
330
1F
100
AcDbEntity
  8
0
  6
K5LT32769
 62
    30
420
 16744448
100
AcDbSpline
210
0.0
220
0.0
230
1.0
 70
     8
 71
     3
 72
    11
 73
     7
 74
     0
 42
0.0
 43
0.0
 12
1.0
 22
0.0
 32
0.0
 13
1.0
 23
0.0
 33
0.0
 40
0.0
 40
0.0
 40
0.0
 40
0.0
 40
1.0
 40
1.0
 40
1.0
 40
2.0
 40
2.0
 40
2.0
 40
2.0
 10
238.2305588695695
 20
60.62099422174153
 30
0.0
 10
236.9996600175335
 20
60.43980330205382
 30
0.0
 10
235.9506869841198
 20
60.01334927447819
 30
0.0
 10
235.0836397693285
 20
59.34163213901464
 30
0.0
 10
234.346934773924
 20
58.7708934747842
 30
0.0
 10
233.7415694943297
 20
58.02308930587359
 30
0.0
 10
233.2675439305456
 20
57.09821963228283
 30
0.0
  0
SPLINE
  5
11E
330
1F
100
AcDbEntity
  8
0
  6
K5LT32769
 62
    30
420
 16744448
100
AcDbSpline
210
0.0
220
0.0
230
1.0
 70
     8
 71
     3
 72
    11
 73
     7
 74
     0
 42
0.0
 43
0.0
 12
1.0
 22
0.0
 32
0.0
 13
1.0
 23
0.0
 33
0.0
 40
0.0
 40
0.0
 40
0.0
 40
0.0
 40
1.0
 40
1.0
 40
1.0
 40
2.0
 40
2.0
 40
2.0
 40
2.0
 10
228.7013967956537
 20
57.62977742723884
 30
0.0
 10
226.5256681727408
 20
57.74267085170895
 30
0.0
 10
224.8309723006448
 20
58.38450853362571
 30
0.0
 10
223.6173091793659
 20
59.55529047298911
 30
0.0
 10
222.57206052726
 20
60.56360836827114
 30
0.0
 10
221.8836058955646
 20
61.96425744654815
 30
0.0
 10
221.5519452842794
 20
63.75723770782012
 30
0.0
  0
SPLINE
  5
11F
330
1F
100
AcDbEntity
  8
0
  6
K5LT32769
 62
    30
420
 16744448
100
AcDbSpline
210
0.0
220
0.0
230
1.0
 70
    24
 71
     3
 72
     8
 73
     4
 74
     0
 42
0.0
 43
0.0
 12
1.0
 22
0.0
 32
0.0
 13
1.0
 23
0.0
 33
0.0
 40
0.0
 40
0.0
 40
0.0
 40
0.0
 40
1.0
 40
1.0
 40
1.0
 40
1.0
 10
233.2675439305456
 20
57.09821963228283
 30
0.0
 10
233.0301457816851
 20
58.78374648919245
 30
0.0
 10
233.1488448561153
 20
57.94098306073764
 30
0.0
 10
232.9114467072548
 20
59.62650991764726
 30
0.0
  0
SPLINE
  5
120
330
1F
100
AcDbEntity
  8
0
  6
K5LT32769
 62
    30
420
 16744448
100
AcDbSpline
210
0.0
220
0.0
230
1.0
 70
     8
 71
     3
 72
    14
 73
    10
 74
     0
 42
0.0
 43
0.0
 12
1.0
 22
0.0
 32
0.0
 13
1.0
 23
0.0
 33
0.0
 40
0.0
 40
0.0
 40
0.0
 40
0.0
 40
1.0
 40
1.0
 40
1.0
 40
2.0
 40
2.0
 40
2.0
 40
3.0
 40
3.0
 40
3.0
 40
3.0
 10
232.9114467072548
 20
59.62650991764726
 30
0.0
 10
231.2483442751809
 20
56.84675017559692
 30
0.0
 10
229.3135493619678
 20
55.22057285590243
 30
0.0
 10
227.1070619676154
 20
54.74797795856379
 30
0.0
 10
225.0712060131626
 20
54.3119296320456
 30
0.0
 10
222.2273173317909
 20
55.20836508776388
 30
0.0
 10
220.3056050027618
 20
56.3860251857013
 30
0.0
 10
218.9773175818217
 20
57.20002375905883
 30
0.0
 10
217.8140666524052
 20
58.31579505870324
 30
0.0
 10
216.8158522145123
 20
59.73333908463449
 30
0.0
  0
SPLINE
  5
121
330
1F
100
AcDbEntity
  8
0
  6
K5LT32769
 62
    30
420
 16744448
100
AcDbSpline
210
0.0
220
0.0
230
1.0
 70
     8
 71
     3
 72
    11
 73
     7
 74
     0
 42
0.0
 43
0.0
 12
1.0
 22
0.0
 32
0.0
 13
1.0
 23
0.0
 33
0.0
 40
0.0
 40
0.0
 40
0.0
 40
0.0
 40
1.0
 40
1.0
 40
1.0
 40
2.0
 40
2.0
 40
2.0
 40
2.0
 10
216.8158522145123
 20
59.73333908463449
 30
0.0
 10
217.8227288837169
 20
59.63356924154964
 30
0.0
 10
218.6660963455617
 20
59.80881579695311
 30
0.0
 10
219.3459546000466
 20
60.25907875084491
 30
0.0
 10
219.8575690131186
 20
60.59791558244001
 30
0.0
 10
220.2765876865615
 20
61.09249500027428
 30
0.0
 10
220.6030106203753
 20
61.7428170043477
 30
0.0
  0
SPLINE
  5
122
330
1F
100
AcDbEntity
  8
0
  6
K5LT32769
 62
    30
420
 16744448
100
AcDbSpline
210
0.0
220
0.0
230
1.0
 70
     8
 71
     3
 72
    32
 73
    28
 74
     0
 42
0.0
 43
0.0
 12
1.0
 22
0.0
 32
0.0
 13
1.0
 23
0.0
 33
0.0
 40
0.0
 40
0.0
 40
0.0
 40
0.0
 40
1.0
 40
1.0
 40
1.0
 40
2.0
 40
2.0
 40
2.0
 40
3.0
 40
3.0
 40
3.0
 40
4.0
 40
4.0
 40
4.0
 40
5.0
 40
5.0
 40
5.0
 40
6.0
 40
6.0
 40
6.0
 40
7.0
 40
7.0
 40
7.0
 40
8.0
 40
8.0
 40
8.0
 40
9.0
 40
9.0
 40
9.0
 40
9.0
 10
220.6030106203753
 20
61.7428170043477
 30
0.0
 10
217.9751266339496
 20
62.07167658316283
 30
0.0
 10
216.143809108556
 20
62.94818092658561
 30
0.0
 10
215.1090580441945
 20
64.37233003461601
 30
0.0
 10
213.9761504114942
 20
65.93157404040636
 30
0.0
 10
213.9310913976152
 20
69.06319615419068
 30
0.0
 10
214.5749122304834
 20
71.01947793857636
 30
0.0
 10
215.181270436432
 20
72.8619276583619
 30
0.0
 10
216.8280326492674
 20
74.96993905845305
 30
0.0
 10
218.5810058333166
 20
75.85646502940465
 30
0.0
 10
219.8909101090157
 20
76.51891906488818
 30
0.0
 10
222.0400543967256
 20
77.22651935305471
 30
0.0
 10
223.2102695521461
 20
76.6280089825429
 30
0.0
 10
224.1768647977648
 20
76.13364068120069
 30
0.0
 10
225.1854609707296
 20
74.56173378779953
 30
0.0
 10
225.3468528069905
 20
73.39345933284791
 30
0.0
 10
225.4912959029168
 20
72.34787249850496
 30
0.0
 10
225.2301256693519
 20
70.64836878617554
 30
0.0
 10
224.4566097841387
 20
70.04021061343934
 30
0.0
 10
223.8701248267972
 20
69.57910098813957
 30
0.0
 10
222.5967392150384
 20
69.24931765081645
 30
0.0
 10
221.8749050178684
 20
69.53573956715664
 30
0.0
 10
221.3451753819817
 20
69.74593489739688
 30
0.0
 10
220.7951780672126
 20
70.35458882571218
 30
0.0
 10
220.5098657161622
 20
70.90077886886277
 30
0.0
 10
220.2458062454553
 20
71.4062832859298
 30
0.0
 10
220.1271071757417
 20
71.98988704535489
 30
0.0
 10
220.1537685070215
 20
72.65159014713805
 30
0.0
  0
SPLINE
  5
123
330
1F
100
AcDbEntity
  8
0
  6
K5LT32769
 62
    30
420
 16744448
100
AcDbSpline
210
0.0
220
0.0
230
1.0
 70
     8
 71
     3
 72
    26
 73
    22
 74
     0
 42
0.0
 43
0.0
 12
1.0
 22
0.0
 32
0.0
 13
1.0
 23
0.0
 33
0.0
 40
0.0
 40
0.0
 40
0.0
 40
0.0
 40
1.0
 40
1.0
 40
1.0
 40
2.0
 40
2.0
 40
2.0
 40
3.0
 40
3.0
 40
3.0
 40
4.0
 40
4.0
 40
4.0
 40
5.0
 40
5.0
 40
5.0
 40
6.0
 40
6.0
 40
6.0
 40
7.0
 40
7.0
 40
7.0
 40
7.0
 10
220.1537685070215
 20
72.65159014713805
 30
0.0
 10
220.54778793675
 20
71.90892274946398
 30
0.0
 10
221.0324758047472
 20
71.44401805975247
 30
0.0
 10
221.6078321110128
 20
71.25687607800351
 30
0.0
 10
222.1806868562729
 20
71.07054776089846
 30
0.0
 10
223.1658920787676
 20
71.15919094561782
 30
0.0
 10
223.5960415287153
 20
71.52394898485906
 30
0.0
 10
224.0226941548314
 20
71.88574178817005
 30
0.0
 10
224.2892595590889
 20
72.88779028206773
 30
0.0
 10
224.1895368772831
 20
73.4231341002763
 30
0.0
 10
224.0437798565936
 20
74.20560523496417
 30
0.0
 10
222.6964713530123
 20
74.98998651987147
 30
0.0
 10
221.84523025044
 20
75.14427061112318
 30
0.0
 10
220.9441771303894
 20
75.30758293400847
 30
0.0
 10
219.5286111835824
 20
74.86722412778809
 30
0.0
 10
218.9074282750289
 20
74.22435282084295
 30
0.0
 10
218.2538985489958
 20
73.54800531784937
 30
0.0
 10
217.9671701896256
 20
72.07844775887294
 30
0.0
 10
218.1358843218907
 20
71.07882747343315
 30
0.0
 10
218.2623963132609
 20
70.32925213420556
 30
0.0
 10
218.6283851115444
 20
69.6071661267813
 30
0.0
 10
219.2338507167413
 20
68.91256945116035
 30
0.0
  0
SPLINE
  5
124
330
1F
100
AcDbEntity
  8
0
  6
K5LT32769
 62
    30
420
 16744448
100
AcDbSpline
210
0.0
220
0.0
230
1.0
 70
     8
 71
     3
 72
    14
 73
    10
 74
     0
 42
0.0
 43
0.0
 12
1.0
 22
0.0
 32
0.0
 13
1.0
 23
0.0
 33
0.0
 40
0.0
 40
0.0
 40
0.0
 40
0.0
 40
1.0
 40
1.0
 40
1.0
 40
2.0
 40
2.0
 40
2.0
 40
3.0
 40
3.0
 40
3.0
 40
3.0
 10
219.2338507167413
 20
68.91256945116035
 30
0.0
 10
218.0093915881539
 20
67.56320588346894
 30
0.0
 10
217.5840532550136
 20
66.42567313204717
 30
0.0
 10
217.9578357173203
 20
65.49997119689502
 30
0.0
 10
218.2193902603447
 20
64.85221061141633
 30
0.0
 10
219.1448214907608
 20
64.11567652068736
 30
0.0
 10
219.9163703675943
 20
63.86785898833332
 30
0.0
 10
220.4124826932713
 20
63.70851026006576
 30
0.0
 10
220.9576743321664
 20
63.67163649989469
 30
0.0
 10
221.5519452842794
 20
63.75723770782012
 30
0.0
  0
SPLINE
  5
125
330
1F
100
AcDbEntity
  8
0
  6
K5LT32769
 62
    30
420
 16744448
100
AcDbSpline
210
0.0
220
0.0
230
1.0
 70
     8
 71
     3
 72
    23
 73
    19
 74
     0
 42
0.0
 43
0.0
 12
1.0
 22
0.0
 32
0.0
 13
1.0
 23
0.0
 33
0.0
 40
0.0
 40
0.0
 40
0.0
 40
0.0
 40
1.0
 40
1.0
 40
1.0
 40
2.0
 40
2.0
 40
2.0
 40
3.0
 40
3.0
 40
3.0
 40
4.0
 40
4.0
 40
4.0
 40
5.0
 40
5.0
 40
5.0
 40
6.0
 40
6.0
 40
6.0
 40
6.0
 10
292.8315679271857
 20
44.84377293156336
 30
0.0
 10
294.2737238589083
 20
43.44215073225839
 30
0.0
 10
295.7228710032443
 20
42.65931266599592
 30
0.0
 10
297.1790093601937
 20
42.49525873277596
 30
0.0
 10
299.3297406855587
 20
42.25294938659217
 30
0.0
 10
302.041132138006
 20
44.20800813579354
 30
0.0
 10
303.6769585725132
 20
45.8180736708939
 30
0.0
 10
305.6699762164056
 20
47.77970538901975
 30
0.0
 10
306.3609222135151
 20
51.14435019237431
 30
0.0
 10
307.2951348384639
 20
53.9405101862933
 30
0.0
 10
308.3663496034878
 20
57.14672662017996
 30
0.0
 10
307.9596450418312
 20
60.92138180560656
 30
0.0
 10
309.436504465251
 20
63.90895500064711
 30
0.0
 10
310.3802147162285
 20
65.81800836415323
 30
0.0
 10
311.6530716283584
 20
67.7662514254607
 30
0.0
 10
313.202361395118
 20
69.22545890163582
 30
0.0
 10
314.7714259221415
 20
70.70329134948238
 30
0.0
 10
316.642047665082
 20
71.86012321682715
 30
0.0
 10
318.8142266239394
 20
72.69595450367011
 30
0.0
  0
SPLINE
  5
126
330
1F
100
AcDbEntity
  8
0
  6
K5LT32769
 62
    30
420
 16744448
100
AcDbSpline
210
0.0
220
0.0
230
1.0
 70
     8
 71
     3
 72
    11
 73
     7
 74
     0
 42
0.0
 43
0.0
 12
1.0
 22
0.0
 32
0.0
 13
1.0
 23
0.0
 33
0.0
 40
0.0
 40
0.0
 40
0.0
 40
0.0
 40
1.0
 40
1.0
 40
1.0
 40
2.0
 40
2.0
 40
2.0
 40
2.0
 10
318.8142266239394
 20
72.69595450367011
 30
0.0
 10
316.9447720083865
 20
73.2670372339578
 30
0.0
 10
315.3449534311776
 20
73.23224503850399
 30
0.0
 10
314.0147708923129
 20
72.59157791730871
 30
0.0
 10
312.863033629898
 20
72.03685691118696
 30
0.0
 10
311.913441034456
 20
71.02791477852979
 30
0.0
 10
311.1659931059868
 20
69.56475151933722
 30
0.0
  0
SPLINE
  5
127
330
1F
100
AcDbEntity
  8
0
  6
K5LT32769
 62
    30
420
 16744448
100
AcDbSpline
210
0.0
220
0.0
230
1.0
 70
     8
 71
     3
 72
    11
 73
     7
 74
     0
 42
0.0
 43
0.0
 12
1.0
 22
0.0
 32
0.0
 13
1.0
 23
0.0
 33
0.0
 40
0.0
 40
0.0
 40
0.0
 40
0.0
 40
1.0
 40
1.0
 40
1.0
 40
2.0
 40
2.0
 40
2.0
 40
2.0
 10
311.1659931059868
 20
69.56475151933722
 30
0.0
 10
311.014880113353
 20
70.02219696312598
 30
0.0
 10
310.9555305761378
 20
70.46138353851792
 30
0.0
 10
310.9879444943414
 20
70.88231124551304
 30
0.0
 10
311.0552479527211
 20
71.75631512960814
 30
0.0
 10
311.5181743429991
 20
72.55159892829084
 30
0.0
 10
312.3767236651753
 20
73.26816264156116
 30
0.0
  0
SPLINE
  5
128
330
1F
100
AcDbEntity
  8
0
  6
K5LT32769
 62
    30
420
 16744448
100
AcDbSpline
210
0.0
220
0.0
230
1.0
 70
     8
 71
     3
 72
    11
 73
     7
 74
     0
 42
0.0
 43
0.0
 12
1.0
 22
0.0
 32
0.0
 13
1.0
 23
0.0
 33
0.0
 40
0.0
 40
0.0
 40
0.0
 40
0.0
 40
1.0
 40
1.0
 40
1.0
 40
2.0
 40
2.0
 40
2.0
 40
2.0
 10
312.3767236651753
 20
73.26816264156116
 30
0.0
 10
311.3563388732081
 20
72.80953468153449
 30
0.0
 10
310.4898356298672
 20
72.20416940194019
 30
0.0
 10
309.7772139351528
 20
71.45206680277826
 30
0.0
 10
309.0867280629472
 20
70.72332640233539
 30
0.0
 10
308.540712320568
 20
69.85682315899453
 30
0.0
 10
308.1391667080153
 20
68.85255707275569
 30
0.0
  0
SPLINE
  5
129
330
1F
100
AcDbEntity
  8
0
  6
K5LT32769
 62
    30
420
 16744448
100
AcDbSpline
210
0.0
220
0.0
230
1.0
 70
     8
 71
     3
 72
    11
 73
     7
 74
     0
 42
0.0
 43
0.0
 12
1.0
 22
0.0
 32
0.0
 13
1.0
 23
0.0
 33
0.0
 40
0.0
 40
0.0
 40
0.0
 40
0.0
 40
1.0
 40
1.0
 40
1.0
 40
2.0
 40
2.0
 40
2.0
 40
2.0
 10
308.1391667080153
 20
68.85255707275569
 30
0.0
 10
308.1176568235665
 20
69.71036705639186
 30
0.0
 10
308.2244859905537
 20
70.52939066996062
 30
0.0
 10
308.459654208977
 20
71.30962791346195
 30
0.0
 10
308.6969498148079
 20
72.0969233678811
 30
0.0
 10
309.0649169455417
 20
72.84472753679171
 30
0.0
 10
309.5635556011783
 20
73.55304042019378
 30
0.0
  0
SPLINE
  5
12A
330
1F
100
AcDbEntity
  8
0
  6
K5LT32769
 62
    30
420
 16744448
100
AcDbSpline
210
0.0
220
0.0
230
1.0
 70
     8
 71
     3
 72
    11
 73
     7
 74
     0
 42
0.0
 43
0.0
 12
1.0
 22
0.0
 32
0.0
 13
1.0
 23
0.0
 33
0.0
 40
0.0
 40
0.0
 40
0.0
 40
0.0
 40
1.0
 40
1.0
 40
1.0
 40
2.0
 40
2.0
 40
2.0
 40
2.0
 10
309.5635556011783
 20
73.55304042019378
 30
0.0
 10
308.1388530994843
 20
72.9259024648352
 30
0.0
 10
307.082431337055
 20
72.05939922149435
 30
0.0
 10
306.3942903138905
 20
70.95353069017119
 30
0.0
 10
305.7865994258478
 20
69.97694855477138
 30
0.0
 10
305.4661119248861
 20
68.81369762535489
 30
0.0
 10
305.4328278110054
 20
67.4637779019217
 30
0.0
  0
SPLINE
  5
12B
330
1F
100
AcDbEntity
  8
0
  6
K5LT32769
 62
    30
420
 16744448
100
AcDbSpline
210
0.0
220
0.0
230
1.0
 70
     8
 71
     3
 72
    20
 73
    16
 74
     0
 42
0.0
 43
0.0
 12
1.0
 22
0.0
 32
0.0
 13
1.0
 23
0.0
 33
0.0
 40
0.0
 40
0.0
 40
0.0
 40
0.0
 40
1.0
 40
1.0
 40
1.0
 40
2.0
 40
2.0
 40
2.0
 40
3.0
 40
3.0
 40
3.0
 40
4.0
 40
4.0
 40
4.0
 40
5.0
 40
5.0
 40
5.0
 40
5.0
 10
305.4328278110054
 20
67.4637779019217
 30
0.0
 10
304.784273317127
 20
68.57716176764811
 30
0.0
 10
304.3094770194061
 20
69.72854278962157
 30
0.0
 10
304.0084389178425
 20
70.91792096784211
 30
0.0
 10
303.5719942339181
 20
72.64228004519369
 30
0.0
 10
303.4400608484883
 20
74.60111659087548
 30
0.0
 10
303.794780583868
 20
76.33059876186172
 30
0.0
 10
304.0667206060666
 20
77.65647768277024
 30
0.0
 10
304.3159774481711
 20
79.54587223448955
 30
0.0
 10
305.3616083663474
 20
80.17644877340197
 30
0.0
 10
305.9983987569911
 20
80.56047058603656
 30
0.0
 10
307.0855116388511
 20
80.79266312037086
 30
0.0
 10
307.8542889293827
 20
80.60376544135089
 30
0.0
 10
308.422349930604
 20
80.46418613015885
 30
0.0
 10
308.9564957655401
 20
80.14369862919716
 30
0.0
 10
309.4567264341911
 20
79.64230293846583
 30
0.0
  0
SPLINE
  5
12C
330
1F
100
AcDbEntity
  8
0
  6
K5LT32769
 62
    30
420
 16744448
100
AcDbSpline
210
0.0
220
0.0
230
1.0
 70
     8
 71
     3
 72
    29
 73
    25
 74
     0
 42
0.0
 43
0.0
 12
1.0
 22
0.0
 32
0.0
 13
1.0
 23
0.0
 33
0.0
 40
0.0
 40
0.0
 40
0.0
 40
0.0
 40
1.0
 40
1.0
 40
1.0
 40
2.0
 40
2.0
 40
2.0
 40
3.0
 40
3.0
 40
3.0
 40
4.0
 40
4.0
 40
4.0
 40
5.0
 40
5.0
 40
5.0
 40
6.0
 40
6.0
 40
6.0
 40
7.0
 40
7.0
 40
7.0
 40
8.0
 40
8.0
 40
8.0
 40
8.0
 10
309.4567264341911
 20
79.64230293846583
 30
0.0
 10
308.634608431735
 20
79.92998657140845
 30
0.0
 10
307.9342838925965
 20
79.94185647885148
 30
0.0
 10
307.3557528167756
 20
79.6779126607949
 30
0.0
 10
306.8069801068133
 20
79.42754553210231
 30
0.0
 10
306.1724314571979
 20
78.71466377721671
 30
0.0
 10
306.0381930905998
 20
78.18230432297369
 30
0.0
 10
305.8385603622331
 20
77.3906053995165
 30
0.0
 10
306.7397783166585
 20
75.90863492228974
 30
0.0
 10
307.4625819837628
 20
75.58279459295112
 30
0.0
 10
308.1727574491999
 20
75.26264706454518
 30
0.0
 10
309.6036228726142
 20
75.67807423698544
 30
0.0
 10
310.311359770089
 20
76.18815987254541
 30
0.0
 10
311.1473512914459
 20
76.7906821771131
 30
0.0
 10
311.8069681079102
 20
78.25352376763185
 30
0.0
 10
311.8069681079102
 20
79.28620571517506
 30
0.0
 10
311.8069681079102
 20
80.31888766271828
 30
0.0
 10
311.1265369796843
 20
81.74073185676845
 30
0.0
 10
310.311359770089
 20
82.38425155780472
 30
0.0
 10
309.5459596290231
 20
82.9884760922423
 30
0.0
 10
308.239276202203
 20
83.01934804129998
 30
0.0
 10
307.1777042051302
 20
83.16766544904439
 30
0.0
 10
306.3338347247612
 20
83.28556657506135
 30
0.0
 10
305.4792101349447
 20
83.33217585042418
 30
0.0
 10
304.6138304356805
 20
83.30749327513286
 30
0.0
  0
SPLINE
  5
12D
330
1F
100
AcDbEntity
  8
0
  6
K5LT32769
 62
    30
420
 16744448
100
AcDbSpline
210
0.0
220
0.0
230
1.0
 70
     8
 71
     3
 72
    11
 73
     7
 74
     0
 42
0.0
 43
0.0
 12
1.0
 22
0.0
 32
0.0
 13
1.0
 23
0.0
 33
0.0
 40
0.0
 40
0.0
 40
0.0
 40
0.0
 40
1.0
 40
1.0
 40
1.0
 40
2.0
 40
2.0
 40
2.0
 40
2.0
 10
301.8492481874571
 20
81.7758428427822
 30
0.0
 10
300.793300899913
 20
81.02574138297535
 30
0.0
 10
299.9347319424881
 20
80.14844002821032
 30
0.0
 10
299.2735413151825
 20
79.1439387784871
 30
0.0
 10
298.5468228679908
 20
78.03988563820653
 30
0.0
 10
298.0585440634608
 20
76.78217075865554
 30
0.0
 10
297.8087049015922
 20
75.37079413983415
 30
0.0
  0
SPLINE
  5
12E
330
1F
100
AcDbEntity
  8
0
  6
K5LT32769
 62
    30
420
 16744448
100
AcDbSpline
210
0.0
220
0.0
230
1.0
 70
     8
 71
     3
 72
    14
 73
    10
 74
     0
 42
0.0
 43
0.0
 12
1.0
 22
0.0
 32
0.0
 13
1.0
 23
0.0
 33
0.0
 40
0.0
 40
0.0
 40
0.0
 40
0.0
 40
1.0
 40
1.0
 40
1.0
 40
2.0
 40
2.0
 40
2.0
 40
3.0
 40
3.0
 40
3.0
 40
3.0
 10
297.8087049025128
 20
105.1988258556003
 30
0.0
 10
297.8686954227991
 20
106.3849687022713
 30
0.0
 10
298.2087107483779
 20
107.3989724625112
 30
0.0
 10
298.8287508792493
 20
108.24083713632
 30
0.0
 10
299.2521226869003
 20
108.8156737493101
 30
0.0
 10
299.8441725288374
 20
109.3904255708291
 30
0.0
 10
300.4905378552394
 20
109.7245755077398
 30
0.0
 10
300.9053675025472
 20
109.9390289983813
 30
0.0
 10
301.3582709466198
 20
110.0874028355233
 30
0.0
 10
301.8492481874571
 20
110.1696970191657
 30
0.0
  0
SPLINE
  5
12F
330
1F
100
AcDbEntity
  8
0
  6
K5LT32769
 62
    30
420
 16744448
100
AcDbSpline
210
0.0
220
0.0
230
1.0
 70
     8
 71
     3
 72
    11
 73
     7
 74
     0
 42
0.0
 43
0.0
 12
1.0
 22
0.0
 32
0.0
 13
1.0
 23
0.0
 33
0.0
 40
0.0
 40
0.0
 40
0.0
 40
0.0
 40
1.0
 40
1.0
 40
1.0
 40
2.0
 40
2.0
 40
2.0
 40
2.0
 10
304.6138304356805
 20
109.9619736471669
 30
0.0
 10
305.560157612565
 20
109.5511520183325
 30
0.0
 10
306.2827436506912
 20
108.9972230263358
 30
0.0
 10
306.7815885500589
 20
108.3001866711768
 30
0.0
 10
307.448192460404
 20
107.3687405231045
 30
0.0
 10
307.7152653672595
 20
106.1817498259687
 30
0.0
 10
307.5828072706256
 20
104.7392145797695
 30
0.0
  0
SPLINE
  5
130
330
1F
100
AcDbEntity
  8
0
  6
K5LT32769
 62
    30
420
 16744448
100
AcDbSpline
210
0.0
220
0.0
230
1.0
 70
     8
 71
     3
 72
    11
 73
     7
 74
     0
 42
0.0
 43
0.0
 12
1.0
 22
0.0
 32
0.0
 13
1.0
 23
0.0
 33
0.0
 40
0.0
 40
0.0
 40
0.0
 40
0.0
 40
1.0
 40
1.0
 40
1.0
 40
2.0
 40
2.0
 40
2.0
 40
2.0
 10
307.5828072706256
 20
104.7392145797695
 30
0.0
 10
308.6206302986564
 20
105.7604573142996
 30
0.0
 10
309.1448845232247
 20
106.8089657634362
 30
0.0
 10
309.1555699443305
 20
107.8847399271793
 30
0.0
 10
309.164328807621
 20
108.7665543861842
 30
0.0
 10
308.8280147767658
 20
109.6666889981788
 30
0.0
 10
308.1466278517651
 20
110.5851437631632
 30
0.0
  0
SPLINE
  5
131
330
1F
100
AcDbEntity
  8
0
  6
K5LT32769
 62
    30
420
 16744448
100
AcDbSpline
210
0.0
220
0.0
230
1.0
 70
     8
 71
     3
 72
    17
 73
    13
 74
     0
 42
0.0
 43
0.0
 12
1.0
 22
0.0
 32
0.0
 13
1.0
 23
0.0
 33
0.0
 40
0.0
 40
0.0
 40
0.0
 40
0.0
 40
1.0
 40
1.0
 40
1.0
 40
2.0
 40
2.0
 40
2.0
 40
3.0
 40
3.0
 40
3.0
 40
4.0
 40
4.0
 40
4.0
 40
4.0
 10
308.1466278517651
 20
110.5851437631632
 30
0.0
 10
308.7825200336391
 20
110.2704543991574
 30
0.0
 10
309.3463406147786
 20
110.1814300968722
 30
0.0
 10
309.8380895951836
 20
110.3180708563076
 30
0.0
 10
310.4105612896879
 20
110.4771417851948
 30
0.0
 10
310.9365543871456
 20
111.161183087508
 30
0.0
 10
311.2624784317465
 20
111.7127849254422
 30
0.0
 10
311.6037487990216
 20
112.2903592558416
 30
0.0
 10
311.4163707219736
 20
113.1885593449746
 30
0.0
 10
311.7966242454576
 20
113.730669110573
 30
0.0
 10
312.0963405250934
 20
114.1579606728199
 30
0.0
 10
312.5216788582337
 20
114.5041662928178
 30
0.0
 10
313.0726392448786
 20
114.7692859705668
 30
0.0
  0
SPLINE
  5
132
330
1F
100
AcDbEntity
  8
0
  6
K5LT32769
 62
    30
420
 16744448
100
AcDbSpline
210
0.0
220
0.0
230
1.0
 70
     8
 71
     3
 72
    17
 73
    13
 74
     0
 42
0.0
 43
0.0
 12
1.0
 22
0.0
 32
0.0
 13
1.0
 23
0.0
 33
0.0
 40
0.0
 40
0.0
 40
0.0
 40
0.0
 40
1.0
 40
1.0
 40
1.0
 40
2.0
 40
2.0
 40
2.0
 40
3.0
 40
3.0
 40
3.0
 40
4.0
 40
4.0
 40
4.0
 40
4.0
 10
313.0726392448786
 20
114.7692859705668
 30
0.0
 10
312.4337067608558
 20
114.9307558609523
 30
0.0
 10
311.9589104820015
 20
115.2077203569506
 30
0.0
 10
311.6482504083157
 20
115.6001794585618
 30
0.0
 10
311.2502276173353
 20
116.1030045081913
 30
0.0
 10
311.6285194712413
 20
117.1355963301366
 30
0.0
 10
311.2624784317465
 20
117.6774131785494
 30
0.0
 10
310.94571740919
 20
118.1462853552279
 30
0.0
 10
310.332567061804
 20
118.606481576692
 30
0.0
 10
309.7787400603268
 20
118.7457048059716
 30
0.0
 10
309.2823067170695
 20
118.8705001897035
 30
0.0
 10
308.7382693142156
 20
118.8210422439895
 30
0.0
 10
308.1466278517651
 20
118.5973309688297
 30
0.0
  0
SPLINE
  5
133
330
1F
100
AcDbEntity
  8
0
  6
K5LT32769
 62
    30
420
 16744448
100
AcDbSpline
210
0.0
220
0.0
230
1.0
 70
     8
 71
     3
 72
    11
 73
     7
 74
     0
 42
0.0
 43
0.0
 12
1.0
 22
0.0
 32
0.0
 13
1.0
 23
0.0
 33
0.0
 40
0.0
 40
0.0
 40
0.0
 40
0.0
 40
1.0
 40
1.0
 40
1.0
 40
2.0
 40
2.0
 40
2.0
 40
2.0
 10
308.1466278517651
 20
118.5973309688297
 30
0.0
 10
308.871697005011
 20
119.63147974848
 30
0.0
 10
309.2179026250089
 20
120.6503134301882
 30
0.0
 10
309.1852447117589
 20
121.6538320139543
 30
0.0
 10
309.1512256703716
 20
122.6991756025909
 30
0.0
 10
308.7061041589457
 20
123.7279008734419
 30
0.0
 10
307.8498801774812
 20
124.7400078265073
 30
0.0
  0
SPLINE
  5
134
330
1F
100
AcDbEntity
  8
0
  6
K5LT32769
 62
    30
420
 16744448
100
AcDbSpline
210
0.0
220
0.0
230
1.0
 70
     8
 71
     3
 72
    11
 73
     7
 74
     0
 42
0.0
 43
0.0
 12
1.0
 22
0.0
 32
0.0
 13
1.0
 23
0.0
 33
0.0
 40
0.0
 40
0.0
 40
0.0
 40
0.0
 40
1.0
 40
1.0
 40
1.0
 40
2.0
 40
2.0
 40
2.0
 40
2.0
 10
307.8498801774812
 20
124.7400078265073
 30
0.0
 10
307.8882915812526
 20
123.3655536850781
 30
0.0
 10
307.6113270852542
 20
122.1686713987995
 30
0.0
 10
307.0189866894861
 20
121.1493609676716
 30
0.0
 10
306.4791820889921
 20
120.2204551155882
 30
0.0
 10
305.6774633377236
 20
119.4390195733071
 30
0.0
 10
304.6138304356805
 20
118.8050543408284
 30
0.0
  0
SPLINE
  5
135
330
1F
100
AcDbEntity
  8
0
  6
K5LT32769
 62
    30
420
 16744448
100
AcDbSpline
210
0.0
220
0.0
230
1.0
 70
     8
 71
     3
 72
    11
 73
     7
 74
     0
 42
0.0
 43
0.0
 12
1.0
 22
0.0
 32
0.0
 13
1.0
 23
0.0
 33
0.0
 40
0.0
 40
0.0
 40
0.0
 40
0.0
 40
1.0
 40
1.0
 40
1.0
 40
2.0
 40
2.0
 40
2.0
 40
2.0
 10
301.8492481874571
 20
118.7753795734
 30
0.0
 10
300.6780531290117
 20
118.998315777331
 30
0.0
 10
299.7602449952277
 20
119.4533288778997
 30
0.0
 10
299.0958237861048
 20
120.1404188751062
 30
0.0
 10
298.3312544520381
 20
120.9310738608216
 30
0.0
 10
297.9022148238672
 20
122.0290402556721
 30
0.0
 10
297.8087049015922
 20
123.4343180596579
 30
0.0
  0
LINE
  5
136
330
1F
100
AcDbEntity
  8
0
  6
K5LT32769
 62
    30
420
 16744448
100
AcDbLine
 10
297.8087049015922
 20
105.1988258561663
 30
0.0
 11
297.8087049015922
 21
75.37079413983415
 31
0.0
  0
LINE
  5
137
330
1F
100
AcDbEntity
  8
0
  6
K5LT32769
 62
    30
420
 16744448
100
AcDbLine
 10
301.8492481874572
 20
110.1696970191657
 30
0.0
 11
301.8492481874571
 21
81.7758428427822
 31
0.0
  0
LINE
  5
138
330
1F
100
AcDbEntity
  8
0
  6
K5LT32769
 62
    30
420
 16744448
100
AcDbLine
 10
304.6138304356805
 20
109.9619736471669
 30
0.0
 11
304.6138304356805
 21
83.30749327513286
 31
0.0
  0
SPLINE
  5
139
330
1F
100
AcDbEntity
  8
0
  6
K5LT32769
 62
    30
420
 16744448
100
AcDbSpline
210
0.0
220
0.0
230
1.0
 70
     8
 71
     3
 72
    11
 73
     7
 74
     0
 42
0.0
 43
0.0
 12
1.0
 22
0.0
 32
0.0
 13
1.0
 23
0.0
 33
0.0
 40
0.0
 40
0.0
 40
0.0
 40
0.0
 40
1.0
 40
1.0
 40
1.0
 40
2.0
 40
2.0
 40
2.0
 40
2.0
 10
226.992867312343
 20
105.5717237923084
 30
0.0
 10
226.8656166686461
 20
106.602975043508
 30
0.0
 10
226.5124050782451
 20
107.4662764380588
 30
0.0
 10
225.9332325411396
 20
108.1616279759609
 30
0.0
 10
225.2337453046148
 20
109.0014287166716
 30
0.0
 10
224.2046657709517
 20
109.5962535893652
 30
0.0
 10
222.8459939401506
 20
109.9461025940415
 30
0.0
  0
SPLINE
  5
13A
330
1F
100
AcDbEntity
  8
0
  6
K5LT32769
 62
    30
420
 16744448
100
AcDbSpline
210
0.0
220
0.0
230
1.0
 70
     8
 71
     3
 72
    11
 73
     7
 74
     0
 42
0.0
 43
0.0
 12
1.0
 22
0.0
 32
0.0
 13
1.0
 23
0.0
 33
0.0
 40
0.0
 40
0.0
 40
0.0
 40
0.0
 40
1.0
 40
1.0
 40
1.0
 40
2.0
 40
2.0
 40
2.0
 40
2.0
 10
226.9928673124857
 20
123.2215531726028
 30
0.0
 10
226.9407123114543
 20
121.2837226793785
 30
0.0
 10
226.3413662909255
 20
119.9147416600191
 30
0.0
 10
225.1948292508994
 20
119.1146101145247
 30
0.0
 10
224.5728941649665
 20
118.68058150129
 30
0.0
 10
223.7899490613836
 20
118.4139358687033
 30
0.0
 10
222.8459939401506
 20
118.3146732167644
 30
0.0
  0
SPLINE
  5
13B
330
1F
100
AcDbEntity
  8
0
  6
K5LT32769
 62
    30
420
 16744448
100
AcDbSpline
210
0.0
220
0.0
230
1.0
 70
     8
 71
     3
 72
    14
 73
    10
 74
     0
 42
0.0
 43
0.0
 12
1.0
 22
0.0
 32
0.0
 13
1.0
 23
0.0
 33
0.0
 40
0.0
 40
0.0
 40
0.0
 40
0.0
 40
1.0
 40
1.0
 40
1.0
 40
2.0
 40
2.0
 40
2.0
 40
3.0
 40
3.0
 40
3.0
 40
3.0
 10
219.9750816054571
 20
109.9048064938705
 30
0.0
 10
218.9287586318288
 20
110.0540287046743
 30
0.0
 10
218.0943909171436
 20
109.8974118828033
 30
0.0
 10
217.4719784614013
 20
109.4349560282577
 30
0.0
 10
216.9350951964691
 20
109.0360488296873
 30
0.0
 10
216.5359168673774
 20
108.2268207470845
 30
0.0
 10
216.334445755181
 20
107.5555541658068
 30
0.0
 10
216.0642257258492
 20
106.6552281919989
 30
0.0
 10
216.1136836695979
 20
105.6743123076495
 30
0.0
 10
216.4828195864272
 20
104.6128065127587
 30
0.0
  0
SPLINE
  5
13C
330
1F
100
AcDbEntity
  8
0
  6
K5LT32769
 62
    30
420
 16744448
100
AcDbSpline
210
0.0
220
0.0
230
1.0
 70
     8
 71
     3
 72
    11
 73
     7
 74
     0
 42
0.0
 43
0.0
 12
1.0
 22
0.0
 32
0.0
 13
1.0
 23
0.0
 33
0.0
 40
0.0
 40
0.0
 40
0.0
 40
0.0
 40
1.0
 40
1.0
 40
1.0
 40
2.0
 40
2.0
 40
2.0
 40
2.0
 10
216.4828195864272
 20
104.6128065127587
 30
0.0
 10
215.266911004938
 20
105.3581518424503
 30
0.0
 10
214.5085558674578
 20
106.2401518393022
 30
0.0
 10
214.2077541739866
 20
107.2588065033146
 30
0.0
 10
213.9110973667771
 20
108.2634246515294
 30
0.0
 10
214.0594711980233
 20
109.4009573577497
 30
0.0
 10
214.6528756677249
 20
110.6714046219755
 30
0.0
  0
SPLINE
  5
13D
330
1F
100
AcDbEntity
  8
0
  6
K5LT32769
 62
    30
420
 16744448
100
AcDbSpline
210
0.0
220
0.0
230
1.0
 70
     8
 71
     3
 72
    20
 73
    16
 74
     0
 42
0.0
 43
0.0
 12
1.0
 22
0.0
 32
0.0
 13
1.0
 23
0.0
 33
0.0
 40
0.0
 40
0.0
 40
0.0
 40
0.0
 40
1.0
 40
1.0
 40
1.0
 40
2.0
 40
2.0
 40
2.0
 40
3.0
 40
3.0
 40
3.0
 40
4.0
 40
4.0
 40
4.0
 40
5.0
 40
5.0
 40
5.0
 40
5.0
 10
214.6528756677249
 20
110.6714046219755
 30
0.0
 10
214.1014940267038
 20
109.9268501715026
 30
0.0
 10
213.5492136548432
 20
109.564158584012
 30
0.0
 10
212.9960345521432
 20
109.5833298595039
 30
0.0
 10
212.5021714416022
 20
109.6004454477487
 30
0.0
 10
211.8539158266308
 20
110.114200896878
 30
0.0
 10
211.5122962396819
 20
110.5477597626037
 30
0.0
 10
211.101138197102
 20
111.0695718055462
 30
0.0
 10
211.3742483682336
 20
112.082736563861
 30
0.0
 10
210.9435298865718
 20
112.6002644281751
 30
0.0
 10
210.6894653228173
 20
112.9055345678971
 30
0.0
 10
210.2982036313724
 20
113.1518891170048
 30
0.0
 10
209.9296420397233
 20
113.3421335844057
 30
0.0
 10
209.6358513718412
 20
113.4937827263809
 30
0.0
 10
209.3226177280993
 20
113.6091845951279
 30
0.0
 10
208.9899411084978
 20
113.6883391906467
 30
0.0
  0
SPLINE
  5
13E
330
1F
100
AcDbEntity
  8
0
  6
K5LT32769
 62
    30
420
 16744448
100
AcDbSpline
210
0.0
220
0.0
230
1.0
 70
     8
 71
     3
 72
    23
 73
    19
 74
     0
 42
0.0
 43
0.0
 12
1.0
 22
0.0
 32
0.0
 13
1.0
 23
0.0
 33
0.0
 40
0.0
 40
0.0
 40
0.0
 40
0.0
 40
1.0
 40
1.0
 40
1.0
 40
2.0
 40
2.0
 40
2.0
 40
3.0
 40
3.0
 40
3.0
 40
4.0
 40
4.0
 40
4.0
 40
5.0
 40
5.0
 40
5.0
 40
6.0
 40
6.0
 40
6.0
 40
6.0
 10
208.9899411084978
 20
113.6883391906467
 30
0.0
 10
209.4922977438793
 20
113.8450134624457
 30
0.0
 10
209.9374192376177
 20
114.0758171999397
 30
0.0
 10
210.3253055897129
 20
114.3807504031286
 30
0.0
 10
210.6774765622925
 20
114.6576062970233
 30
0.0
 10
211.0110323197381
 20
115.0152754066787
 30
0.0
 10
211.240277549064
 20
115.3946382499771
 30
0.0
 10
211.5715765323646
 20
115.9428831345329
 30
0.0
 10
211.5110572629663
 20
116.6947127912881
 30
0.0
 10
211.7595859584255
 20
117.2987690843024
 30
0.0
 10
211.990960567291
 20
117.8611318660759
 30
0.0
 10
212.1660422814964
 20
118.6341309557938
 30
0.0
 10
212.6498289459022
 20
118.9061522561354
 30
0.0
 10
212.960245402505
 20
119.0806917678358
 30
0.0
 10
213.4533433853522
 20
119.1668661542009
 30
0.0
 10
213.8120906239969
 20
119.1039840311303
 30
0.0
 10
214.2608678209253
 20
119.0253212293338
 30
0.0
 10
214.6647743615397
 20
118.7450595480911
 30
0.0
 10
215.0238102458402
 20
118.2631989874022
 30
0.0
  0
SPLINE
  5
13F
330
1F
100
AcDbEntity
  8
0
  6
K5LT32769
 62
    30
420
 16744448
100
AcDbSpline
210
0.0
220
0.0
230
1.0
 70
     8
 71
     3
 72
    11
 73
     7
 74
     0
 42
0.0
 43
0.0
 12
1.0
 22
0.0
 32
0.0
 13
1.0
 23
0.0
 33
0.0
 40
0.0
 40
0.0
 40
0.0
 40
0.0
 40
1.0
 40
1.0
 40
1.0
 40
2.0
 40
2.0
 40
2.0
 40
2.0
 10
215.0238102458402
 20
118.2631989874022
 30
0.0
 10
214.8631841963129
 20
119.2073303833087
 30
0.0
 10
214.8954971393463
 20
120.0919686052122
 30
0.0
 10
215.1207490749405
 20
120.9171136531127
 30
0.0
 10
215.4082264775315
 20
121.9702036277028
 30
0.0
 10
216.0099647931408
 20
122.9263905401779
 30
0.0
 10
216.9259640217684
 20
123.7856743905378
 30
0.0
  0
SPLINE
  5
140
330
1F
100
AcDbEntity
  8
0
  6
K5LT32769
 62
    30
420
 16744448
100
AcDbSpline
210
0.0
220
0.0
230
1.0
 70
     8
 71
     3
 72
    14
 73
    10
 74
     0
 42
0.0
 43
0.0
 12
1.0
 22
0.0
 32
0.0
 13
1.0
 23
0.0
 33
0.0
 40
0.0
 40
0.0
 40
0.0
 40
0.0
 40
1.0
 40
1.0
 40
1.0
 40
2.0
 40
2.0
 40
2.0
 40
3.0
 40
3.0
 40
3.0
 40
3.0
 10
216.9259640217684
 20
123.7856743905378
 30
0.0
 10
216.6885752135435
 20
122.6649713885417
 30
0.0
 10
216.7133041854179
 20
121.618111579194
 30
0.0
 10
217.0001509373915
 20
120.6450949624948
 30
0.0
 10
217.2611826751232
 20
119.7596457930295
 30
0.0
 10
217.6537115516768
 20
118.5410374783806
 30
0.0
 10
218.434431306104
 20
118.1721977750594
 30
0.0
 10
218.8586367176656
 20
117.9717880925064
 30
0.0
 10
219.3721868174499
 20
117.9058441675082
 30
0.0
 10
219.9750816054571
 20
117.9743660000646
 30
0.0
  0
LINE
  5
141
330
1F
100
AcDbEntity
  8
0
  6
K5LT32769
 62
    30
420
 16744448
100
AcDbLine
 10
226.9928673124857
 20
105.5717237924145
 30
0.0
 11
226.9928673124857
 21
76.40636555389128
 31
0.0
  0
LINE
  5
142
330
1F
100
AcDbEntity
  8
0
  6
K5LT32769
 62
    30
420
 16744448
100
AcDbLine
 10
222.8459939401506
 20
109.9461025940415
 30
0.0
 11
222.8459939401506
 21
79.4746382904004
 31
0.0
  0
LINE
  5
143
330
1F
100
AcDbEntity
  8
0
  6
K5LT32769
 62
    30
420
 16744448
100
AcDbLine
 10
219.9750816054571
 20
109.9048064938705
 30
0.0
 11
219.9750816054571
 21
80.3480365609978
 31
0.0
  0
SPLINE
  5
144
330
1F
100
AcDbEntity
  8
0
  6
K5LT32769
 62
    30
420
 16744448
100
AcDbSpline
210
0.0
220
0.0
230
1.0
 70
     8
 71
     3
 72
    11
 73
     7
 74
     0
 42
0.0
 43
0.0
 12
1.0
 22
0.0
 32
0.0
 13
1.0
 23
0.0
 33
0.0
 40
0.0
 40
0.0
 40
0.0
 40
0.0
 40
1.0
 40
1.0
 40
1.0
 40
2.0
 40
2.0
 40
2.0
 40
2.0
 10
226.9928673124857
 20
76.40636555389128
 30
0.0
 10
226.5242135761543
 20
77.58757532922947
 30
0.0
 10
225.8369551397979
 20
78.42833932234201
 30
0.0
 10
224.9310920034167
 20
78.92865753322891
 30
0.0
 10
224.3317523534545
 20
79.25967943856948
 30
0.0
 10
223.6367196656991
 20
79.44167302429331
 30
0.0
 10
222.8459939401506
 20
79.4746382904004
 30
0.0
  0
SPLINE
  5
145
330
1F
100
AcDbEntity
  8
0
  6
K5LT32769
 62
    30
420
 16744448
100
AcDbSpline
210
0.0
220
0.0
230
1.0
 70
     8
 71
     3
 72
    11
 73
     7
 74
     0
 42
0.0
 43
0.0
 12
1.0
 22
0.0
 32
0.0
 13
1.0
 23
0.0
 33
0.0
 40
0.0
 40
0.0
 40
0.0
 40
0.0
 40
1.0
 40
1.0
 40
1.0
 40
2.0
 40
2.0
 40
2.0
 40
2.0
 10
226.9928673124857
 20
153.4063655538913
 30
0.0
 10
225.8637714915846
 20
152.1149743898421
 30
0.0
 10
224.9532376125542
 20
150.7222333667864
 30
0.0
 10
224.2612656753946
 20
149.2281424847243
 30
0.0
 10
223.573756655215
 20
147.7436878367478
 30
0.0
 10
223.1019994101337
 20
146.1591864386399
 30
0.0
 10
222.8459939401506
 20
144.4746382904004
 30
0.0
  0
SPLINE
  5
146
330
1F
100
AcDbEntity
  8
0
  6
K5LT32769
 62
    30
420
 16744448
100
AcDbSpline
210
0.0
220
0.0
230
1.0
 70
     8
 71
     3
 72
    23
 73
    19
 74
     0
 42
0.0
 43
0.0
 12
1.0
 22
0.0
 32
0.0
 13
1.0
 23
0.0
 33
0.0
 40
0.0
 40
0.0
 40
0.0
 40
0.0
 40
1.0
 40
1.0
 40
1.0
 40
2.0
 40
2.0
 40
2.0
 40
3.0
 40
3.0
 40
3.0
 40
4.0
 40
4.0
 40
4.0
 40
5.0
 40
5.0
 40
5.0
 40
6.0
 40
6.0
 40
6.0
 40
6.0
 10
219.9750816054571
 20
142.3480365609978
 30
0.0
 10
219.4052328718997
 20
141.0254680853195
 30
0.0
 10
218.6749663277109
 20
140.2742536145748
 30
0.0
 10
217.7842819728907
 20
140.0943931487635
 30
0.0
 10
217.0965178584287
 20
139.9555094091693
 30
0.0
 10
215.9676767303453
 20
140.2241220534695
 30
0.0
 10
215.4340402991716
 20
140.6997584283578
 30
0.0
 10
214.8768002309299
 20
141.1964330002531
 30
0.0
 10
214.454460750104
 20
142.3209821649339
 30
0.0
 10
214.5794069632738
 20
143.0856098244059
 30
0.0
 10
214.6632723364544
 20
143.5988369353284
 30
0.0
 10
214.9792891371577
 20
144.3340398816635
 30
0.0
 10
215.3849112964294
 20
144.5838570594969
 30
0.0
 10
215.8579005614262
 20
144.8751647226165
 30
0.0
 10
216.9226540583036
 20
144.8229579008
 30
0.0
 10
217.3632289677664
 20
144.4396047292952
 30
0.0
 10
217.6273598400288
 20
144.2097790960163
 30
0.0
 10
217.806947577024
 20
143.8589341683372
 30
0.0
 10
217.91963081283
 20
143.3886234663974
 30
0.0
  0
SPLINE
  5
147
330
1F
100
AcDbEntity
  8
0
  6
K5LT32769
 62
    30
420
 16744448
100
AcDbSpline
210
0.0
220
0.0
230
1.0
 70
     8
 71
     3
 72
    14
 73
    10
 74
     0
 42
0.0
 43
0.0
 12
1.0
 22
0.0
 32
0.0
 13
1.0
 23
0.0
 33
0.0
 40
0.0
 40
0.0
 40
0.0
 40
0.0
 40
1.0
 40
1.0
 40
1.0
 40
2.0
 40
2.0
 40
2.0
 40
3.0
 40
3.0
 40
3.0
 40
3.0
 10
217.91963081283
 20
143.3886234663974
 30
0.0
 10
218.248533149363
 20
144.7097489806925
 30
0.0
 10
218.2313158154687
 20
145.9137788467308
 30
0.0
 10
217.8679788111471
 20
147.0007130645122
 30
0.0
 10
217.4963840328149
 20
148.1123506761898
 30
0.0
 10
216.6143051774593
 20
149.2517929777405
 30
0.0
 10
215.6671003143296
 20
149.9681896894348
 30
0.0
 10
214.8287608443433
 20
150.6022485535302
 30
0.0
 10
213.8231159881195
 20
151.0226410753943
 30
0.0
 10
212.6501657456584
 20
151.2293672550268
 30
0.0
  0
SPLINE
  5
148
330
1F
100
AcDbEntity
  8
0
  6
K5LT32769
 62
    30
420
 16744448
100
AcDbSpline
210
0.0
220
0.0
230
1.0
 70
     8
 71
     3
 72
    23
 73
    19
 74
     0
 42
0.0
 43
0.0
 12
1.0
 22
0.0
 32
0.0
 13
1.0
 23
0.0
 33
0.0
 40
0.0
 40
0.0
 40
0.0
 40
0.0
 40
1.0
 40
1.0
 40
1.0
 40
2.0
 40
2.0
 40
2.0
 40
3.0
 40
3.0
 40
3.0
 40
4.0
 40
4.0
 40
4.0
 40
5.0
 40
5.0
 40
5.0
 40
6.0
 40
6.0
 40
6.0
 40
6.0
 10
212.6501657456584
 20
151.2293672550268
 30
0.0
 10
212.9023451304348
 20
150.9306851400148
 30
0.0
 10
213.0493449789655
 20
150.6201992520736
 30
0.0
 10
213.0911652912506
 20
150.2979095912034
 30
0.0
 10
213.137423765972
 20
149.9414170803707
 30
0.0
 10
213.0345383738661
 20
149.4746946736044
 30
0.0
 10
212.8438755823335
 20
149.1851059010763
 30
0.0
 10
212.5924544004773
 20
148.8032340588775
 30
0.0
 10
211.9617573517837
 20
148.5063244580754
 30
0.0
 10
211.5249971347755
 20
148.463844250068
 30
0.0
 10
210.8729078008778
 20
148.4004206838532
 30
0.0
 10
209.8722850918322
 20
149.009340935619
 30
0.0
 10
209.5878944149246
 20
149.5972554159382
 30
0.0
 10
209.3711418162713
 20
150.0453432111528
 30
0.0
 10
209.3770709302449
 20
150.7867650614351
 30
0.0
 10
209.5672869391815
 20
151.307675902615
 30
0.0
 10
209.6483069805747
 20
151.5295511178007
 30
0.0
 10
209.7650826764522
 20
151.7424950338127
 30
0.0
 10
209.9176140268141
 20
151.9465076506509
 30
0.0
  0
SPLINE
  5
149
330
1F
100
AcDbEntity
  8
0
  6
K5LT32769
 62
    30
420
 16744448
100
AcDbSpline
210
0.0
220
0.0
230
1.0
 70
     8
 71
     3
 72
    11
 73
     7
 74
     0
 42
0.0
 43
0.0
 12
1.0
 22
0.0
 32
0.0
 13
1.0
 23
0.0
 33
0.0
 40
0.0
 40
0.0
 40
0.0
 40
0.0
 40
1.0
 40
1.0
 40
1.0
 40
2.0
 40
2.0
 40
2.0
 40
2.0
 10
209.9176140268141
 20
151.9465076506509
 30
0.0
 10
208.2809818508684
 20
152.6489377900996
 30
0.0
 10
206.7811419284459
 20
153.5227500817674
 30
0.0
 10
205.4180942595467
 20
154.5679445256544
 30
0.0
 10
203.639663755837
 20
155.9316574197291
 30
0.0
 10
202.0941030751049
 20
157.5871246377577
 30
0.0
 10
200.7814122173505
 20
159.5343461797401
 30
0.0
  0
SPLINE
  5
14A
330
1F
100
AcDbEntity
  8
0
  6
K5LT32769
 62
    30
420
 16744448
100
AcDbSpline
210
0.0
220
0.0
230
1.0
 70
     8
 71
     3
 72
    35
 73
    31
 74
     0
 42
0.0
 43
0.0
 12
1.0
 22
0.0
 32
0.0
 13
1.0
 23
0.0
 33
0.0
 40
0.0
 40
0.0
 40
0.0
 40
0.0
 40
1.0
 40
1.0
 40
1.0
 40
2.0
 40
2.0
 40
2.0
 40
3.0
 40
3.0
 40
3.0
 40
4.0
 40
4.0
 40
4.0
 40
5.0
 40
5.0
 40
5.0
 40
6.0
 40
6.0
 40
6.0
 40
7.0
 40
7.0
 40
7.0
 40
8.0
 40
8.0
 40
8.0
 40
9.0
 40
9.0
 40
9.0
 40
10.0
 40
10.0
 40
10.0
 40
10.0
 10
200.7814122173505
 20
159.5343461797401
 30
0.0
 10
203.4273082077695
 20
159.5429227467284
 30
0.0
 10
205.7802099769874
 20
160.0868170573738
 30
0.0
 10
207.8401175250038
 20
161.1660291116763
 30
0.0
 10
210.1856564123656
 20
162.3948870978095
 30
0.0
 10
212.5638325815183
 20
164.5854971479203
 30
0.0
 10
213.7370877770234
 20
166.9348043582172
 30
0.0
 10
214.7016487562951
 20
168.8662256483641
 30
0.0
 10
216.2251322692026
 20
171.7534676533069
 30
0.0
 10
215.0240478300703
 20
173.593627262437
 30
0.0
 10
214.9031739375033
 20
173.7788159533011
 30
0.0
 10
214.743465033149
 20
173.9524765494017
 30
0.0
 10
214.6118987279176
 20
174.1376643390541
 30
0.0
 10
214.1891520419652
 20
174.732706695961
 30
0.0
 10
213.7532889340351
 20
175.3649711588788
 30
0.0
 10
213.523823965446
 20
176.0417951733793
 30
0.0
 10
213.2457635160713
 20
176.8619551776575
 30
0.0
 10
213.2909600764781
 20
177.8041885233604
 30
0.0
 10
213.2765342467025
 20
178.6877951639352
 30
0.0
 10
213.2648433881746
 20
179.4038801580034
 30
0.0
 10
213.5838543047215
 20
180.2052710659673
 30
0.0
 10
213.3754501341999
 20
180.8392157170041
 30
0.0
 10
213.1514593049711
 20
181.5205734255161
 30
0.0
 10
212.4851030951641
 20
182.188098933867
 30
0.0
 10
211.8669828498643
 20
182.5949727200832
 30
0.0
 10
211.2129738704797
 20
183.02547004109
 30
0.0
 10
210.3048833469653
 20
183.2799842849941
 30
0.0
 10
209.5177305218007
 20
183.2873839325651
 30
0.0
 10
208.779440624284
 20
183.2943242431024
 30
0.0
 10
208.0375714680534
 20
183.1047354587323
 30
0.0
 10
207.2921230531088
 20
182.718617579455
 30
0.0
  0
SPLINE
  5
14B
330
1F
100
AcDbEntity
  8
0
  6
K5LT32769
 62
    30
420
 16744448
100
AcDbSpline
210
0.0
220
0.0
230
1.0
 70
     8
 71
     3
 72
    11
 73
     7
 74
     0
 42
0.0
 43
0.0
 12
1.0
 22
0.0
 32
0.0
 13
1.0
 23
0.0
 33
0.0
 40
0.0
 40
0.0
 40
0.0
 40
0.0
 40
1.0
 40
1.0
 40
1.0
 40
2.0
 40
2.0
 40
2.0
 40
2.0
 10
207.2921230531088
 20
182.718617579455
 30
0.0
 10
208.7069781082104
 20
184.3901802205844
 30
0.0
 10
210.1733839575207
 20
185.2641071455387
 30
0.0
 10
211.6913406010399
 20
185.3403983543179
 30
0.0
 10
213.1266171170878
 20
185.4125341302699
 30
0.0
 10
214.6079816248415
 20
184.7715591028764
 30
0.0
 10
216.135434124301
 20
183.4174732721376
 30
0.0
  0
SPLINE
  5
14C
330
1F
100
AcDbEntity
  8
0
  6
K5LT32769
 62
    30
420
 16744448
100
AcDbSpline
210
0.0
220
0.0
230
1.0
 70
     8
 71
     3
 72
    23
 73
    19
 74
     0
 42
0.0
 43
0.0
 12
1.0
 22
0.0
 32
0.0
 13
1.0
 23
0.0
 33
0.0
 40
0.0
 40
0.0
 40
0.0
 40
0.0
 40
1.0
 40
1.0
 40
1.0
 40
2.0
 40
2.0
 40
2.0
 40
3.0
 40
3.0
 40
3.0
 40
4.0
 40
4.0
 40
4.0
 40
5.0
 40
5.0
 40
5.0
 40
6.0
 40
6.0
 40
6.0
 40
6.0
 10
216.135434124301
 20
183.4174732721376
 30
0.0
 10
217.3670025692803
 20
184.6654217497998
 30
0.0
 10
218.5757545502797
 20
185.2676219264212
 30
0.0
 10
219.7616900672993
 20
185.2240738020018
 30
0.0
 10
220.9415908445224
 20
185.1807472761397
 30
0.0
 10
222.5815097201983
 20
184.1674928853069
 30
0.0
 10
223.2336378564215
 20
183.1765148494426
 30
0.0
 10
223.9742585772185
 20
182.0510629229754
 30
0.0
 10
224.1950425091893
 20
179.6394772095524
 30
0.0
 10
223.500710763277
 20
178.6066006654699
 30
0.0
 10
222.8671125938872
 20
177.6640703960573
 30
0.0
 10
220.6216296861672
 20
176.4881561323149
 30
0.0
 10
219.6429909975857
 20
177.0041632243366
 30
0.0
 10
219.0586444707815
 20
177.312271779156
 30
0.0
 10
218.4296789586893
 20
178.288531198283
 30
0.0
 10
218.2186021610228
 20
179.0517221768958
 30
0.0
 10
218.0402880001092
 20
179.6964531964712
 30
0.0
 10
218.050179589252
 20
180.3987560256098
 30
0.0
 10
218.2482769284512
 20
181.1586306643118
 30
0.0
  0
SPLINE
  5
14D
330
1F
100
AcDbEntity
  8
0
  6
K5LT32769
 62
    30
420
 16744448
100
AcDbSpline
210
0.0
220
0.0
230
1.0
 70
     8
 71
     3
 72
    29
 73
    25
 74
     0
 42
0.0
 43
0.0
 12
1.0
 22
0.0
 32
0.0
 13
1.0
 23
0.0
 33
0.0
 40
0.0
 40
0.0
 40
0.0
 40
0.0
 40
1.0
 40
1.0
 40
1.0
 40
2.0
 40
2.0
 40
2.0
 40
3.0
 40
3.0
 40
3.0
 40
4.0
 40
4.0
 40
4.0
 40
5.0
 40
5.0
 40
5.0
 40
6.0
 40
6.0
 40
6.0
 40
7.0
 40
7.0
 40
7.0
 40
8.0
 40
8.0
 40
8.0
 40
8.0
 10
218.2482769284512
 20
181.1586306643118
 30
0.0
 10
217.2265012445602
 20
180.3451047961201
 30
0.0
 10
216.6231143068495
 20
179.4746449515538
 30
0.0
 10
216.4381161153192
 20
178.5472511306131
 30
0.0
 10
216.2020649851225
 20
177.3639295113061
 30
0.0
 10
217.0066298963875
 20
175.6934744712406
 30
0.0
 10
217.7734806495969
 20
174.7192061323502
 30
0.0
 10
218.9129076985514
 20
173.2715871613503
 30
0.0
 10
221.4326262393238
 20
172.7630560509315
 30
0.0
 10
223.3226621587067
 20
172.3748995055071
 30
0.0
 10
227.0621563009082
 20
171.6069198533818
 30
0.0
 10
231.7677865877091
 20
172.7600686944785
 30
0.0
 10
235.014520525494
 20
174.6895313649218
 30
0.0
 10
237.8121910112967
 20
176.3521254887385
 30
0.0
 10
240.0918131065708
 20
179.4319720690167
 30
0.0
 10
241.9584161037383
 20
182.2565970591624
 30
0.0
 10
243.6012710434728
 20
184.7426367392659
 30
0.0
 10
244.3395785223457
 20
187.8117285830546
 30
0.0
 10
245.8458106368579
 20
190.4171581019708
 30
0.0
 10
246.4098022339557
 20
191.3927317478528
 30
0.0
 10
246.9580873599265
 20
192.3930413773718
 30
0.0
 10
247.6262966825616
 20
193.2956105425251
 30
0.0
 10
248.5134375804
 20
194.4938967567575
 30
0.0
 10
249.5322712621082
 20
195.591863151608
 30
0.0
 10
250.6827977276862
 20
196.5895097270768
 30
0.0
  0
SPLINE
  5
14E
330
1F
100
AcDbEntity
  8
0
  6
K5LT32769
 62
    30
420
 16744448
100
AcDbSpline
210
0.0
220
0.0
230
1.0
 70
     8
 71
     3
 72
    11
 73
     7
 74
     0
 42
0.0
 43
0.0
 12
1.0
 22
0.0
 32
0.0
 13
1.0
 23
0.0
 33
0.0
 40
0.0
 40
0.0
 40
0.0
 40
0.0
 40
1.0
 40
1.0
 40
1.0
 40
2.0
 40
2.0
 40
2.0
 40
2.0
 10
205.1401720230529
 20
158.1528178848078
 30
0.0
 10
206.3879447747842
 20
157.4756458473401
 30
0.0
 10
207.5630656116437
 20
156.7041018635435
 30
0.0
 10
208.6655345336314
 20
155.8381859334179
 30
0.0
 10
209.5159136945985
 20
155.1702697251309
 30
0.0
 10
210.3230674007242
 20
154.4462053711063
 30
0.0
 10
211.0869956520086
 20
153.6659928713442
 30
0.0
  0
SPLINE
  5
14F
330
1F
100
AcDbEntity
  8
0
  6
K5LT32769
 62
    30
420
 16744448
100
AcDbSpline
210
0.0
220
0.0
230
1.0
 70
     8
 71
     3
 72
    11
 73
     7
 74
     0
 42
0.0
 43
0.0
 12
1.0
 22
0.0
 32
0.0
 13
1.0
 23
0.0
 33
0.0
 40
0.0
 40
0.0
 40
0.0
 40
0.0
 40
1.0
 40
1.0
 40
1.0
 40
2.0
 40
2.0
 40
2.0
 40
2.0
 10
211.0869956520086
 20
153.6659928713442
 30
0.0
 10
212.3162648499291
 20
153.767820601946
 30
0.0
 10
213.4636890678601
 20
153.6412084170402
 30
0.0
 10
214.5292683058015
 20
153.2861563166268
 30
0.0
 10
215.8157774301832
 20
152.857490150331
 30
0.0
 10
216.9829849490334
 20
152.0958377863356
 30
0.0
 10
218.030890862352
 20
151.0011992246404
 30
0.0
  0
SPLINE
  5
150
330
1F
100
AcDbEntity
  8
0
  6
K5LT32769
 62
    30
420
 16744448
100
AcDbSpline
210
0.0
220
0.0
230
1.0
 70
     8
 71
     3
 72
    11
 73
     7
 74
     0
 42
0.0
 43
0.0
 12
1.0
 22
0.0
 32
0.0
 13
1.0
 23
0.0
 33
0.0
 40
0.0
 40
0.0
 40
0.0
 40
0.0
 40
1.0
 40
1.0
 40
1.0
 40
2.0
 40
2.0
 40
2.0
 40
2.0
 10
205.1401720230529
 20
158.1528178848078
 30
0.0
 10
207.8818667000201
 20
157.8795922525565
 30
0.0
 10
210.3488289883688
 20
157.1179399852529
 30
0.0
 10
212.5410588880991
 20
155.8678610828971
 30
0.0
 10
214.6174739933063
 20
154.6838234434725
 30
0.0
 10
216.447417984724
 20
153.0616028240536
 30
0.0
 10
218.030890862352
 20
151.0011992246404
 30
0.0
  0
SPLINE
  5
151
330
1F
100
AcDbEntity
  8
0
  6
K5LT32769
 62
    30
420
 16744448
100
AcDbSpline
210
0.0
220
0.0
230
1.0
 70
     8
 71
     3
 72
    11
 73
     7
 74
     0
 42
0.0
 43
0.0
 12
1.0
 22
0.0
 32
0.0
 13
1.0
 23
0.0
 33
0.0
 40
0.0
 40
0.0
 40
0.0
 40
0.0
 40
1.0
 40
1.0
 40
1.0
 40
2.0
 40
2.0
 40
2.0
 40
2.0
 10
218.7506280531996
 20
153.893900942927
 30
0.0
 10
219.8064197545592
 20
153.3226622897892
 30
0.0
 10
220.6076384751258
 20
152.5807931040793
 30
0.0
 10
221.1542842148996
 20
151.6682933857975
 30
0.0
 10
221.5084085260869
 20
151.0771640479398
 30
0.0
 10
221.7556982546568
 20
150.4144275753723
 30
0.0
 10
221.8961534006094
 20
149.680083968095
 30
0.0
  0
SPLINE
  5
152
330
1F
100
AcDbEntity
  8
0
  6
K5LT32769
 62
    30
420
 16744448
100
AcDbSpline
210
0.0
220
0.0
230
1.0
 70
     8
 71
     3
 72
    11
 73
     7
 74
     0
 42
0.0
 43
0.0
 12
1.0
 22
0.0
 32
0.0
 13
1.0
 23
0.0
 33
0.0
 40
0.0
 40
0.0
 40
0.0
 40
0.0
 40
1.0
 40
1.0
 40
1.0
 40
2.0
 40
2.0
 40
2.0
 40
2.0
 10
221.8961534006094
 20
149.680083968095
 30
0.0
 10
222.1976225445085
 20
150.3348506389111
 30
0.0
 10
222.5053606563411
 20
150.9865968363933
 30
0.0
 10
222.8193677361072
 20
151.6353225605416
 30
0.0
 10
223.0161122730829
 20
152.0417886896391
 30
0.0
 10
223.2153178719328
 20
152.44706904592
 30
0.0
 10
223.416984532657
 20
152.8511636293842
 30
0.0
  0
SPLINE
  5
153
330
1F
100
AcDbEntity
  8
0
  6
K5LT32769
 62
    30
420
 16744448
100
AcDbSpline
210
0.0
220
0.0
230
1.0
 70
    24
 71
     3
 72
     8
 73
     4
 74
     0
 42
0.0
 43
0.0
 12
1.0
 22
0.0
 32
0.0
 13
1.0
 23
0.0
 33
0.0
 40
0.0
 40
0.0
 40
0.0
 40
0.0
 40
1.0
 40
1.0
 40
1.0
 40
1.0
 10
218.7506280531996
 20
153.893900942927
 30
0.0
 10
220.2541492648765
 20
155.3693968455044
 30
0.0
 10
219.5023886590381
 20
154.6316488942157
 30
0.0
 10
221.0059098707149
 20
156.1071447967931
 30
0.0
  0
SPLINE
  5
154
330
1F
100
AcDbEntity
  8
0
  6
K5LT32769
 62
    30
420
 16744448
100
AcDbSpline
210
0.0
220
0.0
230
1.0
 70
    24
 71
     3
 72
     8
 73
     4
 74
     0
 42
0.0
 43
0.0
 12
1.0
 22
0.0
 32
0.0
 13
1.0
 23
0.0
 33
0.0
 40
0.0
 40
0.0
 40
0.0
 40
0.0
 40
1.0
 40
1.0
 40
1.0
 40
1.0
 10
221.0059098707149
 20
156.1071447967931
 30
0.0
 10
222.6132929786763
 20
153.9364906851871
 30
0.0
 10
221.8096014246956
 20
155.0218177409901
 30
0.0
 10
223.416984532657
 20
152.8511636293842
 30
0.0
  0
SPLINE
  5
155
330
1F
100
AcDbEntity
  8
0
  6
K5LT32769
 62
    30
420
 16744448
100
AcDbSpline
210
0.0
220
0.0
230
1.0
 70
    24
 71
     3
 72
     8
 73
     4
 74
     0
 42
0.0
 43
0.0
 12
1.0
 22
0.0
 32
0.0
 13
1.0
 23
0.0
 33
0.0
 40
0.0
 40
0.0
 40
0.0
 40
0.0
 40
1.0
 40
1.0
 40
1.0
 40
1.0
 10
222.6957228816486
 20
157.7145279047544
 30
0.0
 10
224.1382461836652
 20
155.5026588416623
 30
0.0
 10
223.4169845326569
 20
156.6085933732084
 30
0.0
 10
224.8595078346735
 20
154.3967243101162
 30
0.0
  0
SPLINE
  5
156
330
1F
100
AcDbEntity
  8
0
  6
K5LT32769
 62
    30
420
 16744448
100
AcDbSpline
210
0.0
220
0.0
230
1.0
 70
     8
 71
     3
 72
    11
 73
     7
 74
     0
 42
0.0
 43
0.0
 12
1.0
 22
0.0
 32
0.0
 13
1.0
 23
0.0
 33
0.0
 40
0.0
 40
0.0
 40
0.0
 40
0.0
 40
1.0
 40
1.0
 40
1.0
 40
2.0
 40
2.0
 40
2.0
 40
2.0
 10
224.8595078346735
 20
154.3967243101162
 30
0.0
 10
225.2054977555275
 20
155.1185588197163
 30
0.0
 10
225.6588622218755
 20
155.7230447748471
 30
0.0
 10
226.2196012337178
 20
156.2101821755085
 30
0.0
 10
226.645398087689
 20
156.5800896873328
 30
0.0
 10
227.1331083469422
 20
156.8823326648982
 30
0.0
 10
227.6827320114775
 20
157.1169111082047
 30
0.0
  0
SPLINE
  5
157
330
1F
100
AcDbEntity
  8
0
  6
K5LT32769
 62
    30
420
 16744448
100
AcDbSpline
210
0.0
220
0.0
230
1.0
 70
     8
 71
     3
 72
    11
 73
     7
 74
     0
 42
0.0
 43
0.0
 12
1.0
 22
0.0
 32
0.0
 13
1.0
 23
0.0
 33
0.0
 40
0.0
 40
0.0
 40
0.0
 40
0.0
 40
1.0
 40
1.0
 40
1.0
 40
2.0
 40
2.0
 40
2.0
 40
2.0
 10
227.6827320114775
 20
157.1169111082047
 30
0.0
 10
227.5152627468323
 20
158.3068099600956
 30
0.0
 10
227.5446318380741
 20
159.4608702800128
 30
0.0
 10
227.9392539983714
 20
160.4582899887586
 30
0.0
 10
228.2911160846816
 20
161.3476322886988
 30
0.0
 10
228.8854832994831
 20
162.1423270177017
 30
0.0
 10
229.7321043880206
 20
162.8487571749575
 30
0.0
  0
SPLINE
  5
158
330
1F
100
AcDbEntity
  8
0
  6
K5LT32769
 62
    30
420
 16744448
100
AcDbSpline
210
0.0
220
0.0
230
1.0
 70
     8
 71
     3
 72
    11
 73
     7
 74
     0
 42
0.0
 43
0.0
 12
1.0
 22
0.0
 32
0.0
 13
1.0
 23
0.0
 33
0.0
 40
0.0
 40
0.0
 40
0.0
 40
0.0
 40
1.0
 40
1.0
 40
1.0
 40
2.0
 40
2.0
 40
2.0
 40
2.0
 10
229.7321043880206
 20
162.8487571749575
 30
0.0
 10
228.3687307625245
 20
162.2960850024993
 30
0.0
 10
227.1085973162035
 20
161.6013107157576
 30
0.0
 10
225.9517040490576
 20
160.7644343147324
 30
0.0
 10
224.7561149438871
 20
159.8995660197441
 30
0.0
 10
223.6327754787961
 20
158.9768955701957
 30
0.0
 10
222.6957228816486
 20
157.7145279047544
 30
0.0
  0
SPLINE
  5
159
330
1F
100
AcDbEntity
  8
0
  6
K5LT32769
 62
    30
420
 16744448
100
AcDbSpline
210
0.0
220
0.0
230
1.0
 70
     8
 71
     3
 72
    11
 73
     7
 74
     0
 42
0.0
 43
0.0
 12
1.0
 22
0.0
 32
0.0
 13
1.0
 23
0.0
 33
0.0
 40
0.0
 40
0.0
 40
0.0
 40
0.0
 40
1.0
 40
1.0
 40
1.0
 40
2.0
 40
2.0
 40
2.0
 40
2.0
 10
213.4635737487424
 20
157.5908830502958
 30
0.0
 10
214.313661185978
 20
157.419630689675
 30
0.0
 10
215.0692686298915
 20
157.1036493949475
 30
0.0
 10
215.7303960804828
 20
156.6429391661135
 30
0.0
 10
216.2049660981486
 20
156.3122324903567
 30
0.0
 10
216.6308539301725
 20
155.9069521340759
 30
0.0
 10
217.0080595765546
 20
155.4270980972709
 30
0.0
  0
SPLINE
  5
15A
330
1F
100
AcDbEntity
  8
0
  6
K5LT32769
 62
    30
420
 16744448
100
AcDbSpline
210
0.0
220
0.0
230
1.0
 70
     8
 71
     3
 72
    11
 73
     7
 74
     0
 42
0.0
 43
0.0
 12
1.0
 22
0.0
 32
0.0
 13
1.0
 23
0.0
 33
0.0
 40
0.0
 40
0.0
 40
0.0
 40
0.0
 40
1.0
 40
1.0
 40
1.0
 40
2.0
 40
2.0
 40
2.0
 40
2.0
 10
213.4635737487424
 20
157.5908830502958
 30
0.0
 10
214.4835563125556
 20
157.8493865816033
 30
0.0
 10
215.4177618795759
 20
158.2477977793032
 30
0.0
 10
216.2661904498032
 20
158.7861166433953
 30
0.0
 10
216.9546300893423
 20
159.222924240119
 30
0.0
 10
217.5865926787972
 20
159.7518494508584
 30
0.0
 10
218.1620782181679
 20
160.3728922756136
 30
0.0
  0
SPLINE
  5
15B
330
1F
100
AcDbEntity
  8
0
  6
K5LT32769
 62
    30
420
 16744448
100
AcDbSpline
210
0.0
220
0.0
230
1.0
 70
    24
 71
     3
 72
     8
 73
     4
 74
     0
 42
0.0
 43
0.0
 12
1.0
 22
0.0
 32
0.0
 13
1.0
 23
0.0
 33
0.0
 40
0.0
 40
0.0
 40
0.0
 40
0.0
 40
1.0
 40
1.0
 40
1.0
 40
1.0
 10
218.1620782181679
 20
160.3728922756136
 30
0.0
 10
219.3298351769432
 20
158.8342007534625
 30
0.0
 10
218.7459566975555
 20
159.6035465145381
 30
0.0
 10
219.9137136563309
 20
158.064854992387
 30
0.0
  0
SPLINE
  5
15C
330
1F
100
AcDbEntity
  8
0
  6
K5LT32769
 62
    30
420
 16744448
100
AcDbSpline
210
0.0
220
0.0
230
1.0
 70
    24
 71
     3
 72
     8
 73
     4
 74
     0
 42
0.0
 43
0.0
 12
1.0
 22
0.0
 32
0.0
 13
1.0
 23
0.0
 33
0.0
 40
0.0
 40
0.0
 40
0.0
 40
0.0
 40
1.0
 40
1.0
 40
1.0
 40
1.0
 10
219.9137136563309
 20
158.064854992387
 30
0.0
 10
217.9766109364801
 20
156.306350395643
 30
0.0
 10
218.9451622964055
 20
157.185602694015
 30
0.0
 10
217.0080595765546
 20
155.4270980972709
 30
0.0
  0
SPLINE
  5
15D
330
1F
100
AcDbEntity
  8
0
  6
K5LT32769
 62
    30
420
 16744448
100
AcDbSpline
210
0.0
220
0.0
230
1.0
 70
     8
 71
     3
 72
    11
 73
     7
 74
     0
 42
0.0
 43
0.0
 12
1.0
 22
0.0
 32
0.0
 13
1.0
 23
0.0
 33
0.0
 40
0.0
 40
0.0
 40
0.0
 40
0.0
 40
1.0
 40
1.0
 40
1.0
 40
2.0
 40
2.0
 40
2.0
 40
2.0
 10
219.6252089959276
 20
161.8978454806026
 30
0.0
 10
220.0226453945463
 20
162.3380409208867
 30
0.0
 10
220.3821839590785
 20
162.8032549308402
 30
0.0
 10
220.703824689524
 20
163.2934875104631
 30
0.0
 10
221.0019352570246
 20
163.7478563098258
 30
0.0
 10
221.2674901233663
 20
164.2237170254736
 30
0.0
 10
221.5004892885492
 20
164.7210696574065
 30
0.0
  0
SPLINE
  5
15E
330
1F
100
AcDbEntity
  8
0
  6
K5LT32769
 62
    30
420
 16744448
100
AcDbSpline
210
0.0
220
0.0
230
1.0
 70
    24
 71
     3
 72
     8
 73
     4
 74
     0
 42
0.0
 43
0.0
 12
1.0
 22
0.0
 32
0.0
 13
1.0
 23
0.0
 33
0.0
 40
0.0
 40
0.0
 40
0.0
 40
0.0
 40
1.0
 40
1.0
 40
1.0
 40
1.0
 10
221.5004892885492
 20
164.7210696574065
 30
0.0
 10
223.4101153740759
 20
163.2510697210658
 30
0.0
 10
222.4553023313126
 20
163.9860696892361
 30
0.0
 10
224.3649284168393
 20
162.5160697528954
 30
0.0
  0
SPLINE
  5
15F
330
1F
100
AcDbEntity
  8
0
  6
K5LT32769
 62
    30
420
 16744448
100
AcDbSpline
210
0.0
220
0.0
230
1.0
 70
    24
 71
     3
 72
     8
 73
     4
 74
     0
 42
0.0
 43
0.0
 12
1.0
 22
0.0
 32
0.0
 13
1.0
 23
0.0
 33
0.0
 40
0.0
 40
0.0
 40
0.0
 40
0.0
 40
1.0
 40
1.0
 40
1.0
 40
1.0
 10
219.6252089959276
 20
161.8978454806026
 30
0.0
 10
220.6967977345685
 20
160.3728922756136
 30
0.0
 10
220.1610033652481
 20
161.1353688781081
 30
0.0
 10
221.232592103889
 20
159.6104156731191
 30
0.0
  0
SPLINE
  5
160
330
1F
100
AcDbEntity
  8
0
  6
K5LT32769
 62
    30
420
 16744448
100
AcDbSpline
210
0.0
220
0.0
230
1.0
 70
     8
 71
     3
 72
    11
 73
     7
 74
     0
 42
0.0
 43
0.0
 12
1.0
 22
0.0
 32
0.0
 13
1.0
 23
0.0
 33
0.0
 40
0.0
 40
0.0
 40
0.0
 40
0.0
 40
1.0
 40
1.0
 40
1.0
 40
2.0
 40
2.0
 40
2.0
 40
2.0
 10
221.232592103889
 20
159.6104156731191
 30
0.0
 10
221.964797866657
 20
160.2371823828051
 30
0.0
 10
222.6791903590843
 20
160.882883289422
 30
0.0
 10
223.3757695811708
 20
161.54751839297
 30
0.0
 10
223.7095799364476
 20
161.8660206867654
 30
0.0
 10
224.0392995483372
 20
162.1888711400739
 30
0.0
 10
224.3649284168393
 20
162.5160697528954
 30
0.0
  0
SPLINE
  5
161
330
1F
100
AcDbEntity
  8
0
  6
K5LT32769
 62
    30
420
 16744448
100
AcDbSpline
210
0.0
220
0.0
230
1.0
 70
     8
 71
     3
 72
    11
 73
     7
 74
     0
 42
0.0
 43
0.0
 12
1.0
 22
0.0
 32
0.0
 13
1.0
 23
0.0
 33
0.0
 40
0.0
 40
0.0
 40
0.0
 40
0.0
 40
1.0
 40
1.0
 40
1.0
 40
2.0
 40
2.0
 40
2.0
 40
2.0
 10
222.2619790626241
 20
166.45330034992
 30
0.0
 10
223.0942229837426
 20
165.533700300365
 30
0.0
 10
224.0215593553328
 20
164.8582330667375
 30
0.0
 10
225.0439881773947
 20
164.4268986490377
 30
0.0
 10
226.3070459528487
 20
163.8940495368638
 30
0.0
 10
227.7152234060042
 20
163.733769176342
 30
0.0
 10
229.2685205368612
 20
163.9460575674724
 30
0.0
  0
SPLINE
  5
162
330
1F
100
AcDbEntity
  8
0
  6
K5LT32769
 62
    30
420
 16744448
100
AcDbSpline
210
0.0
220
0.0
230
1.0
 70
     8
 71
     3
 72
    11
 73
     7
 74
     0
 42
0.0
 43
0.0
 12
1.0
 22
0.0
 32
0.0
 13
1.0
 23
0.0
 33
0.0
 40
0.0
 40
0.0
 40
0.0
 40
0.0
 40
1.0
 40
1.0
 40
1.0
 40
2.0
 40
2.0
 40
2.0
 40
2.0
 10
223.0691051638229
 20
167.5867114707525
 30
0.0
 10
224.1193062131686
 20
166.9088993280188
 30
0.0
 10
225.2183715424607
 20
166.3650909619628
 30
0.0
 10
226.3663011516992
 20
165.9552863725845
 30
0.0
 10
227.3813646955361
 20
165.5929142415521
 30
0.0
 10
228.4346356361077
 20
165.3353208049993
 30
0.0
 10
229.526113973414
 20
165.182506062926
 30
0.0
  0
SPLINE
  5
163
330
1F
100
AcDbEntity
  8
0
  6
K5LT32769
 62
    30
420
 16744448
100
AcDbSpline
210
0.0
220
0.0
230
1.0
 70
    24
 71
     3
 72
     8
 73
     4
 74
     0
 42
0.0
 43
0.0
 12
1.0
 22
0.0
 32
0.0
 13
1.0
 23
0.0
 33
0.0
 40
0.0
 40
0.0
 40
0.0
 40
0.0
 40
1.0
 40
1.0
 40
1.0
 40
1.0
 10
223.0691051638229
 20
167.5867114707525
 30
0.0
 10
222.5310210963571
 20
166.8311040568641
 30
0.0
 10
222.80006313009
 20
167.2089077638083
 30
0.0
 10
222.2619790626241
 20
166.45330034992
 30
0.0
  0
SPLINE
  5
164
330
1F
100
AcDbEntity
  8
0
  6
K5LT32769
 62
    30
420
 16744448
100
AcDbSpline
210
0.0
220
0.0
230
1.0
 70
    24
 71
     3
 72
     8
 73
     4
 74
     0
 42
0.0
 43
0.0
 12
1.0
 22
0.0
 32
0.0
 13
1.0
 23
0.0
 33
0.0
 40
0.0
 40
0.0
 40
0.0
 40
0.0
 40
1.0
 40
1.0
 40
1.0
 40
1.0
 10
229.526113973414
 20
165.182506062926
 30
0.0
 10
229.3543850157121
 20
164.3582070659569
 30
0.0
 10
229.4402494945631
 20
164.7703565644415
 30
0.0
 10
229.2685205368612
 20
163.9460575674724
 30
0.0
  0
SPLINE
  5
165
330
1F
100
AcDbEntity
  8
0
  6
K5LT32769
 62
    30
420
 16744448
100
AcDbSpline
210
0.0
220
0.0
230
1.0
 70
     8
 71
     3
 72
    11
 73
     7
 74
     0
 42
0.0
 43
0.0
 12
1.0
 22
0.0
 32
0.0
 13
1.0
 23
0.0
 33
0.0
 40
0.0
 40
0.0
 40
0.0
 40
0.0
 40
1.0
 40
1.0
 40
1.0
 40
2.0
 40
2.0
 40
2.0
 40
2.0
 10
210.0507724285839
 20
158.8541173177487
 30
0.0
 10
212.6386960153997
 20
160.323915172155
 30
0.0
 10
214.6170138439593
 20
162.1934255201438
 30
0.0
 10
215.9857259142627
 20
164.4626483617153
 30
0.0
 10
216.9801236692679
 20
166.1112859007741
 30
0.0
 10
217.6527517309782
 20
167.9709046596201
 30
0.0
 10
218.0036100993935
 20
170.0415046382534
 30
0.0
  0
SPLINE
  5
166
330
1F
100
AcDbEntity
  8
0
  6
K5LT32769
 62
    30
420
 16744448
100
AcDbSpline
210
0.0
220
0.0
230
1.0
 70
    24
 71
     3
 72
     8
 73
     4
 74
     0
 42
0.0
 43
0.0
 12
1.0
 22
0.0
 32
0.0
 13
1.0
 23
0.0
 33
0.0
 40
0.0
 40
0.0
 40
0.0
 40
0.0
 40
1.0
 40
1.0
 40
1.0
 40
1.0
 10
218.0036100993935
 20
170.0415046382534
 30
0.0
 10
219.9819279279532
 20
168.8742971194032
 30
0.0
 10
218.9927690136734
 20
169.4579008788283
 30
0.0
 10
220.971086842233
 20
168.2906933599781
 30
0.0
  0
SPLINE
  5
167
330
1F
100
AcDbEntity
  8
0
  6
K5LT32769
 62
    30
420
 16744448
100
AcDbSpline
210
0.0
220
0.0
230
1.0
 70
     8
 71
     3
 72
    11
 73
     7
 74
     0
 42
0.0
 43
0.0
 12
1.0
 22
0.0
 32
0.0
 13
1.0
 23
0.0
 33
0.0
 40
0.0
 40
0.0
 40
0.0
 40
0.0
 40
1.0
 40
1.0
 40
1.0
 40
2.0
 40
2.0
 40
2.0
 40
2.0
 10
220.971086842233
 20
168.2906933599781
 30
0.0
 10
220.2497406705957
 20
165.8040673971574
 30
0.0
 10
219.0924247408883
 20
163.7960748011694
 30
0.0
 10
217.4991390531108
 20
162.2667155720141
 30
0.0
 10
215.6216951959131
 20
160.4645992834836
 30
0.0
 10
213.1389063210708
 20
159.3270665320618
 30
0.0
 10
210.0507724285839
 20
158.8541173177487
 30
0.0
  0
SPLINE
  5
168
330
1F
100
AcDbEntity
  8
0
  6
K5LT32769
 62
    30
420
 16744448
100
AcDbSpline
210
0.0
220
0.0
230
1.0
 70
     8
 71
     3
 72
    11
 73
     7
 74
     0
 42
0.0
 43
0.0
 12
1.0
 22
0.0
 32
0.0
 13
1.0
 23
0.0
 33
0.0
 40
0.0
 40
0.0
 40
0.0
 40
0.0
 40
1.0
 40
1.0
 40
1.0
 40
2.0
 40
2.0
 40
2.0
 40
2.0
 10
225.5271226679634
 20
169.402543511388
 30
0.0
 10
233.2249257057859
 20
167.1209499158792
 30
0.0
 10
240.6032604655592
 20
166.7221210099455
 30
0.0
 10
247.6621269472833
 20
168.2060567935869
 30
0.0
 10
252.6351216572271
 20
169.2514944458008
 30
0.0
 10
257.4495563074266
 20
171.2313950859717
 30
0.0
 10
262.105430897882
 20
174.1457587140994
 30
0.0
  0
SPLINE
  5
169
330
1F
100
AcDbEntity
  8
0
  6
K5LT32769
 62
    30
420
 16744448
100
AcDbSpline
210
0.0
220
0.0
230
1.0
 70
     8
 71
     3
 72
    11
 73
     7
 74
     0
 42
0.0
 43
0.0
 12
1.0
 22
0.0
 32
0.0
 13
1.0
 23
0.0
 33
0.0
 40
0.0
 40
0.0
 40
0.0
 40
0.0
 40
1.0
 40
1.0
 40
1.0
 40
2.0
 40
2.0
 40
2.0
 40
2.0
 10
225.5271226679634
 20
169.402543511388
 30
0.0
 10
229.9049625318229
 20
169.1137289655344
 30
0.0
 10
233.7223249171882
 20
169.9256306668995
 30
0.0
 10
236.9792098240594
 20
171.838248615483
 30
0.0
 10
239.0413687396113
 20
173.0492592184045
 30
0.0
 10
240.8788304848057
 20
174.7015504001298
 30
0.0
 10
242.4915950596429
 20
176.7951221606589
 30
0.0
  0
SPLINE
  5
16A
330
1F
100
AcDbEntity
  8
0
  6
K5LT32769
 62
    30
420
 16744448
100
AcDbSpline
210
0.0
220
0.0
230
1.0
 70
     8
 71
     3
 72
    11
 73
     7
 74
     0
 42
0.0
 43
0.0
 12
1.0
 22
0.0
 32
0.0
 13
1.0
 23
0.0
 33
0.0
 40
0.0
 40
0.0
 40
0.0
 40
0.0
 40
1.0
 40
1.0
 40
1.0
 40
2.0
 40
2.0
 40
2.0
 40
2.0
 10
242.4915950596429
 20
176.7951221606589
 30
0.0
 10
242.4878912351148
 20
175.8607814019614
 30
0.0
 10
242.3264600044872
 20
174.9926957167969
 30
0.0
 10
242.0073013677602
 20
174.1908651051652
 30
0.0
 10
241.6273967340097
 20
173.2364207324052
 30
0.0
 10
241.0240097962991
 20
172.3758524769817
 30
0.0
 10
240.1971405546282
 20
171.6091603388949
 30
0.0
  0
SPLINE
  5
16B
330
1F
100
AcDbEntity
  8
0
  6
K5LT32769
 62
    30
420
 16744448
100
AcDbSpline
210
0.0
220
0.0
230
1.0
 70
     8
 71
     3
 72
    11
 73
     7
 74
     0
 42
0.0
 43
0.0
 12
1.0
 22
0.0
 32
0.0
 13
1.0
 23
0.0
 33
0.0
 40
0.0
 40
0.0
 40
0.0
 40
0.0
 40
1.0
 40
1.0
 40
1.0
 40
2.0
 40
2.0
 40
2.0
 40
2.0
 10
240.1971405546282
 20
171.6091603388949
 30
0.0
 10
241.6757643911155
 20
171.8727821911275
 30
0.0
 10
242.8429719099657
 20
172.4464943614097
 30
0.0
 10
243.6987631111787
 20
173.3302968497418
 30
0.0
 10
244.4876347412358
 20
174.1449893923045
 30
0.0
 10
245.0118889658041
 20
175.2231726088695
 30
0.0
 10
245.2715257848836
 20
176.5648464994368
 30
0.0
  0
SPLINE
  5
16C
330
1F
100
AcDbEntity
  8
0
  6
K5LT32769
 62
    30
420
 16744448
100
AcDbSpline
210
0.0
220
0.0
230
1.0
 70
     8
 71
     3
 72
    11
 73
     7
 74
     0
 42
0.0
 43
0.0
 12
1.0
 22
0.0
 32
0.0
 13
1.0
 23
0.0
 33
0.0
 40
0.0
 40
0.0
 40
0.0
 40
0.0
 40
1.0
 40
1.0
 40
1.0
 40
2.0
 40
2.0
 40
2.0
 40
2.0
 10
245.2715257848836
 20
176.5648464994368
 30
0.0
 10
245.5289325259146
 20
176.218380008383
 30
0.0
 10
245.6970895413421
 20
175.8523912100995
 30
0.0
 10
245.7759968311663
 20
175.4668801045862
 30
0.0
 10
245.8457601872471
 20
175.1260427930147
 30
0.0
 10
245.8457601872471
 20
174.7699455838739
 30
0.0
 10
245.7759968311663
 20
174.398588477164
 30
0.0
  0
SPLINE
  5
16D
330
1F
100
AcDbEntity
  8
0
  6
K5LT32769
 62
    30
420
 16744448
100
AcDbSpline
210
0.0
220
0.0
230
1.0
 70
     8
 71
     3
 72
    11
 73
     7
 74
     0
 42
0.0
 43
0.0
 12
1.0
 22
0.0
 32
0.0
 13
1.0
 23
0.0
 33
0.0
 40
0.0
 40
0.0
 40
0.0
 40
0.0
 40
1.0
 40
1.0
 40
1.0
 40
2.0
 40
2.0
 40
2.0
 40
2.0
 10
245.7759968311663
 20
174.398588477164
 30
0.0
 10
246.3402593750403
 20
175.0107021482638
 30
0.0
 10
246.7754892973234
 20
175.6734386208313
 30
0.0
 10
247.0816865980156
 20
176.3867978948664
 30
0.0
 10
247.4961711642965
 20
177.3524380511724
 30
0.0
 10
247.6742197688669
 20
178.4108380894519
 30
0.0
 10
247.6158324117267
 20
179.5619980097046
 30
0.0
  0
SPLINE
  5
16E
330
1F
100
AcDbEntity
  8
0
  6
K5LT32769
 62
    30
420
 16744448
100
AcDbSpline
210
0.0
220
0.0
230
1.0
 70
     8
 71
     3
 72
    11
 73
     7
 74
     0
 42
0.0
 43
0.0
 12
1.0
 22
0.0
 32
0.0
 13
1.0
 23
0.0
 33
0.0
 40
0.0
 40
0.0
 40
0.0
 40
0.0
 40
1.0
 40
1.0
 40
1.0
 40
2.0
 40
2.0
 40
2.0
 40
2.0
 10
247.6158324117267
 20
179.5619980097046
 30
0.0
 10
248.3452303996512
 20
178.6605206985307
 30
0.0
 10
248.8892678025051
 20
177.6911449625365
 30
0.0
 10
249.2479446202884
 20
176.653870801722
 30
0.0
 10
249.5340049993926
 20
175.8265994951699
 30
0.0
 10
249.7021620148201
 20
174.9561396506037
 30
0.0
 10
249.7524156665711
 20
174.0424912680233
 30
0.0
  0
SPLINE
  5
16F
330
1F
100
AcDbEntity
  8
0
  6
K5LT32769
 62
    30
420
 16744448
100
AcDbSpline
210
0.0
220
0.0
230
1.0
 70
     8
 71
     3
 72
    11
 73
     7
 74
     0
 42
0.0
 43
0.0
 12
1.0
 22
0.0
 32
0.0
 13
1.0
 23
0.0
 33
0.0
 40
0.0
 40
0.0
 40
0.0
 40
0.0
 40
1.0
 40
1.0
 40
1.0
 40
2.0
 40
2.0
 40
2.0
 40
2.0
 10
249.7524156665711
 20
174.0424912680233
 30
0.0
 10
250.2422852248542
 20
174.7542200437862
 30
0.0
 10
250.5291413099954
 20
175.4861976403533
 30
0.0
 10
250.6129839219946
 20
176.2384240577244
 30
0.0
 10
250.7040355043409
 20
177.055328540436
 30
0.0
 10
250.5556616671989
 20
177.8961136175739
 30
0.0
 10
250.1678624105687
 20
178.760779289138
 30
0.0
  0
SPLINE
  5
170
330
1F
100
AcDbEntity
  8
0
  6
K5LT32769
 62
    30
420
 16744448
100
AcDbSpline
210
0.0
220
0.0
230
1.0
 70
     8
 71
     3
 72
    11
 73
     7
 74
     0
 42
0.0
 43
0.0
 12
1.0
 22
0.0
 32
0.0
 13
1.0
 23
0.0
 33
0.0
 40
0.0
 40
0.0
 40
0.0
 40
0.0
 40
1.0
 40
1.0
 40
1.0
 40
2.0
 40
2.0
 40
2.0
 40
2.0
 10
250.1678624105687
 20
178.760779289138
 30
0.0
 10
251.1088610660995
 20
178.0403611677933
 30
0.0
 10
251.7814891278098
 20
177.2094676797982
 30
0.0
 10
252.1857465956995
 20
176.2680988251528
 30
0.0
 10
252.6331307120401
 20
175.2263036657842
 30
0.0
 10
252.7518297817537
 20
174.0492045577913
 30
0.0
 10
252.5418438048402
 20
172.7368015011739
 30
0.0
  0
SPLINE
  5
171
330
1F
100
AcDbEntity
  8
0
  6
K5LT32769
 62
    30
420
 16744448
100
AcDbSpline
210
0.0
220
0.0
230
1.0
 70
     8
 71
     3
 72
    11
 73
     7
 74
     0
 42
0.0
 43
0.0
 12
1.0
 22
0.0
 32
0.0
 13
1.0
 23
0.0
 33
0.0
 40
0.0
 40
0.0
 40
0.0
 40
0.0
 40
1.0
 40
1.0
 40
1.0
 40
2.0
 40
2.0
 40
2.0
 40
2.0
 10
252.5418438048402
 20
172.7368015011739
 30
0.0
 10
253.2951322817508
 20
173.258993847407
 30
0.0
 10
253.7798201497479
 20
173.8722723742605
 30
0.0
 10
253.9959074088315
 20
174.5766370817344
 30
0.0
 10
254.1791329908691
 20
175.1738848511816
 30
0.0
 10
254.1692414017263
 20
175.8366213237491
 30
0.0
 10
253.9662326414031
 20
176.5648464994368
 30
0.0
  0
SPLINE
  5
172
330
1F
100
AcDbEntity
  8
0
  6
K5LT32769
 62
    30
420
 16744448
100
AcDbSpline
210
0.0
220
0.0
230
1.0
 70
     8
 71
     3
 72
    29
 73
    25
 74
     0
 42
0.0
 43
0.0
 12
1.0
 22
0.0
 32
0.0
 13
1.0
 23
0.0
 33
0.0
 40
0.0
 40
0.0
 40
0.0
 40
0.0
 40
1.0
 40
1.0
 40
1.0
 40
2.0
 40
2.0
 40
2.0
 40
3.0
 40
3.0
 40
3.0
 40
4.0
 40
4.0
 40
4.0
 40
5.0
 40
5.0
 40
5.0
 40
6.0
 40
6.0
 40
6.0
 40
7.0
 40
7.0
 40
7.0
 40
8.0
 40
8.0
 40
8.0
 40
8.0
 10
253.9662326414031
 20
176.5648464994368
 30
0.0
 10
254.9393946216936
 20
176.2535059819917
 30
0.0
 10
255.8395292336882
 20
176.2040480362777
 30
0.0
 10
256.666636477387
 20
176.4164726622948
 30
0.0
 10
257.6005213381613
 20
176.6563208123435
 30
0.0
 10
258.6951750102244
 20
177.3464983259476
 30
0.0
 10
259.1889917088005
 20
178.1376091731417
 30
0.0
 10
259.6789929248154
 20
178.9226074898156
 30
0.0
 10
259.869931748059
 20
180.2300052322608
 30
0.0
 10
259.6341132202265
 20
181.1347606834095
 30
0.0
 10
259.414224491849
 20
181.978398914359
 30
0.0
 10
258.674300812621
 20
183.3029296269276
 30
0.0
 10
257.9723262442364
 20
183.4197177753959
 30
0.0
 10
257.3621114114682
 20
183.521239773053
 30
0.0
 10
256.0429494418922
 20
182.9001396965153
 30
0.0
 10
255.8060682219636
 20
182.2624018456885
 30
0.0
 10
255.6417027198083
 20
181.8198927175858
 30
0.0
 10
255.6802357802815
 20
180.8866324705265
 30
0.0
 10
256.0137915939624
 20
180.57094010227
 30
0.0
 10
256.2974445935899
 20
180.3024780232335
 30
0.0
 10
257.0306851673612
 20
180.1465956019937
 30
0.0
 10
257.4381804305253
 20
180.3038671954145
 30
0.0
 10
257.7042767389071
 20
180.4065662798103
 30
0.0
 10
257.9416748783343
 20
180.6142896518091
 30
0.0
 10
258.1503748488067
 20
180.9270373114107
 30
0.0
  0
SPLINE
  5
173
330
1F
100
AcDbEntity
  8
0
  6
K5LT32769
 62
    30
420
 16744448
100
AcDbSpline
210
0.0
220
0.0
230
1.0
 70
     8
 71
     3
 72
    20
 73
    16
 74
     0
 42
0.0
 43
0.0
 12
1.0
 22
0.0
 32
0.0
 13
1.0
 23
0.0
 33
0.0
 40
0.0
 40
0.0
 40
0.0
 40
0.0
 40
1.0
 40
1.0
 40
1.0
 40
2.0
 40
2.0
 40
2.0
 40
3.0
 40
3.0
 40
3.0
 40
4.0
 40
4.0
 40
4.0
 40
5.0
 40
5.0
 40
5.0
 40
5.0
 10
258.1503748488067
 20
180.9270373114107
 30
0.0
 10
258.2011289449699
 20
180.3760020152643
 30
0.0
 10
258.1219962318276
 20
179.9209889146956
 30
0.0
 10
257.9129767093796
 20
179.5619980097046
 30
0.0
 10
257.5866374080564
 20
179.0015104545518
 30
0.0
 10
256.6333382019587
 20
178.6773531185181
 30
0.0
 10
255.9841168265339
 20
178.5827306845676
 30
0.0
 10
254.9035156350304
 20
178.4252356932743
 30
0.0
 10
253.5086214963608
 20
179.2750657348591
 30
0.0
 10
252.6902176419822
 20
180.0367942885589
 30
0.0
 10
251.6840988353148
 20
180.9732383428636
 30
0.0
 10
251.2382154471129
 20
182.7077380015261
 30
0.0
 10
250.9394063637069
 20
184.102237426249
 30
0.0
 10
250.4220787526265
 20
186.5165316900707
 30
0.0
 10
250.7583927834816
 20
189.048778510627
 30
0.0
 10
251.9483484562723
 20
191.6989778879179
 30
0.0
  0
SPLINE
  5
174
330
1F
100
AcDbEntity
  8
0
  6
K5LT32769
 62
    30
420
 16744448
100
AcDbSpline
210
0.0
220
0.0
230
1.0
 70
     8
 71
     3
 72
    11
 73
     7
 74
     0
 42
0.0
 43
0.0
 12
1.0
 22
0.0
 32
0.0
 13
1.0
 23
0.0
 33
0.0
 40
0.0
 40
0.0
 40
0.0
 40
0.0
 40
1.0
 40
1.0
 40
1.0
 40
2.0
 40
2.0
 40
2.0
 40
2.0
 10
251.9483484562723
 20
191.6989778879179
 30
0.0
 10
251.7337065127388
 20
190.1798449083597
 30
0.0
 10
251.8429130930456
 20
188.7716627144729
 30
0.0
 10
252.2759681971929
 20
187.4744313062577
 30
0.0
 10
252.7362552754596
 20
186.0956255861429
 30
0.0
 10
253.5624008663222
 20
184.8421633103513
 30
0.0
 10
254.7544049697808
 20
183.7140444788829
 30
0.0
  0
SPLINE
  5
175
330
1F
100
AcDbEntity
  8
0
  6
K5LT32769
 62
    30
420
 16744448
100
AcDbSpline
210
0.0
220
0.0
230
1.0
 70
    24
 71
     3
 72
     8
 73
     4
 74
     0
 42
0.0
 43
0.0
 12
1.0
 22
0.0
 32
0.0
 13
1.0
 23
0.0
 33
0.0
 40
0.0
 40
0.0
 40
0.0
 40
0.0
 40
1.0
 40
1.0
 40
1.0
 40
1.0
 10
254.7544049697808
 20
183.7140444788829
 30
0.0
 10
254.6119660748045
 20
186.0500423564945
 30
0.0
 10
254.6831855222927
 20
184.8820434176887
 30
0.0
 10
254.5407466273164
 20
187.2180412953003
 30
0.0
  0
SPLINE
  5
176
330
1F
100
AcDbEntity
  8
0
  6
K5LT32769
 62
    30
420
 16744448
100
AcDbSpline
210
0.0
220
0.0
230
1.0
 70
     8
 71
     3
 72
    11
 73
     7
 74
     0
 42
0.0
 43
0.0
 12
1.0
 22
0.0
 32
0.0
 13
1.0
 23
0.0
 33
0.0
 40
0.0
 40
0.0
 40
0.0
 40
0.0
 40
1.0
 40
1.0
 40
1.0
 40
2.0
 40
2.0
 40
2.0
 40
2.0
 10
254.5407466273164
 20
187.2180412953003
 30
0.0
 10
255.0130984576454
 20
186.3419422451801
 30
0.0
 10
255.6113418165459
 20
185.7864305547724
 30
0.0
 10
256.335476704018
 20
185.5515062240774
 30
0.0
 10
256.8661180366171
 20
185.3793552035194
 30
0.0
 10
257.4643613955176
 20
185.3793552035194
 30
0.0
 10
258.1302067807196
 20
185.5515062240774
 30
0.0
  0
SPLINE
  5
177
330
1F
100
AcDbEntity
  8
0
  6
K5LT32769
 62
    30
420
 16744448
100
AcDbSpline
210
0.0
220
0.0
230
1.0
 70
     8
 71
     3
 72
    17
 73
    13
 74
     0
 42
0.0
 43
0.0
 12
1.0
 22
0.0
 32
0.0
 13
1.0
 23
0.0
 33
0.0
 40
0.0
 40
0.0
 40
0.0
 40
0.0
 40
1.0
 40
1.0
 40
1.0
 40
2.0
 40
2.0
 40
2.0
 40
3.0
 40
3.0
 40
3.0
 40
4.0
 40
4.0
 40
4.0
 40
4.0
 10
258.1302067807196
 20
185.5515062240774
 30
0.0
 10
257.4028034404391
 20
186.051699822757
 30
0.0
 10
256.7618284130456
 20
186.6214554026623
 30
0.0
 10
256.2072816985393
 20
187.2607729637932
 30
0.0
 10
255.3412969096697
 20
188.2591366159689
 30
0.0
 10
254.4281306288997
 20
189.5464266248442
 30
0.0
 10
254.2416249478661
 20
190.7647697802106
 30
0.0
 10
254.01134159354
 20
192.2690893643813
 30
0.0
 10
254.8232431336591
 20
194.1721103974321
 30
0.0
 10
255.6945016766246
 20
195.507984982922
 30
0.0
 10
256.4860919426508
 20
196.7217065894919
 30
0.0
 10
257.597115323466
 20
197.7330227438238
 30
0.0
 10
259.0275718190704
 20
198.5419334459176
 30
0.0
  0
SPLINE
  5
178
330
1F
100
AcDbEntity
  8
0
  6
K5LT32769
 62
    30
420
 16744448
100
AcDbSpline
210
0.0
220
0.0
230
1.0
 70
     8
 71
     3
 72
    11
 73
     7
 74
     0
 42
0.0
 43
0.0
 12
1.0
 22
0.0
 32
0.0
 13
1.0
 23
0.0
 33
0.0
 40
0.0
 40
0.0
 40
0.0
 40
0.0
 40
1.0
 40
1.0
 40
1.0
 40
2.0
 40
2.0
 40
2.0
 40
2.0
 10
259.0275718190704
 20
198.5419334459176
 30
0.0
 10
258.2777727670009
 20
197.7129006523618
 30
0.0
 10
257.7649927450861
 20
196.815535614011
 30
0.0
 10
257.4892317533262
 20
195.8498383308652
 30
0.0
 10
257.2191598944664
 20
194.9040640257669
 30
0.0
 10
257.1764282259736
 20
193.892747871435
 30
0.0
 10
257.3610367478475
 20
192.8158898678696
 30
0.0
  0
SPLINE
  5
179
330
1F
100
AcDbEntity
  8
0
  6
K5LT32769
 62
    30
420
 16744448
100
AcDbSpline
210
0.0
220
0.0
230
1.0
 70
     8
 71
     3
 72
    14
 73
    10
 74
     0
 42
0.0
 43
0.0
 12
1.0
 22
0.0
 32
0.0
 13
1.0
 23
0.0
 33
0.0
 40
0.0
 40
0.0
 40
0.0
 40
0.0
 40
1.0
 40
1.0
 40
1.0
 40
2.0
 40
2.0
 40
2.0
 40
3.0
 40
3.0
 40
3.0
 40
3.0
 10
257.3610367478475
 20
192.8158898678696
 30
0.0
 10
258.6302641702824
 20
195.41435744883
 30
0.0
 10
260.2516934154975
 20
196.9978033688822
 30
0.0
 10
262.2253244834926
 20
197.5662276280263
 30
0.0
 10
263.79492121701
 20
198.0182862092234
 30
0.0
 10
266.2191971234158
 20
197.9148633034274
 30
0.0
 10
267.6023925551831
 20
196.996472070761
 30
0.0
 10
268.5771238044472
 20
196.3492861323385
 30
0.0
 10
269.3486677882439
 20
195.3403439996813
 30
0.0
 10
269.9170245065731
 20
193.9696456727895
 30
0.0
  0
SPLINE
  5
17A
330
1F
100
AcDbEntity
  8
0
  6
K5LT32769
 62
    30
420
 16744448
100
AcDbSpline
210
0.0
220
0.0
230
1.0
 70
     8
 71
     3
 72
    11
 73
     7
 74
     0
 42
0.0
 43
0.0
 12
1.0
 22
0.0
 32
0.0
 13
1.0
 23
0.0
 33
0.0
 40
0.0
 40
0.0
 40
0.0
 40
0.0
 40
1.0
 40
1.0
 40
1.0
 40
2.0
 40
2.0
 40
2.0
 40
2.0
 10
269.9170245065731
 20
193.9696456727895
 30
0.0
 10
269.2949752207597
 20
194.5073690827594
 30
0.0
 10
268.6342168117919
 20
194.8476399506738
 30
0.0
 10
267.9347492796696
 20
194.9904582765326
 30
0.0
 10
267.1964411598308
 20
195.1412071316273
 30
0.0
 10
266.4150056175498
 20
195.0719660076278
 30
0.0
 10
265.5904426528264
 20
194.7827349045339
 30
0.0
  0
SPLINE
  5
17B
330
1F
100
AcDbEntity
  8
0
  6
K5LT32769
 62
    30
420
 16744448
100
AcDbSpline
210
0.0
220
0.0
230
1.0
 70
     8
 71
     3
 72
    17
 73
    13
 74
     0
 42
0.0
 43
0.0
 12
1.0
 22
0.0
 32
0.0
 13
1.0
 23
0.0
 33
0.0
 40
0.0
 40
0.0
 40
0.0
 40
0.0
 40
1.0
 40
1.0
 40
1.0
 40
2.0
 40
2.0
 40
2.0
 40
3.0
 40
3.0
 40
3.0
 40
4.0
 40
4.0
 40
4.0
 40
4.0
 10
265.5904426528264
 20
194.7827349045339
 30
0.0
 10
267.172652423135
 20
193.6752822462928
 30
0.0
 10
268.3200767636996
 20
192.3695924794434
 30
0.0
 10
269.0327156745202
 20
190.8656656039858
 30
0.0
 10
269.818454150024
 20
189.2074721031137
 30
0.0
 10
270.0744103197546
 20
186.994421377318
 30
0.0
 10
269.8042596276584
 20
185.1681102577341
 30
0.0
 10
269.551970643611
 20
183.4625503965351
 30
0.0
 10
268.6743531268351
 20
181.6980012319254
 30
0.0
 10
267.6676763728141
 20
180.2420988646206
 30
0.0
 10
267.0841150193894
 20
179.3981255111833
 30
0.0
 10
266.4015953685363
 20
178.6166899689022
 30
0.0
 10
265.6201174202549
 20
177.8977922377775
 30
0.0
  0
SPLINE
  5
17C
330
1F
100
AcDbEntity
  8
0
  6
K5LT32769
 62
    30
420
 16744448
100
AcDbSpline
210
0.0
220
0.0
230
1.0
 70
     8
 71
     3
 72
    11
 73
     7
 74
     0
 42
0.0
 43
0.0
 12
1.0
 22
0.0
 32
0.0
 13
1.0
 23
0.0
 33
0.0
 40
0.0
 40
0.0
 40
0.0
 40
0.0
 40
1.0
 40
1.0
 40
1.0
 40
2.0
 40
2.0
 40
2.0
 40
2.0
 10
265.6201174202549
 20
177.8977922377775
 30
0.0
 10
264.1059037576591
 20
178.1207359184073
 30
0.0
 10
263.0573953085225
 20
177.9130125464085
 30
0.0
 10
262.4745920728451
 20
177.2746221217812
 30
0.0
 10
261.9019838585747
 20
176.6473991094925
 30
0.0
 10
261.778930133587
 20
175.6044446402652
 30
0.0
 10
262.105430897882
 20
174.1457587140994
 30
0.0
  0
SPLINE
  5
17D
330
1F
100
AcDbEntity
  8
0
  6
K5LT32769
 62
    30
420
 16744448
100
AcDbSpline
210
0.0
220
0.0
230
1.0
 70
     8
 71
     3
 72
    11
 73
     7
 74
     0
 42
0.0
 43
0.0
 12
1.0
 22
0.0
 32
0.0
 13
1.0
 23
0.0
 33
0.0
 40
0.0
 40
0.0
 40
0.0
 40
0.0
 40
1.0
 40
1.0
 40
1.0
 40
2.0
 40
2.0
 40
2.0
 40
2.0
 10
250.6827977276862
 20
196.5895097270768
 30
0.0
 10
248.5565146933718
 20
195.9280664819801
 30
0.0
 10
246.8437632228549
 20
194.8940601610617
 30
0.0
 10
245.5445433161355
 20
193.4874907643217
 30
0.0
 10
244.1343393019407
 20
191.9607670747695
 30
0.0
 10
243.2113352258173
 20
189.9951102459881
 30
0.0
 10
242.7755310877652
 20
187.5905202779776
 30
0.0
  0
SPLINE
  5
17E
330
1F
100
AcDbEntity
  8
0
  6
K5LT32769
 62
    30
420
 16744448
100
AcDbSpline
210
0.0
220
0.0
230
1.0
 70
     8
 71
     3
 72
    11
 73
     7
 74
     0
 42
0.0
 43
0.0
 12
1.0
 22
0.0
 32
0.0
 13
1.0
 23
0.0
 33
0.0
 40
0.0
 40
0.0
 40
0.0
 40
0.0
 40
1.0
 40
1.0
 40
1.0
 40
2.0
 40
2.0
 40
2.0
 40
2.0
 10
242.7755310877652
 20
187.5905202779776
 30
0.0
 10
241.9803879598749
 20
188.8717486155449
 30
0.0
 10
241.6394838178351
 20
190.1043205466827
 30
0.0
 10
241.7528186616458
 20
191.2882360713912
 30
0.0
 10
241.8728047518646
 20
192.5416316749219
 30
0.0
 10
242.501909846345
 20
193.7404923266675
 30
0.0
 10
243.6401339450868
 20
194.884818026628
 30
0.0
  0
SPLINE
  5
17F
330
1F
100
AcDbEntity
  8
0
  6
K5LT32769
 62
    30
420
 16744448
100
AcDbSpline
210
0.0
220
0.0
230
1.0
 70
     8
 71
     3
 72
    11
 73
     7
 74
     0
 42
0.0
 43
0.0
 12
1.0
 22
0.0
 32
0.0
 13
1.0
 23
0.0
 33
0.0
 40
0.0
 40
0.0
 40
0.0
 40
0.0
 40
1.0
 40
1.0
 40
1.0
 40
2.0
 40
2.0
 40
2.0
 40
2.0
 10
243.6401339450868
 20
194.884818026628
 30
0.0
 10
241.922160395064
 20
195.2879320561815
 30
0.0
 10
240.6046006688881
 20
196.000126502763
 30
0.0
 10
239.6874547665594
 20
197.0214013663725
 30
0.0
 10
238.4005151271664
 20
198.4544548220522
 30
0.0
 10
237.9019790145593
 20
200.4960789022526
 30
0.0
 10
238.1918464287382
 20
203.1462736069737
 30
0.0
  0
SPLINE
  5
180
330
1F
100
AcDbEntity
  8
0
  6
K5LT32769
 62
    30
420
 16744448
100
AcDbSpline
210
0.0
220
0.0
230
1.0
 70
     8
 71
     3
 72
    11
 73
     7
 74
     0
 42
0.0
 43
0.0
 12
1.0
 22
0.0
 32
0.0
 13
1.0
 23
0.0
 33
0.0
 40
0.0
 40
0.0
 40
0.0
 40
0.0
 40
1.0
 40
1.0
 40
1.0
 40
2.0
 40
2.0
 40
2.0
 40
2.0
 10
238.1918464287382
 20
203.1462736069737
 30
0.0
 10
238.5700332076598
 20
201.4877654629835
 30
0.0
 10
239.2940975616843
 20
200.2532950889089
 30
0.0
 10
240.3640394908118
 20
199.4428624847497
 30
0.0
 10
241.2452126690753
 20
198.7754136689457
 30
0.0
 10
242.3609839687197
 20
198.3955766307689
 30
0.0
 10
243.711353389745
 20
198.3033513702193
 30
0.0
  0
SPLINE
  5
181
330
1F
100
AcDbEntity
  8
0
  6
K5LT32769
 62
    30
420
 16744448
100
AcDbSpline
210
0.0
220
0.0
230
1.0
 70
     8
 71
     3
 72
    11
 73
     7
 74
     0
 42
0.0
 43
0.0
 12
1.0
 22
0.0
 32
0.0
 13
1.0
 23
0.0
 33
0.0
 40
0.0
 40
0.0
 40
0.0
 40
0.0
 40
1.0
 40
1.0
 40
1.0
 40
2.0
 40
2.0
 40
2.0
 40
2.0
 10
243.711353389745
 20
198.3033513702193
 30
0.0
 10
242.9706792012628
 20
199.0848915503517
 30
0.0
 10
242.5077528109848
 20
199.9276549788065
 30
0.0
 10
242.322574218911
 20
200.8316416555837
 30
0.0
 10
242.1553066101972
 20
201.6481922516344
 30
0.0
 10
242.2146561474124
 20
202.5146954949753
 30
0.0
 10
242.5006228305564
 20
203.4311513856063
 30
0.0
  0
SPLINE
  5
182
330
1F
100
AcDbEntity
  8
0
  6
K5LT32769
 62
    30
420
 16744448
100
AcDbSpline
210
0.0
220
0.0
230
1.0
 70
     8
 71
     3
 72
    11
 73
     7
 74
     0
 42
0.0
 43
0.0
 12
1.0
 22
0.0
 32
0.0
 13
1.0
 23
0.0
 33
0.0
 40
0.0
 40
0.0
 40
0.0
 40
0.0
 40
1.0
 40
1.0
 40
1.0
 40
2.0
 40
2.0
 40
2.0
 40
2.0
 10
242.5006228305564
 20
203.4311513856063
 30
0.0
 10
242.6217129760517
 20
202.5917210089457
 30
0.0
 10
242.9422004770134
 20
201.9151362846933
 30
0.0
 10
243.4620853334415
 20
201.4013972128489
 30
0.0
 10
243.6681553407317
 20
201.1977632485753
 30
0.0
 10
243.9055534895922
 20
201.0197146369299
 30
0.0
 10
244.174279780023
 20
200.8672513779128
 30
0.0
  0
SPLINE
  5
183
330
1F
100
AcDbEntity
  8
0
  6
K5LT32769
 62
    30
420
 16744448
100
AcDbSpline
210
0.0
220
0.0
230
1.0
 70
     8
 71
     3
 72
    11
 73
     7
 74
     0
 42
0.0
 43
0.0
 12
1.0
 22
0.0
 32
0.0
 13
1.0
 23
0.0
 33
0.0
 40
0.0
 40
0.0
 40
0.0
 40
0.0
 40
1.0
 40
1.0
 40
1.0
 40
2.0
 40
2.0
 40
2.0
 40
2.0
 10
244.174279780023
 20
200.8672513779128
 30
0.0
 10
243.6577408428452
 20
202.5471612833007
 30
0.0
 10
243.4816703796997
 20
204.1832302510965
 30
0.0
 10
243.6460683905864
 20
205.7754582813
 30
0.0
 10
243.8490612473996
 20
207.7414852107359
 30
0.0
 10
244.5711472548238
 20
209.6406703261532
 30
0.0
 10
245.8123264128592
 20
211.4730136275517
 30
0.0
  0
SPLINE
  5
184
330
1F
100
AcDbEntity
  8
0
  6
K5LT32769
 62
    30
420
 16744448
100
AcDbSpline
210
0.0
220
0.0
230
1.0
 70
     8
 71
     3
 72
    20
 73
    16
 74
     0
 42
0.0
 43
0.0
 12
1.0
 22
0.0
 32
0.0
 13
1.0
 23
0.0
 33
0.0
 40
0.0
 40
0.0
 40
0.0
 40
0.0
 40
1.0
 40
1.0
 40
1.0
 40
2.0
 40
2.0
 40
2.0
 40
3.0
 40
3.0
 40
3.0
 40
4.0
 40
4.0
 40
4.0
 40
5.0
 40
5.0
 40
5.0
 40
5.0
 10
245.8123264128592
 20
211.4730136275517
 30
0.0
 10
245.1075396390465
 20
209.353422332891
 30
0.0
 10
245.0185153367613
 20
207.4146708609026
 30
0.0
 10
245.5452535060036
 20
205.6567592115864
 30
0.0
 10
246.0555061623509
 20
203.9538655519576
 30
0.0
 10
247.2974907615558
 20
201.8834230338917
 30
0.0
 10
248.809477923127
 20
201.0571702601853
 30
0.0
 10
250.0685174710855
 20
200.3691452920197
 30
0.0
 10
252.0392764610199
 20
200.103269634913
 30
0.0
 10
253.4684164093849
 20
200.4636749116174
 30
0.0
 10
254.6859375255721
 20
200.7707134457196
 30
0.0
 10
256.358706434717
 20
201.6019247803082
 30
0.0
 10
256.8513398962219
 20
202.6002581664618
 30
0.0
 10
257.3991437982359
 20
203.7103957579587
 30
0.0
 10
257.1617456588087
 20
205.1743509510928
 30
0.0
 10
256.1391454779404
 20
206.9921237458642
 30
0.0
  0
SPLINE
  5
185
330
1F
100
AcDbEntity
  8
0
  6
K5LT32769
 62
    30
420
 16744448
100
AcDbSpline
210
0.0
220
0.0
230
1.0
 70
     8
 71
     3
 72
    23
 73
    19
 74
     0
 42
0.0
 43
0.0
 12
1.0
 22
0.0
 32
0.0
 13
1.0
 23
0.0
 33
0.0
 40
0.0
 40
0.0
 40
0.0
 40
0.0
 40
1.0
 40
1.0
 40
1.0
 40
2.0
 40
2.0
 40
2.0
 40
3.0
 40
3.0
 40
3.0
 40
4.0
 40
4.0
 40
4.0
 40
5.0
 40
5.0
 40
5.0
 40
6.0
 40
6.0
 40
6.0
 40
6.0
 10
256.1391454779404
 20
206.9921237458642
 30
0.0
 10
256.431247917066
 20
205.6574642331574
 30
0.0
 10
256.3026572582096
 20
204.5990641948781
 30
0.0
 10
255.7533735013713
 20
203.816923631026
 30
0.0
 10
255.2691712041064
 20
203.1274543847823
 30
0.0
 10
254.0945479081237
 20
202.3154900593565
 30
0.0
 10
253.320042572243
 20
202.392534794463
 30
0.0
 10
252.6172766316593
 20
202.4624431775636
 30
0.0
 10
251.6535240237511
 20
203.3066157252844
 30
0.0
 10
251.3021583871121
 20
203.9652974681679
 30
0.0
 10
250.8097854815608
 20
204.8883161409086
 30
0.0
 10
251.0535934805838
 20
206.7021345106769
 30
0.0
 10
251.7176051311097
 20
207.5262695595753
 30
0.0
 10
252.2190819856833
 20
208.1486752835383
 30
0.0
 10
253.2657832477819
 20
208.8591135677208
 30
0.0
 10
254.1212612928096
 20
208.7726097915678
 30
0.0
 10
254.3737173240077
 20
208.74708207623
 30
0.0
 10
254.6308986417204
 20
208.6778409522304
 30
0.0
 10
254.8928052459478
 20
208.5648864195691
 30
0.0
  0
SPLINE
  5
186
330
1F
100
AcDbEntity
  8
0
  6
K5LT32769
 62
    30
420
 16744448
100
AcDbSpline
210
0.0
220
0.0
230
1.0
 70
     8
 71
     3
 72
    11
 73
     7
 74
     0
 42
0.0
 43
0.0
 12
1.0
 22
0.0
 32
0.0
 13
1.0
 23
0.0
 33
0.0
 40
0.0
 40
0.0
 40
0.0
 40
0.0
 40
1.0
 40
1.0
 40
1.0
 40
2.0
 40
2.0
 40
2.0
 40
2.0
 10
254.8928052459478
 20
208.5648864195691
 30
0.0
 10
254.7094318535671
 20
209.6306258044554
 30
0.0
 10
254.7588897992811
 20
210.6197847187352
 30
0.0
 10
255.0411790830898
 20
211.5323631624085
 30
0.0
 10
255.3625626248015
 20
212.5713246431999
 30
0.0
 10
255.9857327407978
 20
213.5110256117658
 30
0.0
 10
256.9106894310787
 20
214.351466068106
 30
0.0
  0
SPLINE
  5
187
330
1F
100
AcDbEntity
  8
0
  6
K5LT32769
 62
    30
420
 16744448
100
AcDbSpline
210
0.0
220
0.0
230
1.0
 70
     8
 71
     3
 72
    11
 73
     7
 74
     0
 42
0.0
 43
0.0
 12
1.0
 22
0.0
 32
0.0
 13
1.0
 23
0.0
 33
0.0
 40
0.0
 40
0.0
 40
0.0
 40
0.0
 40
1.0
 40
1.0
 40
1.0
 40
2.0
 40
2.0
 40
2.0
 40
2.0
 10
256.9106894310787
 20
214.351466068106
 30
0.0
 10
256.417006993168
 20
212.0359977424797
 30
0.0
 10
256.6445135434523
 20
210.0972462704913
 30
0.0
 10
257.5932090819317
 20
208.5352116521407
 30
0.0
 10
258.267500042484
 20
207.4249863158733
 30
0.0
 10
259.3061169024778
 20
206.505068525593
 30
0.0
 10
260.7090596619131
 20
205.7754582813
 30
0.0
  0
SPLINE
  5
188
330
1F
100
AcDbEntity
  8
0
  6
K5LT32769
 62
    30
420
 16744448
100
AcDbSpline
210
0.0
220
0.0
230
1.0
 70
     8
 71
     3
 72
    11
 73
     7
 74
     0
 42
0.0
 43
0.0
 12
1.0
 22
0.0
 32
0.0
 13
1.0
 23
0.0
 33
0.0
 40
0.0
 40
0.0
 40
0.0
 40
0.0
 40
1.0
 40
1.0
 40
1.0
 40
2.0
 40
2.0
 40
2.0
 40
2.0
 10
260.7090596619131
 20
205.7754582813
 30
0.0
 10
260.064351057958
 20
206.8828119393885
 30
0.0
 10
259.7873865619596
 20
207.9609951559536
 30
0.0
 10
259.878166173918
 20
209.010007930995
 30
0.0
 10
259.9652321929884
 20
210.0161079165149
 30
0.0
 10
260.3905705261287
 20
210.995375241652
 30
0.0
 10
261.154181173339
 20
211.947809906406
 30
0.0
  0
SPLINE
  5
189
330
1F
100
AcDbEntity
  8
0
  6
K5LT32769
 62
    30
420
 16744448
100
AcDbSpline
210
0.0
220
0.0
230
1.0
 70
     8
 71
     3
 72
    23
 73
    19
 74
     0
 42
0.0
 43
0.0
 12
1.0
 22
0.0
 32
0.0
 13
1.0
 23
0.0
 33
0.0
 40
0.0
 40
0.0
 40
0.0
 40
0.0
 40
1.0
 40
1.0
 40
1.0
 40
2.0
 40
2.0
 40
2.0
 40
3.0
 40
3.0
 40
3.0
 40
4.0
 40
4.0
 40
4.0
 40
5.0
 40
5.0
 40
5.0
 40
6.0
 40
6.0
 40
6.0
 40
6.0
 10
261.154181173339
 20
211.947809906406
 30
0.0
 10
260.9452676402807
 20
209.9950688128025
 30
0.0
 10
261.255863589833
 20
208.3530649490645
 30
0.0
 10
262.0859690219959
 20
207.0217983151922
 30
0.0
 10
262.8364566104729
 20
205.8182173639492
 30
0.0
 10
264.4060705553204
 20
205.0823676374174
 30
0.0
 10
265.6113315325745
 20
204.1730205288661
 30
0.0
 10
267.0743967433569
 20
203.069164895808
 30
0.0
 10
268.9196902740251
 20
202.3483248528846
 30
0.0
 10
270.1337662683672
 20
201.0393649639073
 30
0.0
 10
271.5052572752318
 20
199.5606875792583
 30
0.0
 10
272.4259000265091
 20
197.5217350938225
 30
0.0
 10
273.1249829440096
 20
195.5910774475586
 30
0.0
 10
273.6476470447353
 20
194.1476357366648
 30
0.0
 10
274.0985285666036
 20
192.6002840905912
 30
0.0
 10
274.193274613882
 20
191.0686427117659
 30
0.0
 10
274.2543319220838
 20
190.081605232018
 30
0.0
 10
274.2068522923117
 20
189.0845330068039
 30
0.0
 10
274.0508357245656
 20
188.0774260361235
 30
0.0
  0
SPLINE
  5
18A
330
1F
100
AcDbEntity
  8
0
  6
K5LT32769
 62
    30
420
 16744448
100
AcDbSpline
210
0.0
220
0.0
230
1.0
 70
     8
 71
     3
 72
    20
 73
    16
 74
     0
 42
0.0
 43
0.0
 12
1.0
 22
0.0
 32
0.0
 13
1.0
 23
0.0
 33
0.0
 40
0.0
 40
0.0
 40
0.0
 40
0.0
 40
1.0
 40
1.0
 40
1.0
 40
2.0
 40
2.0
 40
2.0
 40
3.0
 40
3.0
 40
3.0
 40
4.0
 40
4.0
 40
4.0
 40
5.0
 40
5.0
 40
5.0
 40
5.0
 10
274.0508357245656
 20
188.0774260361235
 30
0.0
 10
274.5463734548686
 20
189.2792054055751
 30
0.0
 10
275.211088271678
 20
190.2525378159031
 30
0.0
 10
276.0449801749939
 20
190.9974232671078
 30
0.0
 10
277.4792785756924
 20
192.2786301083279
 30
0.0
 10
280.1327659667347
 20
193.3115308090836
 30
0.0
 10
281.8493649146334
 20
192.8135191058907
 30
0.0
 10
283.0911980862903
 20
192.4532442416568
 30
0.0
 10
284.814897329717
 20
191.2281199558079
 30
0.0
 10
285.2322885358956
 20
190.0003510418937
 30
0.0
 10
285.5650676488634
 20
189.0214711707951
 30
0.0
 10
285.4072905762873
 20
187.5104364204986
 30
0.0
 10
284.8761913126049
 20
186.5105982536442
 30
0.0
 10
284.6454299790522
 20
186.0761710109468
 30
0.0
 10
284.3368123855336
 20
185.6725941578839
 30
0.0
 10
283.9503385320489
 20
185.2998676944556
 30
0.0
  0
SPLINE
  5
18B
330
1F
100
AcDbEntity
  8
0
  6
K5LT32769
 62
    30
420
 16744448
100
AcDbSpline
210
0.0
220
0.0
230
1.0
 70
     8
 71
     3
 72
    20
 73
    16
 74
     0
 42
0.0
 43
0.0
 12
1.0
 22
0.0
 32
0.0
 13
1.0
 23
0.0
 33
0.0
 40
0.0
 40
0.0
 40
0.0
 40
0.0
 40
1.0
 40
1.0
 40
1.0
 40
2.0
 40
2.0
 40
2.0
 40
3.0
 40
3.0
 40
3.0
 40
4.0
 40
4.0
 40
4.0
 40
5.0
 40
5.0
 40
5.0
 40
5.0
 10
283.9503385320489
 20
185.2998676944556
 30
0.0
 10
285.1437324765155
 20
185.9681977892799
 30
0.0
 10
286.3752349346854
 20
186.4416755804897
 30
0.0
 10
287.6448459065585
 20
186.7203010680846
 30
0.0
 10
289.295010308606
 20
187.0824418114448
 30
0.0
 10
291.0819257105798
 20
186.6786663223219
 30
0.0
 10
292.7884720564242
 20
186.819216955582
 30
0.0
 10
294.0623478899132
 20
186.9241329782424
 30
0.0
 10
295.4606601714494
 20
186.8245104631943
 30
0.0
 10
296.5967337250747
 20
187.3137963930691
 30
0.0
 10
297.5990065350987
 20
187.7454568100164
 30
0.0
 10
298.6138124874166
 20
188.4913494551733
 30
0.0
 10
299.2921916593793
 20
189.3663010586405
 30
0.0
 10
299.6889642874709
 20
189.8780456131736
 30
0.0
 10
300.0104409218375
 20
190.4550549569085
 30
0.0
 10
300.2566215624792
 20
191.0973290898453
 30
0.0
  0
SPLINE
  5
18C
330
1F
100
AcDbEntity
  8
0
  6
K5LT32769
 62
    30
420
 16744448
100
AcDbSpline
210
0.0
220
0.0
230
1.0
 70
     8
 71
     3
 72
    14
 73
    10
 74
     0
 42
0.0
 43
0.0
 12
1.0
 22
0.0
 32
0.0
 13
1.0
 23
0.0
 33
0.0
 40
0.0
 40
0.0
 40
0.0
 40
0.0
 40
1.0
 40
1.0
 40
1.0
 40
2.0
 40
2.0
 40
2.0
 40
3.0
 40
3.0
 40
3.0
 40
3.0
 10
300.2566215624792
 20
191.0973290898453
 30
0.0
 10
300.1739882144415
 20
190.0702093366225
 30
0.0
 10
299.9102125144483
 20
189.1634803678961
 30
0.0
 10
299.4652944624997
 20
188.3771421836663
 30
0.0
 10
298.7556372480199
 20
187.1229099424353
 30
0.0
 10
297.246479763142
 20
186.2288897016855
 30
0.0
 10
295.9537804563415
 20
185.5333104181156
 30
0.0
 10
294.083006292612
 20
184.5266789875251
 30
0.0
 10
291.9563147114175
 20
184.0485855312876
 30
0.0
 10
289.5737057127581
 20
184.099030049403
 30
0.0
  0
SPLINE
  5
18D
330
1F
100
AcDbEntity
  8
0
  6
K5LT32769
 62
    30
420
 16744448
100
AcDbSpline
210
0.0
220
0.0
230
1.0
 70
     8
 71
     3
 72
    11
 73
     7
 74
     0
 42
0.0
 43
0.0
 12
1.0
 22
0.0
 32
0.0
 13
1.0
 23
0.0
 33
0.0
 40
0.0
 40
0.0
 40
0.0
 40
0.0
 40
1.0
 40
1.0
 40
1.0
 40
2.0
 40
2.0
 40
2.0
 40
2.0
 10
289.5737057127581
 20
184.099030049403
 30
0.0
 10
290.4387785011177
 20
183.596268094927
 30
0.0
 10
291.3125355073449
 20
183.3160064136844
 30
0.0
 10
292.1949767314396
 20
183.258245005675
 30
0.0
 10
293.2621087456852
 20
183.1883944071403
 30
0.0
 10
294.341940517532
 20
183.4439271165087
 30
0.0
 10
295.43447204698
 20
184.02484313378
 30
0.0
  0
SPLINE
  5
18E
330
1F
100
AcDbEntity
  8
0
  6
K5LT32769
 62
    30
420
 16744448
100
AcDbSpline
210
0.0
220
0.0
230
1.0
 70
     8
 71
     3
 72
    11
 73
     7
 74
     0
 42
0.0
 43
0.0
 12
1.0
 22
0.0
 32
0.0
 13
1.0
 23
0.0
 33
0.0
 40
0.0
 40
0.0
 40
0.0
 40
0.0
 40
1.0
 40
1.0
 40
1.0
 40
2.0
 40
2.0
 40
2.0
 40
2.0
 10
295.43447204698
 20
184.02484313378
 30
0.0
 10
294.5559483275651
 20
182.9445027690149
 30
0.0
 10
293.5338174900918
 20
182.1779046409099
 30
0.0
 10
292.3680795345601
 20
181.725048749465
 30
0.0
 10
291.6983401596191
 20
181.4648741362637
 30
0.0
 10
290.9811999752629
 20
181.3082573143928
 30
0.0
 10
290.2166589814913
 20
181.2551982838523
 30
0.0
  0
SPLINE
  5
18F
330
1F
100
AcDbEntity
  8
0
  6
K5LT32769
 62
    30
420
 16744448
100
AcDbSpline
210
0.0
220
0.0
230
1.0
 70
     8
 71
     3
 72
    11
 73
     7
 74
     0
 42
0.0
 43
0.0
 12
1.0
 22
0.0
 32
0.0
 13
1.0
 23
0.0
 33
0.0
 40
0.0
 40
0.0
 40
0.0
 40
0.0
 40
1.0
 40
1.0
 40
1.0
 40
2.0
 40
2.0
 40
2.0
 40
2.0
 10
290.2166589814913
 20
181.2551982838523
 30
0.0
 10
290.8176752910459
 20
180.8729510819063
 30
0.0
 10
291.4194136066552
 20
180.6668763162867
 30
0.0
 10
292.0218739283192
 20
180.6369739869935
 30
0.0
 10
292.8119592845969
 20
180.5977591347557
 30
0.0
 10
293.6032863845762
 20
180.8615348347489
 30
0.0
 10
294.3958552282572
 20
181.4283010869728
 30
0.0
  0
SPLINE
  5
190
330
1F
100
AcDbEntity
  8
0
  6
K5LT32769
 62
    30
420
 16744448
100
AcDbSpline
210
0.0
220
0.0
230
1.0
 70
     8
 71
     3
 72
    11
 73
     7
 74
     0
 42
0.0
 43
0.0
 12
1.0
 22
0.0
 32
0.0
 13
1.0
 23
0.0
 33
0.0
 40
0.0
 40
0.0
 40
0.0
 40
0.0
 40
1.0
 40
1.0
 40
1.0
 40
2.0
 40
2.0
 40
2.0
 40
2.0
 10
294.3958552282572
 20
181.4283010869728
 30
0.0
 10
293.7324418721434
 20
180.1310276341892
 30
0.0
 10
292.866927856541
 20
179.331457543585
 30
0.0
 10
291.79931318145
 20
179.0295908151604
 30
0.0
 10
291.2165727352169
 20
178.8648216750115
 30
0.0
 10
290.5736194664836
 20
178.8483356937619
 30
0.0
 10
289.8704533752503
 20
178.9801328714117
 30
0.0
  0
SPLINE
  5
191
330
1F
100
AcDbEntity
  8
0
  6
K5LT32769
 62
    30
420
 16744448
100
AcDbSpline
210
0.0
220
0.0
230
1.0
 70
     8
 71
     3
 72
    11
 73
     7
 74
     0
 42
0.0
 43
0.0
 12
1.0
 22
0.0
 32
0.0
 13
1.0
 23
0.0
 33
0.0
 40
0.0
 40
0.0
 40
0.0
 40
0.0
 40
1.0
 40
1.0
 40
1.0
 40
2.0
 40
2.0
 40
2.0
 40
2.0
 10
289.8704533752503
 20
178.9801328714117
 30
0.0
 10
290.0791183436992
 20
178.318968663146
 30
0.0
 10
290.2110061936957
 20
177.6512864225384
 30
0.0
 10
290.26611692524
 20
176.977086149589
 30
0.0
 10
290.3181976297961
 20
176.3399538843613
 30
0.0
 10
290.3017116485465
 20
175.6970006156281
 30
0.0
 10
290.2166589814913
 20
175.0482263433894
 30
0.0
  0
SPLINE
  5
192
330
1F
100
AcDbEntity
  8
0
  6
K5LT32769
 62
    30
420
 16744448
100
AcDbSpline
210
0.0
220
0.0
230
1.0
 70
     8
 71
     3
 72
    11
 73
     7
 74
     0
 42
0.0
 43
0.0
 12
1.0
 22
0.0
 32
0.0
 13
1.0
 23
0.0
 33
0.0
 40
0.0
 40
0.0
 40
0.0
 40
0.0
 40
1.0
 40
1.0
 40
1.0
 40
2.0
 40
2.0
 40
2.0
 40
2.0
 10
252.1618426447546
 20
166.5018752663433
 30
0.0
 10
254.9687026427408
 20
167.0403327356549
 30
0.0
 10
257.5592742206016
 20
167.988348319619
 30
0.0
 10
259.9335573783369
 20
169.3459220182353
 30
0.0
 10
261.3676088560445
 20
170.1658876412299
 30
0.0
 10
262.7227565686078
 20
171.1352633772241
 30
0.0
 10
263.999000516027
 20
172.254049226218
 30
0.0
  0
SPLINE
  5
193
330
1F
100
AcDbEntity
  8
0
  6
K5LT32769
 62
    30
420
 16744448
100
AcDbSpline
210
0.0
220
0.0
230
1.0
 70
     8
 71
     3
 72
    11
 73
     7
 74
     0
 42
0.0
 43
0.0
 12
1.0
 22
0.0
 32
0.0
 13
1.0
 23
0.0
 33
0.0
 40
0.0
 40
0.0
 40
0.0
 40
0.0
 40
1.0
 40
1.0
 40
1.0
 40
2.0
 40
2.0
 40
2.0
 40
2.0
 10
271.4770419079824
 20
180.7113579433103
 30
0.0
 10
271.0024663221415
 20
179.6874796284249
 30
0.0
 10
270.3990793844308
 20
178.7774534272874
 30
0.0
 10
269.6668810948503
 20
177.9812793398981
 30
0.0
 10
269.1164944140303
 20
177.3828026436958
 30
0.0
 10
268.4933242980341
 20
176.8486568299847
 30
0.0
 10
267.7973707468615
 20
176.3788418987648
 30
0.0
  0
SPLINE
  5
194
330
1F
100
AcDbEntity
  8
0
  6
K5LT32769
 62
    30
420
 16744448
100
AcDbSpline
210
0.0
220
0.0
230
1.0
 70
     8
 71
     3
 72
    11
 73
     7
 74
     0
 42
0.0
 43
0.0
 12
1.0
 22
0.0
 32
0.0
 13
1.0
 23
0.0
 33
0.0
 40
0.0
 40
0.0
 40
0.0
 40
0.0
 40
1.0
 40
1.0
 40
1.0
 40
2.0
 40
2.0
 40
2.0
 40
2.0
 10
267.7973707468615
 20
176.3788418987648
 30
0.0
 10
268.1890817156358
 20
174.519987571421
 30
0.0
 10
268.0011415219226
 20
173.2637557502856
 30
0.0
 10
267.233550165722
 20
172.6101464353587
 30
0.0
 10
266.5780658714682
 20
172.0519970541135
 30
0.0
 10
265.4998826549032
 20
171.9332979843999
 30
0.0
 10
263.999000516027
 20
172.254049226218
 30
0.0
  0
SPLINE
  5
195
330
1F
100
AcDbEntity
  8
0
  6
K5LT32769
 62
    30
420
 16744448
100
AcDbSpline
210
0.0
220
0.0
230
1.0
 70
     8
 71
     3
 72
    14
 73
    10
 74
     0
 42
0.0
 43
0.0
 12
1.0
 22
0.0
 32
0.0
 13
1.0
 23
0.0
 33
0.0
 40
0.0
 40
0.0
 40
0.0
 40
0.0
 40
1.0
 40
1.0
 40
1.0
 40
2.0
 40
2.0
 40
2.0
 40
3.0
 40
3.0
 40
3.0
 40
3.0
 10
271.4770419079824
 20
180.7113579433103
 30
0.0
 10
270.7883340428343
 20
178.277504187945
 30
0.0
 10
270.7388760971203
 20
176.0222218633871
 30
0.0
 10
271.3286680708404
 20
173.9455109696364
 30
0.0
 10
271.9019034525207
 20
171.9270973342145
 30
0.0
 10
273.3279403610119
 20
169.9319526098244
 30
0.0
 10
274.8599653948193
 20
168.3963294605267
 30
0.0
 10
275.554345545476
 20
167.7003184879701
 30
0.0
 10
276.3216379621211
 20
167.0688337565756
 30
0.0
 10
277.1618426447545
 20
166.5018752663433
 30
0.0
  0
SPLINE
  5
196
330
1F
100
AcDbEntity
  8
0
  6
K5LT32769
 62
    30
420
 16744448
100
AcDbSpline
210
0.0
220
0.0
230
1.0
 70
     8
 71
     3
 72
    11
 73
     7
 74
     0
 42
0.0
 43
0.0
 12
1.0
 22
0.0
 32
0.0
 13
1.0
 23
0.0
 33
0.0
 40
0.0
 40
0.0
 40
0.0
 40
0.0
 40
1.0
 40
1.0
 40
1.0
 40
2.0
 40
2.0
 40
2.0
 40
2.0
 10
281.388414229066
 20
184.450378639288
 30
0.0
 10
280.0426510758906
 20
184.7418434072107
 30
0.0
 10
279.1524080530388
 20
185.2858808100646
 30
0.0
 10
278.7176851605105
 20
186.0824908478497
 30
0.0
 10
278.2931436186211
 20
186.8604440210977
 30
0.0
 10
278.3030352077639
 20
187.8792777028059
 30
0.0
 10
278.7473599279389
 20
189.1389918929743
 30
0.0
  0
SPLINE
  5
197
330
1F
100
AcDbEntity
  8
0
  6
K5LT32769
 62
    30
420
 16744448
100
AcDbSpline
210
0.0
220
0.0
230
1.0
 70
     8
 71
     3
 72
    38
 73
    34
 74
     0
 42
0.0
 43
0.0
 12
1.0
 22
0.0
 32
0.0
 13
1.0
 23
0.0
 33
0.0
 40
0.0
 40
0.0
 40
0.0
 40
0.0
 40
1.0
 40
1.0
 40
1.0
 40
2.0
 40
2.0
 40
2.0
 40
3.0
 40
3.0
 40
3.0
 40
4.0
 40
4.0
 40
4.0
 40
5.0
 40
5.0
 40
5.0
 40
6.0
 40
6.0
 40
6.0
 40
7.0
 40
7.0
 40
7.0
 40
8.0
 40
8.0
 40
8.0
 40
9.0
 40
9.0
 40
9.0
 40
10.0
 40
10.0
 40
10.0
 40
11.0
 40
11.0
 40
11.0
 40
11.0
 10
278.7473599279389
 20
189.1389918929743
 30
0.0
 10
277.5598549851042
 20
188.2741356991027
 30
0.0
 10
276.582236264381
 20
187.2734366403983
 30
0.0
 10
275.8145037657695
 20
186.1368947168611
 30
0.0
 10
274.8810695795344
 20
184.7550500151742
 30
0.0
 10
274.2753336946989
 20
183.0263987136288
 30
0.0
 10
273.9449934177807
 20
181.388931928318
 30
0.0
 10
273.5626956434966
 20
179.4939165419765
 30
0.0
 10
273.4733657420323
 20
177.3144173865059
 30
0.0
 10
273.9746681852091
 20
175.4836532100675
 30
0.0
 10
274.4978421145282
 20
173.5730140323002
 30
0.0
 10
275.5790526919445
 20
171.2670046770471
 30
0.0
 10
277.1498683000472
 20
170.2015446078133
 30
0.0
 10
278.4504751514419
 20
169.319362982685
 30
0.0
 10
280.5415455895213
 20
168.754414950521
 30
0.0
 10
282.1055544605891
 20
168.9848791432491
 30
0.0
 10
283.6003295163015
 20
169.2051414019215
 30
0.0
 10
285.3910332591867
 20
170.197583870536
 30
0.0
 10
286.3490462028495
 20
171.3885353049491
 30
0.0
 10
287.1643429545971
 20
172.4020694564333
 30
0.0
 10
287.8280174635524
 20
173.9756176117126
 30
0.0
 10
287.8031098068408
 20
175.2759298380687
 30
0.0
 10
287.7817626757746
 20
176.3903636784043
 30
0.0
 10
287.3761115591423
 20
177.9281233741129
 30
0.0
 10
286.616119109705
 20
178.6291785574773
 30
0.0
 10
285.7805239523266
 20
179.3999734735426
 30
0.0
 10
283.8760216592263
 20
179.8575359041682
 30
0.0
 10
282.7880741114421
 20
179.430397278044
 30
0.0
 10
282.0867536865273
 20
179.1550521629406
 30
0.0
 10
281.3040434192547
 20
178.4062437235404
 30
0.0
 10
280.9185637634533
 20
177.7389355346255
 30
0.0
 10
280.274209895298
 20
176.623487270864
 30
0.0
 10
280.2939930735836
 20
175.2188816125867
 30
0.0
 10
280.9779132983101
 20
173.5251185597935
 30
0.0
  0
SPLINE
  5
198
330
1F
100
AcDbEntity
  8
0
  6
K5LT32769
 62
    30
420
 16744448
100
AcDbSpline
210
0.0
220
0.0
230
1.0
 70
     8
 71
     3
 72
    29
 73
    25
 74
     0
 42
0.0
 43
0.0
 12
1.0
 22
0.0
 32
0.0
 13
1.0
 23
0.0
 33
0.0
 40
0.0
 40
0.0
 40
0.0
 40
0.0
 40
1.0
 40
1.0
 40
1.0
 40
2.0
 40
2.0
 40
2.0
 40
3.0
 40
3.0
 40
3.0
 40
4.0
 40
4.0
 40
4.0
 40
5.0
 40
5.0
 40
5.0
 40
6.0
 40
6.0
 40
6.0
 40
7.0
 40
7.0
 40
7.0
 40
8.0
 40
8.0
 40
8.0
 40
8.0
 10
280.9779132983101
 20
173.5251185597935
 30
0.0
 10
280.9067905893083
 20
174.7082496958988
 30
0.0
 10
281.1540803178783
 20
175.6182758970362
 30
0.0
 10
281.71978248402
 20
176.2551971632058
 30
0.0
 10
282.2457490842212
 20
176.847380352547
 30
0.0
 10
283.4470350807784
 20
177.4613101998094
 30
0.0
 10
284.1234386457199
 20
177.3234887906279
 30
0.0
 10
284.885080461926
 20
177.1682995606449
 30
0.0
 10
285.8247330128906
 20
175.8139120900807
 30
0.0
 10
285.9335994588519
 20
174.9791821637848
 30
0.0
 10
286.0506952387702
 20
174.0813540875789
 30
0.0
 10
285.253657493042
 20
172.8240411317091
 30
0.0
 10
284.5685601571458
 20
172.1007297232306
 30
0.0
 10
283.717144146265
 20
171.2018225435292
 30
0.0
 10
281.9983808672403
 20
170.3980519776966
 30
0.0
 10
280.9482385308817
 20
170.4982922820973
 30
0.0
 10
279.4018030033355
 20
170.645905765194
 30
0.0
 10
277.8512768565872
 20
173.3279509368191
 30
0.0
 10
277.3279169046176
 20
175.06820646607
 30
0.0
 10
276.8450280048914
 20
176.6738892750044
 30
0.0
 10
276.9679976534553
 20
178.8876715670144
 30
0.0
 10
277.6246645789015
 20
180.4393393706094
 30
0.0
 10
278.2961098326321
 20
182.0259275505798
 30
0.0
 10
279.5506930493536
 20
183.3629406401394
 30
0.0
 10
281.388414229066
 20
184.450378639288
 30
0.0
  0
SPLINE
  5
199
330
1F
100
AcDbEntity
  8
0
  6
K5LT32769
 62
    30
420
 16744448
100
AcDbSpline
210
0.0
220
0.0
230
1.0
 70
     8
 71
     3
 72
    32
 73
    28
 74
     0
 42
0.0
 43
0.0
 12
1.0
 22
0.0
 32
0.0
 13
1.0
 23
0.0
 33
0.0
 40
0.0
 40
0.0
 40
0.0
 40
0.0
 40
1.0
 40
1.0
 40
1.0
 40
2.0
 40
2.0
 40
2.0
 40
3.0
 40
3.0
 40
3.0
 40
4.0
 40
4.0
 40
4.0
 40
5.0
 40
5.0
 40
5.0
 40
6.0
 40
6.0
 40
6.0
 40
7.0
 40
7.0
 40
7.0
 40
8.0
 40
8.0
 40
8.0
 40
9.0
 40
9.0
 40
9.0
 40
9.0
 10
290.2166589814913
 20
175.0482263433894
 30
0.0
 10
292.2329516452647
 20
176.7444250056458
 30
0.0
 10
294.3637755397505
 20
178.2386091993036
 30
0.0
 10
296.6091306649485
 20
179.5307789243627
 30
0.0
 10
299.1770618534779
 20
181.0085865551536
 30
0.0
 10
301.9161261717458
 20
182.6267965564732
 30
0.0
 10
304.7623333373721
 20
183.1715172246273
 30
0.0
 10
307.5923494855263
 20
183.7131391788291
 30
0.0
 10
311.1930081417981
 20
184.029101567769
 30
0.0
 10
313.6334280690028
 20
182.8125711950238
 30
0.0
 10
315.8293455532452
 20
181.7179233904212
 30
0.0
 10
318.1500942296915
 20
179.1584140717002
 30
0.0
 10
318.966340508827
 20
176.8643227044506
 30
0.0
 10
319.8952639819212
 20
174.2535477766705
 30
0.0
 10
319.0684325762043
 20
170.5583020182523
 30
0.0
 10
318.0176960602999
 20
167.8223019610699
 30
0.0
 10
317.0049884870421
 20
165.1853250059502
 30
0.0
 10
314.7838413154518
 20
162.932035702839
 30
0.0
 10
312.9326275096453
 20
160.6861133227563
 30
0.0
 10
310.2770625329887
 20
157.4643391580813
 30
0.0
 10
306.236839673585
 20
155.2851812646777
 30
0.0
 10
304.0017087946301
 20
151.8406579447269
 30
0.0
 10
302.0500508556519
 20
148.832990095531
 30
0.0
 10
297.2070566094137
 20
143.8435575669959
 30
0.0
 10
299.8435487313293
 20
141.683067247516
 30
0.0
 10
300.1069244428978
 20
141.4672423374017
 30
0.0
 10
300.4104421955113
 20
141.2636457497354
 30
0.0
 10
300.7541019891701
 20
141.0722774845173
 30
0.0
  0
SPLINE
  5
19A
330
1F
100
AcDbEntity
  8
0
  6
K5LT32769
 62
    30
420
 16744448
100
AcDbSpline
210
0.0
220
0.0
230
1.0
 70
     8
 71
     3
 72
    11
 73
     7
 74
     0
 42
0.0
 43
0.0
 12
1.0
 22
0.0
 32
0.0
 13
1.0
 23
0.0
 33
0.0
 40
0.0
 40
0.0
 40
0.0
 40
0.0
 40
1.0
 40
1.0
 40
1.0
 40
2.0
 40
2.0
 40
2.0
 40
2.0
 10
298.4038602220609
 20
147.5674910954374
 30
0.0
 10
300.8872576094668
 20
151.742202034981
 30
0.0
 10
303.7502793984908
 20
155.5738083098439
 30
0.0
 10
306.9929255891329
 20
159.0623099200263
 30
0.0
 10
309.3917944621689
 20
161.6430595406148
 30
0.0
 10
311.9984262402356
 20
164.036032976217
 30
0.0
 10
314.8128209233328
 20
166.2412302268327
 30
0.0
  0
SPLINE
  5
19B
330
1F
100
AcDbEntity
  8
0
  6
K5LT32769
 62
    30
420
 16744448
100
AcDbSpline
210
0.0
220
0.0
230
1.0
 70
     8
 71
     3
 72
    11
 73
     7
 74
     0
 42
0.0
 43
0.0
 12
1.0
 22
0.0
 32
0.0
 13
1.0
 23
0.0
 33
0.0
 40
0.0
 40
0.0
 40
0.0
 40
0.0
 40
1.0
 40
1.0
 40
1.0
 40
2.0
 40
2.0
 40
2.0
 40
2.0
 10
314.8128209233328
 20
166.2412302268327
 30
0.0
 10
309.9668324646074
 20
165.534757295445
 30
0.0
 10
306.192201747735
 20
163.8254905557292
 30
0.0
 10
303.4889287727154
 20
161.1134300076853
 30
0.0
 10
300.3424298208319
 20
157.9567026809515
 30
0.0
 10
298.6474069706136
 20
153.4413897102022
 30
0.0
 10
298.4038602220609
 20
147.5674910954374
 30
0.0
  0
SPLINE
  5
19C
330
1F
100
AcDbEntity
  8
0
  6
K5LT32769
 62
    30
420
 16744448
100
AcDbSpline
210
0.0
220
0.0
230
1.0
 70
     8
 71
     3
 72
    11
 73
     7
 74
     0
 42
0.0
 43
0.0
 12
1.0
 22
0.0
 32
0.0
 13
1.0
 23
0.0
 33
0.0
 40
0.0
 40
0.0
 40
0.0
 40
0.0
 40
1.0
 40
1.0
 40
1.0
 40
2.0
 40
2.0
 40
2.0
 40
2.0
 10
284.0950237924507
 20
166.779118465224
 30
0.0
 10
286.3832193441802
 20
167.3952667359733
 30
0.0
 10
288.3427971127758
 20
168.4130269664746
 30
0.0
 10
289.9737570982374
 20
169.8323991567279
 30
0.0
 10
291.3286624266386
 20
171.0115298286644
 30
0.0
 10
292.4567785645056
 20
172.4678252066382
 30
0.0
 10
293.3581055118385
 20
174.2012852906495
 30
0.0
  0
SPLINE
  5
19D
330
1F
100
AcDbEntity
  8
0
  6
K5LT32769
 62
    30
420
 16744448
100
AcDbSpline
210
0.0
220
0.0
230
1.0
 70
     8
 71
     3
 72
    11
 73
     7
 74
     0
 42
0.0
 43
0.0
 12
1.0
 22
0.0
 32
0.0
 13
1.0
 23
0.0
 33
0.0
 40
0.0
 40
0.0
 40
0.0
 40
0.0
 40
1.0
 40
1.0
 40
1.0
 40
2.0
 40
2.0
 40
2.0
 40
2.0
 10
293.3581055118385
 20
174.2012852906495
 30
0.0
 10
295.3528493583232
 20
172.5978025652823
 30
0.0
 10
296.747611128777
 20
170.7723055421883
 30
0.0
 10
297.5423908232
 20
168.7247942213676
 30
0.0
 10
298.4236913230724
 20
166.4543880154771
 30
0.0
 10
298.5672697406191
 20
163.9109989046495
 30
0.0
 10
297.9731260758401
 20
161.094626888885
 30
0.0
  0
SPLINE
  5
19E
330
1F
100
AcDbEntity
  8
0
  6
K5LT32769
 62
    30
420
 16744448
100
AcDbSpline
210
0.0
220
0.0
230
1.0
 70
     8
 71
     3
 72
    11
 73
     7
 74
     0
 42
0.0
 43
0.0
 12
1.0
 22
0.0
 32
0.0
 13
1.0
 23
0.0
 33
0.0
 40
0.0
 40
0.0
 40
0.0
 40
0.0
 40
1.0
 40
1.0
 40
1.0
 40
2.0
 40
2.0
 40
2.0
 40
2.0
 10
284.0950237932572
 20
166.7791184654163
 30
0.0
 10
288.5572761608349
 20
167.8429929793615
 30
0.0
 10
292.1167277246822
 20
167.3224130217982
 30
0.0
 10
294.773378484799
 20
165.2173785927264
 30
0.0
 10
296.0476737636649
 20
164.2076728854175
 30
0.0
 10
297.114256294012
 20
162.8334223174704
 30
0.0
 10
297.9731260758401
 20
161.094626888885
 30
0.0
  0
SPLINE
  5
19F
330
1F
100
AcDbEntity
  8
0
  6
K5LT32769
 62
    30
420
 16744448
100
AcDbSpline
210
0.0
220
0.0
230
1.0
 70
     8
 71
     3
 72
    11
 73
     7
 74
     0
 42
0.0
 43
0.0
 12
1.0
 22
0.0
 32
0.0
 13
1.0
 23
0.0
 33
0.0
 40
0.0
 40
0.0
 40
0.0
 40
0.0
 40
1.0
 40
1.0
 40
1.0
 40
2.0
 40
2.0
 40
2.0
 40
2.0
 10
297.0676483404945
 20
177.023974913112
 30
0.0
 10
299.109800136051
 20
178.7153419328037
 30
0.0
 10
301.2938631055677
 20
179.8667229547771
 30
0.0
 10
303.6198372490446
 20
180.4781179790324
 30
0.0
 10
305.9467520216367
 20
181.0897602527949
 30
0.0
 10
308.415692769786
 20
181.1609796974531
 30
0.0
 10
311.0266594934924
 20
180.6917763130069
 30
0.0
  0
SPLINE
  5
1A0
330
1F
100
AcDbEntity
  8
0
  6
K5LT32769
 62
    30
420
 16744448
100
AcDbSpline
210
0.0
220
0.0
230
1.0
 70
     8
 71
     3
 72
    11
 73
     7
 74
     0
 42
0.0
 43
0.0
 12
1.0
 22
0.0
 32
0.0
 13
1.0
 23
0.0
 33
0.0
 40
0.0
 40
0.0
 40
0.0
 40
0.0
 40
1.0
 40
1.0
 40
1.0
 40
2.0
 40
2.0
 40
2.0
 40
2.0
 10
297.0676483404945
 20
177.023974913112
 30
0.0
 10
299.9689710687853
 20
176.4526147799996
 30
0.0
 10
302.6753099657951
 20
176.5594439469869
 30
0.0
 10
305.1866650315239
 20
177.3444624140737
 30
0.0
 10
307.2671464710091
 20
177.9947951259689
 30
0.0
 10
309.2138112916653
 20
179.1105664256133
 30
0.0
 10
311.0266594934924
 20
180.6917763130069
 30
0.0
  0
SPLINE
  5
1A1
330
1F
100
AcDbEntity
  8
0
  6
K5LT32769
 62
    30
420
 16744448
100
AcDbSpline
210
0.0
220
0.0
230
1.0
 70
    24
 71
     3
 72
     8
 73
     4
 74
     0
 42
0.0
 43
0.0
 12
1.0
 22
0.0
 32
0.0
 13
1.0
 23
0.0
 33
0.0
 40
0.0
 40
0.0
 40
0.0
 40
0.0
 40
1.0
 40
1.0
 40
1.0
 40
1.0
 10
297.1032580628236
 20
174.7805624063803
 30
0.0
 10
298.8837441792774
 20
173.0950355494707
 30
0.0
 10
297.9935011210505
 20
173.9377989779254
 30
0.0
 10
299.7739872375043
 20
172.2522721210158
 30
0.0
  0
SPLINE
  5
1A2
330
1F
100
AcDbEntity
  8
0
  6
K5LT32769
 62
    30
420
 16744448
100
AcDbSpline
210
0.0
220
0.0
230
1.0
 70
     8
 71
     3
 72
    11
 73
     7
 74
     0
 42
0.0
 43
0.0
 12
1.0
 22
0.0
 32
0.0
 13
1.0
 23
0.0
 33
0.0
 40
0.0
 40
0.0
 40
0.0
 40
0.0
 40
1.0
 40
1.0
 40
1.0
 40
2.0
 40
2.0
 40
2.0
 40
2.0
 10
297.1032580628236
 20
174.7805624063803
 30
0.0
 10
297.9117088569292
 20
174.6252132021999
 30
0.0
 10
298.7188625630549
 20
174.5539937575418
 30
0.0
 10
299.5247191812008
 20
174.5669040724058
 30
0.0
 10
300.3212702849419
 20
174.5796653072495
 30
0.0
 10
301.1165540836246
 20
174.6746245667937
 30
0.0
 10
301.9105705772489
 20
174.8517818510384
 30
0.0
  0
SPLINE
  5
1A3
330
1F
100
AcDbEntity
  8
0
  6
K5LT32769
 62
    30
420
 16744448
100
AcDbSpline
210
0.0
220
0.0
230
1.0
 70
     8
 71
     3
 72
    11
 73
     7
 74
     0
 42
0.0
 43
0.0
 12
1.0
 22
0.0
 32
0.0
 13
1.0
 23
0.0
 33
0.0
 40
0.0
 40
0.0
 40
0.0
 40
0.0
 40
1.0
 40
1.0
 40
1.0
 40
2.0
 40
2.0
 40
2.0
 40
2.0
 10
301.9105705772489
 20
174.8517818510384
 30
0.0
 10
301.7021622890672
 20
174.2201457263872
 30
0.0
 10
301.3935446955485
 20
173.6741299840081
 30
0.0
 10
300.9847177966929
 20
173.2137346239009
 30
0.0
 10
300.6487965813665
 20
172.8354410983752
 30
0.0
 10
300.2452197283036
 20
172.5149535974135
 30
0.0
 10
299.7739872375043
 20
172.2522721210158
 30
0.0
  0
SPLINE
  5
1A4
330
1F
100
AcDbEntity
  8
0
  6
K5LT32769
 62
    30
420
 16744448
100
AcDbSpline
210
0.0
220
0.0
230
1.0
 70
    24
 71
     3
 72
     8
 73
     4
 74
     0
 42
0.0
 43
0.0
 12
1.0
 22
0.0
 32
0.0
 13
1.0
 23
0.0
 33
0.0
 40
0.0
 40
0.0
 40
0.0
 40
0.0
 40
1.0
 40
1.0
 40
1.0
 40
1.0
 10
303.7747484513726
 20
172.6538444396182
 30
0.0
 10
302.2749822207761
 20
171.3372557639037
 30
0.0
 10
303.0248653360744
 20
171.995550101761
 30
0.0
 10
301.5250991054778
 20
170.6789614260465
 30
0.0
  0
SPLINE
  5
1A5
330
1F
100
AcDbEntity
  8
0
  6
K5LT32769
 62
    30
420
 16744448
100
AcDbSpline
210
0.0
220
0.0
230
1.0
 70
    24
 71
     3
 72
     8
 73
     4
 74
     0
 42
0.0
 43
0.0
 12
1.0
 22
0.0
 32
0.0
 13
1.0
 23
0.0
 33
0.0
 40
0.0
 40
0.0
 40
0.0
 40
0.0
 40
1.0
 40
1.0
 40
1.0
 40
1.0
 10
301.5250991054778
 20
170.6789614260465
 30
0.0
 10
302.8531363783724
 20
169.2593353757109
 30
0.0
 10
302.1891177419251
 20
169.9691484008787
 30
0.0
 10
303.5171550148198
 20
168.549522350543
 30
0.0
  0
SPLINE
  5
1A6
330
1F
100
AcDbEntity
  8
0
  6
K5LT32769
 62
    30
420
 16744448
100
AcDbSpline
210
0.0
220
0.0
230
1.0
 70
    24
 71
     3
 72
     8
 73
     4
 74
     0
 42
0.0
 43
0.0
 12
1.0
 22
0.0
 32
0.0
 13
1.0
 23
0.0
 33
0.0
 40
0.0
 40
0.0
 40
0.0
 40
0.0
 40
1.0
 40
1.0
 40
1.0
 40
1.0
 10
303.7747484513726
 20
172.6538444396182
 30
0.0
 10
305.0340941411865
 20
171.3029099723634
 30
0.0
 10
304.4044212962795
 20
171.9783772059908
 30
0.0
 10
305.6637669860934
 20
170.6274427387359
 30
0.0
  0
SPLINE
  5
1A7
330
1F
100
AcDbEntity
  8
0
  6
K5LT32769
 62
    30
420
 16744448
100
AcDbSpline
210
0.0
220
0.0
230
1.0
 70
    24
 71
     3
 72
     8
 73
     4
 74
     0
 42
0.0
 43
0.0
 12
1.0
 22
0.0
 32
0.0
 13
1.0
 23
0.0
 33
0.0
 40
0.0
 40
0.0
 40
0.0
 40
0.0
 40
1.0
 40
1.0
 40
1.0
 40
1.0
 10
305.6637669860934
 20
170.6274427387359
 30
0.0
 10
304.2326923385776
 20
169.2421624799407
 30
0.0
 10
304.9482296623355
 20
169.9348026093383
 30
0.0
 10
303.5171550148198
 20
168.549522350543
 30
0.0
  0
SPLINE
  5
1A8
330
1F
100
AcDbEntity
  8
0
  6
K5LT32769
 62
    30
420
 16744448
100
AcDbSpline
210
0.0
220
0.0
230
1.0
 70
    24
 71
     3
 72
     8
 73
     4
 74
     0
 42
0.0
 43
0.0
 12
1.0
 22
0.0
 32
0.0
 13
1.0
 23
0.0
 33
0.0
 40
0.0
 40
0.0
 40
0.0
 40
0.0
 40
1.0
 40
1.0
 40
1.0
 40
1.0
 10
304.9440596354881
 20
166.9675466840228
 30
0.0
 10
306.4546383100381
 20
168.3350179051943
 30
0.0
 10
305.6993489727631
 20
167.6512822946085
 30
0.0
 10
307.2099276473131
 20
169.0187535157801
 30
0.0
  0
SPLINE
  5
1A9
330
1F
100
AcDbEntity
  8
0
  6
K5LT32769
 62
    30
420
 16744448
100
AcDbSpline
210
0.0
220
0.0
230
1.0
 70
    24
 71
     3
 72
     8
 73
     4
 74
     0
 42
0.0
 43
0.0
 12
1.0
 22
0.0
 32
0.0
 13
1.0
 23
0.0
 33
0.0
 40
0.0
 40
0.0
 40
0.0
 40
0.0
 40
1.0
 40
1.0
 40
1.0
 40
1.0
 10
307.2099276473131
 20
169.0187535157801
 30
0.0
 10
308.5853492825612
 20
167.6751335368383
 30
0.0
 10
307.8976384649372
 20
168.3469435263092
 30
0.0
 10
309.2730601001853
 20
167.0033235473674
 30
0.0
  0
SPLINE
  5
1AA
330
1F
100
AcDbEntity
  8
0
  6
K5LT32769
 62
    30
420
 16744448
100
AcDbSpline
210
0.0
220
0.0
230
1.0
 70
    24
 71
     3
 72
     8
 73
     4
 74
     0
 42
0.0
 43
0.0
 12
1.0
 22
0.0
 32
0.0
 13
1.0
 23
0.0
 33
0.0
 40
0.0
 40
0.0
 40
0.0
 40
0.0
 40
1.0
 40
1.0
 40
1.0
 40
1.0
 10
304.9440596354881
 20
166.9675466840228
 30
0.0
 10
305.9458118091371
 20
165.9180920259144
 30
0.0
 10
305.4449357223126
 20
166.4428193549686
 30
0.0
 10
306.4466878959615
 20
165.3933646968602
 30
0.0
  0
SPLINE
  5
1AB
330
1F
100
AcDbEntity
  8
0
  6
K5LT32769
 62
    30
420
 16744448
100
AcDbSpline
210
0.0
220
0.0
230
1.0
 70
     8
 71
     3
 72
    11
 73
     7
 74
     0
 42
0.0
 43
0.0
 12
1.0
 22
0.0
 32
0.0
 13
1.0
 23
0.0
 33
0.0
 40
0.0
 40
0.0
 40
0.0
 40
0.0
 40
1.0
 40
1.0
 40
1.0
 40
2.0
 40
2.0
 40
2.0
 40
2.0
 10
309.2730601001853
 20
167.0033235473674
 30
0.0
 10
308.6920880534029
 20
166.8650321339457
 30
0.0
 10
308.1554351032338
 20
166.6503709538781
 30
0.0
 10
307.6631012496781
 20
166.3593400071645
 30
0.0
 10
307.2220654246137
 20
166.0986326177049
 30
0.0
 10
306.8165943067082
 20
165.7766408476035
 30
0.0
 10
306.4466878959615
 20
165.3933646968602
 30
0.0
  0
SPLINE
  5
1AC
330
1F
100
AcDbEntity
  8
0
  6
K5LT32769
 62
    30
420
 16744448
100
AcDbSpline
210
0.0
220
0.0
230
1.0
 70
     8
 71
     3
 72
    11
 73
     7
 74
     0
 42
0.0
 43
0.0
 12
1.0
 22
0.0
 32
0.0
 13
1.0
 23
0.0
 33
0.0
 40
0.0
 40
0.0
 40
0.0
 40
0.0
 40
1.0
 40
1.0
 40
1.0
 40
2.0
 40
2.0
 40
2.0
 40
2.0
 10
300.2157709103349
 20
168.0616747915864
 30
0.0
 10
300.4478068679833
 20
166.972796592195
 30
0.0
 10
300.592059198185
 20
165.8806003778111
 30
0.0
 10
300.6485279009399
 20
164.7850861484344
 30
0.0
 10
300.7243453745742
 20
163.3141984327676
 30
0.0
 10
300.6419154716019
 20
161.8373293378458
 30
0.0
 10
300.4012381920227
 20
160.3544788636691
 30
0.0
  0
SPLINE
  5
1AD
330
1F
100
AcDbEntity
  8
0
  6
K5LT32769
 62
    30
420
 16744448
100
AcDbSpline
210
0.0
220
0.0
230
1.0
 70
    24
 71
     3
 72
     8
 73
     4
 74
     0
 42
0.0
 43
0.0
 12
1.0
 22
0.0
 32
0.0
 13
1.0
 23
0.0
 33
0.0
 40
0.0
 40
0.0
 40
0.0
 40
0.0
 40
1.0
 40
1.0
 40
1.0
 40
1.0
 10
300.2157709103349
 20
168.0616747915864
 30
0.0
 10
302.867266122613
 20
165.3414879934979
 30
0.0
 10
301.541518516474
 20
166.7015813925422
 30
0.0
 10
304.1930137287521
 20
163.9813945944537
 30
0.0
  0
SPLINE
  5
1AE
330
1F
100
AcDbEntity
  8
0
  6
K5LT32769
 62
    30
420
 16744448
100
AcDbSpline
210
0.0
220
0.0
230
1.0
 70
     8
 71
     3
 72
    11
 73
     7
 74
     0
 42
0.0
 43
0.0
 12
1.0
 22
0.0
 32
0.0
 13
1.0
 23
0.0
 33
0.0
 40
0.0
 40
0.0
 40
0.0
 40
0.0
 40
1.0
 40
1.0
 40
1.0
 40
2.0
 40
2.0
 40
2.0
 40
2.0
 10
304.1930137287521
 20
163.9813945944537
 30
0.0
 10
303.2419106958151
 20
163.6159479782359
 30
0.0
 10
302.4382191418345
 20
163.1007610846586
 30
0.0
 10
301.7819390668101
 20
162.4358339137216
 30
0.0
 10
301.2095860142188
 20
161.8559395812257
 30
0.0
 10
300.7493523892896
 20
161.1621545645416
 30
0.0
 10
300.4012381920227
 20
160.3544788636691
 30
0.0
  0
SPLINE
  5
1AF
330
1F
100
AcDbEntity
  8
0
  6
K5LT32769
 62
    30
420
 16744448
100
AcDbSpline
210
0.0
220
0.0
230
1.0
 70
    24
 71
     3
 72
     8
 73
     4
 74
     0
 42
0.0
 43
0.0
 12
1.0
 22
0.0
 32
0.0
 13
1.0
 23
0.0
 33
0.0
 40
0.0
 40
0.0
 40
0.0
 40
0.0
 40
1.0
 40
1.0
 40
1.0
 40
1.0
 10
305.5237679942827
 20
175.112224675737
 30
0.0
 10
307.0212445649476
 20
173.5460565192619
 30
0.0
 10
306.2725062796151
 20
174.3291405974995
 30
0.0
 10
307.76998285028
 20
172.7629724410243
 30
0.0
  0
SPLINE
  5
1B0
330
1F
100
AcDbEntity
  8
0
  6
K5LT32769
 62
    30
420
 16744448
100
AcDbSpline
210
0.0
220
0.0
230
1.0
 70
    24
 71
     3
 72
     8
 73
     4
 74
     0
 42
0.0
 43
0.0
 12
1.0
 22
0.0
 32
0.0
 13
1.0
 23
0.0
 33
0.0
 40
0.0
 40
0.0
 40
0.0
 40
0.0
 40
1.0
 40
1.0
 40
1.0
 40
1.0
 10
307.76998285028
 20
172.7629724410243
 30
0.0
 10
310.6412911371511
 20
175.7716638995161
 30
0.0
 10
309.2056369937155
 20
174.2673181702702
 30
0.0
 10
312.0769452805867
 20
177.2760096287619
 30
0.0
  0
SPLINE
  5
1B1
330
1F
100
AcDbEntity
  8
0
  6
K5LT32769
 62
    30
420
 16744448
100
AcDbSpline
210
0.0
220
0.0
230
1.0
 70
     8
 71
     3
 72
    11
 73
     7
 74
     0
 42
0.0
 43
0.0
 12
1.0
 22
0.0
 32
0.0
 13
1.0
 23
0.0
 33
0.0
 40
0.0
 40
0.0
 40
0.0
 40
0.0
 40
1.0
 40
1.0
 40
1.0
 40
2.0
 40
2.0
 40
2.0
 40
2.0
 10
305.5237679942827
 20
175.112224675737
 30
0.0
 10
306.6506385891637
 20
175.4821641773648
 30
0.0
 10
307.7771805964529
 20
175.8530987407405
 30
0.0
 10
308.9033940161502
 20
176.2250283658641
 30
0.0
 10
309.9615345033628
 20
176.5744770474851
 30
0.0
 10
311.0193849248416
 20
176.9248041351177
 30
0.0
 10
312.0769452805867
 20
177.2760096287619
 30
0.0
  0
SPLINE
  5
1B2
330
1F
100
AcDbEntity
  8
0
  6
K5LT32769
 62
    30
420
 16744448
100
AcDbSpline
210
0.0
220
0.0
230
1.0
 70
    24
 71
     3
 72
     8
 73
     4
 74
     0
 42
0.0
 43
0.0
 12
1.0
 22
0.0
 32
0.0
 13
1.0
 23
0.0
 33
0.0
 40
0.0
 40
0.0
 40
0.0
 40
0.0
 40
1.0
 40
1.0
 40
1.0
 40
1.0
 10
309.5628332399292
 20
171.0319444786044
 30
0.0
 10
311.8708705231558
 20
168.8612903669984
 30
0.0
 10
310.7168518815425
 20
169.9466174228014
 30
0.0
 10
313.0248891647691
 20
167.7759633111955
 30
0.0
  0
SPLINE
  5
1B3
330
1F
100
AcDbEntity
  8
0
  6
K5LT32769
 62
    30
420
 16744448
100
AcDbSpline
210
0.0
220
0.0
230
1.0
 70
    24
 71
     3
 72
     8
 73
     4
 74
     0
 42
0.0
 43
0.0
 12
1.0
 22
0.0
 32
0.0
 13
1.0
 23
0.0
 33
0.0
 40
0.0
 40
0.0
 40
0.0
 40
0.0
 40
1.0
 40
1.0
 40
1.0
 40
1.0
 10
309.5628332399292
 20
171.0319444786044
 30
0.0
 10
311.4037677396456
 20
173.1751219558862
 30
0.0
 10
310.4833004897874
 20
172.1035332172453
 30
0.0
 10
312.3242349895039
 20
174.2467106945271
 30
0.0
  0
SPLINE
  5
1B4
330
1F
100
AcDbEntity
  8
0
  6
K5LT32769
 62
    30
420
 16744448
100
AcDbSpline
210
0.0
220
0.0
230
1.0
 70
     8
 71
     3
 72
    11
 73
     7
 74
     0
 42
0.0
 43
0.0
 12
1.0
 22
0.0
 32
0.0
 13
1.0
 23
0.0
 33
0.0
 40
0.0
 40
0.0
 40
0.0
 40
0.0
 40
1.0
 40
1.0
 40
1.0
 40
2.0
 40
2.0
 40
2.0
 40
2.0
 10
312.3242349895039
 20
174.2467106945271
 30
0.0
 10
312.236186630702
 20
173.1504002974758
 30
0.0
 10
312.2499249478641
 20
172.0650732416728
 30
0.0
 10
312.3654499409901
 20
170.9907295271182
 30
0.0
 10
312.4818782790225
 20
169.9079850077156
 30
0.0
 10
312.7016913536155
 20
168.8363962690746
 30
0.0
 10
313.0248891647691
 20
167.7759633111955
 30
0.0
  0
SPLINE
  5
1B5
330
1F
100
AcDbEntity
  8
0
  6
K5LT32769
 62
    30
420
 16744448
100
AcDbSpline
210
0.0
220
0.0
230
1.0
 70
     8
 71
     3
 72
    11
 73
     7
 74
     0
 42
0.0
 43
0.0
 12
1.0
 22
0.0
 32
0.0
 13
1.0
 23
0.0
 33
0.0
 40
0.0
 40
0.0
 40
0.0
 40
0.0
 40
1.0
 40
1.0
 40
1.0
 40
2.0
 40
2.0
 40
2.0
 40
2.0
 10
314.3849825638133
 20
179.2337198243559
 30
0.0
 10
314.0374461721815
 20
177.384398779063
 30
0.0
 10
313.9412779520471
 20
175.5572025965087
 30
0.0
 10
314.09647790341
 20
173.7521312766928
 30
0.0
 10
314.2561851509669
 20
171.8946373174476
 30
0.0
 10
314.6820729829908
 20
170.0605719763122
 30
0.0
 10
315.3741413994818
 20
168.2499352532866
 30
0.0
  0
SPLINE
  5
1B6
330
1F
100
AcDbEntity
  8
0
  6
K5LT32769
 62
    30
420
 16744448
100
AcDbSpline
210
0.0
220
0.0
230
1.0
 70
     8
 71
     3
 72
    11
 73
     7
 74
     0
 42
0.0
 43
0.0
 12
1.0
 22
0.0
 32
0.0
 13
1.0
 23
0.0
 33
0.0
 40
0.0
 40
0.0
 40
0.0
 40
0.0
 40
1.0
 40
1.0
 40
1.0
 40
2.0
 40
2.0
 40
2.0
 40
2.0
 10
314.3849825638133
 20
179.2337198243559
 30
0.0
 10
315.9760105645096
 20
177.6689939948399
 30
0.0
 10
316.8896086557867
 20
176.0272650939735
 30
0.0
 10
317.1257768376448
 20
174.3085331217564
 30
0.0
 10
317.3900304628702
 20
172.385407191431
 30
0.0
 10
316.8061519834825
 20
170.3658745686078
 30
0.0
 10
315.3741413994818
 20
168.2499352532866
 30
0.0
  0
SPLINE
  5
1B7
330
1F
100
AcDbEntity
  8
0
  6
K5LT32769
 62
    30
420
 16744448
100
AcDbSpline
210
0.0
220
0.0
230
1.0
 70
     8
 71
     3
 72
    11
 73
     7
 74
     0
 42
0.0
 43
0.0
 12
1.0
 22
0.0
 32
0.0
 13
1.0
 23
0.0
 33
0.0
 40
0.0
 40
0.0
 40
0.0
 40
0.0
 40
1.0
 40
1.0
 40
1.0
 40
2.0
 40
2.0
 40
2.0
 40
2.0
 10
297.8087049015922
 20
139.3707941398341
 30
0.0
 10
298.43249107389
 20
138.392203383131
 30
0.0
 10
299.1758744799779
 20
137.8123832287767
 30
0.0
 10
300.0388551198558
 20
137.6313336767713
 30
0.0
 10
300.5930050871399
 20
137.5150754449125
 30
0.0
 10
301.196469443007
 20
137.5632451669161
 30
0.0
 10
301.8492481874571
 20
137.7758428427822
 30
0.0
  0
SPLINE
  5
1B8
330
1F
100
AcDbEntity
  8
0
  6
K5LT32769
 62
    30
420
 16744448
100
AcDbSpline
210
0.0
220
0.0
230
1.0
 70
     8
 71
     3
 72
    20
 73
    16
 74
     0
 42
0.0
 43
0.0
 12
1.0
 22
0.0
 32
0.0
 13
1.0
 23
0.0
 33
0.0
 40
0.0
 40
0.0
 40
0.0
 40
0.0
 40
1.0
 40
1.0
 40
1.0
 40
2.0
 40
2.0
 40
2.0
 40
3.0
 40
3.0
 40
3.0
 40
4.0
 40
4.0
 40
4.0
 40
5.0
 40
5.0
 40
5.0
 40
5.0
 10
300.7541019891701
 20
141.0722774845173
 30
0.0
 10
300.4326273355671
 20
141.8703373298791
 30
0.0
 10
300.3347607913544
 20
142.5794012786506
 30
0.0
 10
300.460502356532
 20
143.1994693308316
 30
0.0
 10
300.7037631282137
 20
144.399058604718
 30
0.0
 10
302.567423327732
 20
145.7574034638538
 30
0.0
 10
303.700987088478
 20
145.7989790608541
 30
0.0
 10
304.7475031193204
 20
145.8373620175605
 30
0.0
 10
306.4727363420462
 20
144.7692221318069
 30
0.0
 10
306.977081542753
 20
143.8048346104258
 30
0.0
 10
307.498570073594
 20
142.8076663396033
 30
0.0
 10
307.3391607459189
 20
140.8535916349778
 30
0.0
 10
306.6565940417913
 20
139.8521554318984
 30
0.0
 10
306.2157906044427
 20
139.2054252032874
 30
0.0
 10
305.5348694024058
 20
138.6905378176989
 30
0.0
 10
304.6138304356805
 20
138.3074932751329
 30
0.0
  0
DIMENSION
  5
1CF
330
1F
100
AcDbEntity
  8
0
 62
     7
100
AcDbDimension
  2
D0
 10
28.50443057815792
 20
228.6368116009333
 30
0.0
 11
93.00816090294094
 21
228.6368116009333
 31
0.0
 70
   160
 71
     5
 42
-1.0
 73
     0
 74
     0
 75
     0
  3
KDIMSTYLE (1.00)
100
AcDbAlignedDimension
 13
157.511891227724
 23
219.526959240617
 33
0.0
 14
28.50443057815792
 24
219.5269592406171
 34
0.0
100
AcDbRotatedDimension
1001
ACAD
1000
DSTYLE
1002
{
1070
   178
1070
     7
1070
   344
1005
46
1070
   343
1005
46
1070
    42
1040
0.0
1070
    76
1070
     0
1070
    75
1070
     0
1070
   283
1070
     1
1070
     3
1000
\H5.0;\W0.965;\Q15;<>
1002
}
  0
DIMENSION
  5
1E2
330
1F
100
AcDbEntity
  8
0
 62
     7
100
AcDbDimension
  2
D1
 10
13.62904093363403
 20
219.5269592406171
 30
0.0
 11
13.62904093363402
 21
125.0515715749456
 31
0.0
 70
   160
 71
     5
 42
-1.0
 73
     0
 74
     0
 75
     0
  3
KDIMSTYLE (1.00)
100
AcDbAlignedDimension
 13
28.50443057815792
 23
30.57618390927414
 33
0.0
 14
28.50443057815792
 24
219.5269592406171
 34
0.0
 50
90.0
100
AcDbRotatedDimension
1001
ACAD
1000
DSTYLE
1002
{
1070
   178
1070
     7
1070
   344
1005
46
1070
   343
1005
46
1070
    42
1040
0.0
1070
    76
1070
     0
1070
    75
1070
     0
1070
   283
1070
     1
1070
     3
1000
\H5.0;\W0.965;\Q15;<>
1002
}
  0
DIMENSION
  5
1F5
330
1F
100
AcDbEntity
  8
0
 62
     7
100
AcDbDimension
  2
D2
 10
200.7814122173505
 20
223.5974580810565
 30
0.0
 11
260.0742102596064
 21
223.5974580810565
 31
0.0
 70
   160
 71
     5
 42
-1.0
 73
     0
 74
     0
 75
     0
  3
KDIMSTYLE (1.00)
100
AcDbAlignedDimension
 13
319.3670083018623
 23
214.351466068106
 33
0.0
 14
200.7814122173505
 24
214.351466068106
 34
0.0
100
AcDbRotatedDimension
1001
ACAD
1000
DSTYLE
1002
{
1070
   178
1070
     7
1070
   344
1005
46
1070
   343
1005
46
1070
    42
1040
0.0
1070
    76
1070
     0
1070
    75
1070
     0
1070
   283
1070
     1
1070
     3
1000
\H5.0;\W0.965;\Q15;<>
1002
}
  0
DIMENSION
  5
208
330
1F
100
AcDbEntity
  8
0
 62
     7
100
AcDbDimension
  2
D3
 10
340.6752642038812
 20
214.351466068106
 30
0.0
 11
340.6752642038812
 21
125.2205913041465
 31
0.0
 70
   160
 71
     5
 42
-1.0
 73
     0
 74
     0
 75
     0
  3
KDIMSTYLE (1.00)
100
AcDbAlignedDimension
 13
319.3670083018623
 23
36.089716540187
 33
0.0
 14
319.3670083018623
 24
214.351466068106
 34
0.0
 50
90.0
100
AcDbRotatedDimension
1001
ACAD
1000
DSTYLE
1002
{
1070
   178
1070
     7
1070
   344
1005
46
1070
   343
1005
46
1070
    42
1040
0.0
1070
    76
1070
     0
1070
    75
1070
     0
1070
   283
1070
     1
1070
     3
1000
\H5.0;\W0.965;\Q15;<>
1002
}
  0
ENDSEC
  0
SECTION
  2
OBJECTS
  0
DICTIONARY
  5
C
330
0
100
AcDbDictionary
281
     1
  3
ACAD_GROUP
350
D
  3
ACAD_LAYOUT
350
1A
  3
ACAD_MATERIAL
350
3B
  3
ACAD_MLEADERSTYLE
350
24E
  3
ACAD_MLINESTYLE
350
17
  3
ACAD_PLOTSETTINGS
350
19
  3
ACAD_PLOTSTYLENAME
350
E
  3
ACAD_SCALELIST
350
209
  3
ACAD_TABLESTYLE
350
24D
  3
ACAD_VISUALSTYLE
350
2A
  3
ACAD_WIPEOUT_VARS
350
1BC
  3
AcDbVariableDictionary
350
22B
  0
DICTIONARY
  5
D
102
{ACAD_REACTORS
330
C
102
}
330
C
100
AcDbDictionary
281
     1
  0
DICTIONARY
  5
1A
102
{ACAD_REACTORS
330
C
102
}
330
C
100
AcDbDictionary
281
     1
  3
Layout1
350
1E
  3
Layout2
350
26
  3
Model
350
22
  0
DICTIONARY
  5
3B
102
{ACAD_REACTORS
330
C
102
}
330
C
100
AcDbDictionary
281
     1
  3
ByBlock
350
3D
  3
ByLayer
350
3C
  3
Global
350
3E
  0
DICTIONARY
  5
24E
102
{ACAD_REACTORS
330
C
102
}
330
C
100
AcDbDictionary
281
     1
  0
DICTIONARY
  5
17
102
{ACAD_REACTORS
330
C
102
}
330
C
100
AcDbDictionary
281
     1
  3
Standard
350
18
  0
DICTIONARY
  5
19
102
{ACAD_REACTORS
330
C
102
}
330
C
100
AcDbDictionary
281
     1
  0
ACDBDICTIONARYWDFLT
  5
E
102
{ACAD_REACTORS
330
C
102
}
330
C
100
AcDbDictionary
281
     1
  3
Normal
350
F
100
AcDbDictionaryWithDefault
340
F
  0
DICTIONARY
  5
209
102
{ACAD_REACTORS
330
C
102
}
330
C
100
AcDbDictionary
281
     1
  3
A0
350
20A
  3
A1
350
20B
  3
A2
350
20C
  3
A3
350
20D
  3
A4
350
20E
  3
A5
350
20F
  3
A6
350
210
  3
A7
350
211
  3
A8
350
212
  3
A9
350
213
  3
B0
350
214
  3
B1
350
215
  3
B2
350
216
  3
B3
350
217
  3
B4
350
218
  3
B5
350
219
  3
B6
350
21A
  3
B7
350
21B
  3
B8
350
21C
  3
B9
350
21D
  3
C0
350
21E
  3
C1
350
21F
  3
C2
350
220
  3
C3
350
221
  3
C4
350
222
  3
C5
350
223
  3
C6
350
224
  3
C7
350
225
  3
C8
350
226
  3
C9
350
227
  3
D0
350
228
  3
D1
350
229
  3
D2
350
22A
  0
DICTIONARY
  5
24D
102
{ACAD_REACTORS
330
C
102
}
330
C
100
AcDbDictionary
281
     1
  0
DICTIONARY
  5
2A
102
{ACAD_REACTORS
330
C
102
}
330
C
100
AcDbDictionary
281
     1
  3
2dWireframe
350
2F
  3
3D Hidden
350
31
  3
3dWireframe
350
30
  3
Basic
350
32
  3
Brighten
350
36
  3
ColorChange
350
3A
  3
Conceptual
350
34
  3
Dim
350
35
  3
Facepattern
350
39
  3
Flat
350
2B
  3
FlatWithEdges
350
2C
  3
Gouraud
350
2D
  3
GouraudWithEdges
350
2E
  3
Linepattern
350
38
  3
Realistic
350
33
  3
Thicken
350
37
  0
WIPEOUTVARIABLES
  5
1BC
102
{ACAD_REACTORS
330
C
102
}
330
C
100
AcDbWipeoutVariables
 70
     0
  0
DICTIONARY
  5
22B
102
{ACAD_REACTORS
330
C
102
}
330
C
100
AcDbDictionary
281
     1
  3
CANNOSCALE
350
22C
  0
LAYOUT
  5
1E
102
{ACAD_REACTORS
330
1A
102
}
330
1A
100
AcDbPlotSettings
  1

  2
none_device
  4

  6

 40
0.0
 41
0.0
 42
0.0
 43
0.0
 44
0.0
 45
0.0
 46
0.0
 47
0.0
 48
0.0
 49
0.0
140
0.0
141
0.0
142
1.0
143
1.0
 70
   688
 72
     0
 73
     0
 74
     5
  7

 75
    16
 76
     0
 77
     2
 78
   300
147
1.0
148
0.0
149
0.0
100
AcDbLayout
  1
Layout1
 70
     1
 71
     1
 10
0.0
 20
0.0
 11
420.0
 21
297.0
 12
0.0
 22
0.0
 32
0.0
 14
1.000000000000000E+20
 24
1.000000000000000E+20
 34
1.000000000000000E+20
 15
-1.000000000000000E+20
 25
-1.000000000000000E+20
 35
-1.000000000000000E+20
146
0.0
 13
0.0
 23
0.0
 33
0.0
 16
1.0
 26
0.0
 36
0.0
 17
0.0
 27
1.0
 37
0.0
 76
     0
330
1B
  0
LAYOUT
  5
26
102
{ACAD_REACTORS
330
1A
102
}
330
1A
100
AcDbPlotSettings
  1

  2
none_device
  4

  6

 40
0.0
 41
0.0
 42
0.0
 43
0.0
 44
0.0
 45
0.0
 46
0.0
 47
0.0
 48
0.0
 49
0.0
140
0.0
141
0.0
142
1.0
143
1.0
 70
   688
 72
     0
 73
     0
 74
     5
  7

 75
    16
 76
     0
 77
     2
 78
   300
147
1.0
148
0.0
149
0.0
100
AcDbLayout
  1
Layout2
 70
     1
 71
     2
 10
0.0
 20
0.0
 11
0.0
 21
0.0
 12
0.0
 22
0.0
 32
0.0
 14
0.0
 24
0.0
 34
0.0
 15
0.0
 25
0.0
 35
0.0
146
0.0
 13
0.0
 23
0.0
 33
0.0
 16
1.0
 26
0.0
 36
0.0
 17
0.0
 27
1.0
 37
0.0
 76
     0
330
23
  0
LAYOUT
  5
22
102
{ACAD_REACTORS
330
1A
102
}
330
1A
100
AcDbPlotSettings
  1

  2
none_device
  4

  6

 40
0.0
 41
0.0
 42
0.0
 43
0.0
 44
0.0
 45
0.0
 46
0.0
 47
0.0
 48
0.0
 49
0.0
140
0.0
141
0.0
142
1.0
143
1.0
 70
  1712
 72
     0
 73
     0
 74
     0
  7

 75
     0
 76
     0
 77
     2
 78
   300
147
1.0
148
0.0
149
0.0
100
AcDbLayout
  1
Model
 70
     1
 71
     0
 10
0.0
 20
0.0
 11
420.0
 21
297.0
 12
0.0
 22
0.0
 32
0.0
 14
1.000000000000000E+20
 24
1.000000000000000E+20
 34
1.000000000000000E+20
 15
-1.000000000000000E+20
 25
-1.000000000000000E+20
 35
-1.000000000000000E+20
146
0.0
 13
0.0
 23
0.0
 33
0.0
 16
1.0
 26
0.0
 36
0.0
 17
0.0
 27
1.0
 37
0.0
 76
     0
330
1F
331
29
  0
MATERIAL
  5
3D
102
{ACAD_REACTORS
330
3B
102
}
330
3B
100
AcDbMaterial
  1
ByBlock
 72
     1
 94
      127
  0
MATERIAL
  5
3C
102
{ACAD_REACTORS
330
3B
102
}
330
3B
100
AcDbMaterial
  1
ByLayer
 72
     1
 94
      127
  0
MATERIAL
  5
3E
102
{ACAD_REACTORS
330
3B
102
}
330
3B
100
AcDbMaterial
  1
Global
 72
     1
 94
      127
  0
MLINESTYLE
  5
18
102
{ACAD_REACTORS
330
17
102
}
330
17
100
AcDbMlineStyle
  2
Standard
 70
     0
  3

 62
   256
 51
90.0
 52
90.0
 71
     2
 49
0.5
 62
   256
  6
BYLAYER
 49
-0.5
 62
   256
  6
BYLAYER
  0
ACDBPLACEHOLDER
  5
F
102
{ACAD_REACTORS
330
E
102
}
330
E
  0
SCALE
  5
20A
102
{ACAD_REACTORS
330
209
102
}
330
209
100
AcDbScale
 70
     0
300
1:1
140
1.0
141
1.0
290
     1
  0
SCALE
  5
20B
102
{ACAD_REACTORS
330
209
102
}
330
209
100
AcDbScale
 70
     0
300
1:2
140
1.0
141
2.0
290
     0
  0
SCALE
  5
20C
102
{ACAD_REACTORS
330
209
102
}
330
209
100
AcDbScale
 70
     0
300
1:4
140
1.0
141
4.0
290
     0
  0
SCALE
  5
20D
102
{ACAD_REACTORS
330
209
102
}
330
209
100
AcDbScale
 70
     0
300
1:5
140
1.0
141
5.0
290
     0
  0
SCALE
  5
20E
102
{ACAD_REACTORS
330
209
102
}
330
209
100
AcDbScale
 70
     0
300
1:8
140
1.0
141
8.0
290
     0
  0
SCALE
  5
20F
102
{ACAD_REACTORS
330
209
102
}
330
209
100
AcDbScale
 70
     0
300
1:10
140
1.0
141
10.0
290
     0
  0
SCALE
  5
210
102
{ACAD_REACTORS
330
209
102
}
330
209
100
AcDbScale
 70
     0
300
1:16
140
1.0
141
16.0
290
     0
  0
SCALE
  5
211
102
{ACAD_REACTORS
330
209
102
}
330
209
100
AcDbScale
 70
     0
300
1:20
140
1.0
141
20.0
290
     0
  0
SCALE
  5
212
102
{ACAD_REACTORS
330
209
102
}
330
209
100
AcDbScale
 70
     0
300
1:30
140
1.0
141
30.0
290
     0
  0
SCALE
  5
213
102
{ACAD_REACTORS
330
209
102
}
330
209
100
AcDbScale
 70
     0
300
1:40
140
1.0
141
40.0
290
     0
  0
SCALE
  5
214
102
{ACAD_REACTORS
330
209
102
}
330
209
100
AcDbScale
 70
     0
300
1:50
140
1.0
141
50.0
290
     0
  0
SCALE
  5
215
102
{ACAD_REACTORS
330
209
102
}
330
209
100
AcDbScale
 70
     0
300
1:100
140
1.0
141
100.0
290
     0
  0
SCALE
  5
216
102
{ACAD_REACTORS
330
209
102
}
330
209
100
AcDbScale
 70
     0
300
2:1
140
2.0
141
1.0
290
     0
  0
SCALE
  5
217
102
{ACAD_REACTORS
330
209
102
}
330
209
100
AcDbScale
 70
     0
300
4:1
140
4.0
141
1.0
290
     0
  0
SCALE
  5
218
102
{ACAD_REACTORS
330
209
102
}
330
209
100
AcDbScale
 70
     0
300
8:1
140
8.0
141
1.0
290
     0
  0
SCALE
  5
219
102
{ACAD_REACTORS
330
209
102
}
330
209
100
AcDbScale
 70
     0
300
10:1
140
10.0
141
1.0
290
     0
  0
SCALE
  5
21A
102
{ACAD_REACTORS
330
209
102
}
330
209
100
AcDbScale
 70
     0
300
100:1
140
100.0
141
1.0
290
     0
  0
SCALE
  5
21B
102
{ACAD_REACTORS
330
209
102
}
330
209
100
AcDbScale
 70
     0
300
1/128" = 1'-0"
140
0.0078125
141
12.0
290
     0
  0
SCALE
  5
21C
102
{ACAD_REACTORS
330
209
102
}
330
209
100
AcDbScale
 70
     0
300
1/64" = 1'-0"
140
0.015625
141
12.0
290
     0
  0
SCALE
  5
21D
102
{ACAD_REACTORS
330
209
102
}
330
209
100
AcDbScale
 70
     0
300
1/32" = 1'-0"
140
0.03125
141
12.0
290
     0
  0
SCALE
  5
21E
102
{ACAD_REACTORS
330
209
102
}
330
209
100
AcDbScale
 70
     0
300
1/16" = 1'-0"
140
0.0625
141
12.0
290
     0
  0
SCALE
  5
21F
102
{ACAD_REACTORS
330
209
102
}
330
209
100
AcDbScale
 70
     0
300
3/32" = 1'-0"
140
0.09375
141
12.0
290
     0
  0
SCALE
  5
220
102
{ACAD_REACTORS
330
209
102
}
330
209
100
AcDbScale
 70
     0
300
1/8" = 1'-0"
140
0.125
141
12.0
290
     0
  0
SCALE
  5
221
102
{ACAD_REACTORS
330
209
102
}
330
209
100
AcDbScale
 70
     0
300
3/16" = 1'-0"
140
0.1875
141
12.0
290
     0
  0
SCALE
  5
222
102
{ACAD_REACTORS
330
209
102
}
330
209
100
AcDbScale
 70
     0
300
1/4" = 1'-0"
140
0.25
141
12.0
290
     0
  0
SCALE
  5
223
102
{ACAD_REACTORS
330
209
102
}
330
209
100
AcDbScale
 70
     0
300
3/8" = 1'-0"
140
0.375
141
12.0
290
     0
  0
SCALE
  5
224
102
{ACAD_REACTORS
330
209
102
}
330
209
100
AcDbScale
 70
     0
300
1/2" = 1'-0"
140
0.5
141
12.0
290
     0
  0
SCALE
  5
225
102
{ACAD_REACTORS
330
209
102
}
330
209
100
AcDbScale
 70
     0
300
3/4" = 1'-0"
140
0.75
141
12.0
290
     0
  0
SCALE
  5
226
102
{ACAD_REACTORS
330
209
102
}
330
209
100
AcDbScale
 70
     0
300
1" = 1'-0"
140
1.0
141
12.0
290
     0
  0
SCALE
  5
227
102
{ACAD_REACTORS
330
209
102
}
330
209
100
AcDbScale
 70
     0
300
1-1/2" = 1'-0"
140
1.5
141
12.0
290
     0
  0
SCALE
  5
228
102
{ACAD_REACTORS
330
209
102
}
330
209
100
AcDbScale
 70
     0
300
3" = 1'-0"
140
3.0
141
12.0
290
     0
  0
SCALE
  5
229
102
{ACAD_REACTORS
330
209
102
}
330
209
100
AcDbScale
 70
     0
300
6" = 1'-0"
140
6.0
141
12.0
290
     0
  0
SCALE
  5
22A
102
{ACAD_REACTORS
330
209
102
}
330
209
100
AcDbScale
 70
     0
300
1'-0" = 1'-0"
140
12.0
141
12.0
290
     0
  0
VISUALSTYLE
  5
2F
102
{ACAD_REACTORS
330
2A
102
}
102
{ACAD_XDICTIONARY
360
235
102
}
330
2A
100
AcDbVisualStyle
  2
2dWireframe
 70
     4
 71
     0
 72
     2
 73
     0
 90
        0
 40
-0.6
 41
-30.0
 62
     5
 63
     7
421
 16777215
 74
     1
 91
        4
 64
     7
 65
   257
 75
     1
175
     1
 42
1.0
 92
        0
 66
   257
 43
1.0
 76
     1
 77
     6
 78
     2
 67
     7
 79
     5
170
     0
171
     0
290
     0
174
     0
 93
        1
 44
0.0
173
     0
291
     0
 45
0.0
  0
VISUALSTYLE
  5
31
102
{ACAD_REACTORS
330
2A
102
}
102
{ACAD_XDICTIONARY
360
239
102
}
330
2A
100
AcDbVisualStyle
  2
3D Hidden
 70
     6
 71
     1
 72
     2
 73
     2
 90
        0
 40
-0.6
 41
-30.0
 62
     5
 63
     7
421
 16777215
 74
     2
 91
        2
 64
     7
 65
   257
 75
     2
175
     1
 42
40.0
 92
        0
 66
   257
 43
1.0
 76
     1
 77
     6
 78
     2
 67
     7
 79
     3
170
     0
171
     0
290
     0
174
     0
 93
        1
 44
0.0
173
     0
291
     0
 45
0.0
  0
VISUALSTYLE
  5
30
102
{ACAD_REACTORS
330
2A
102
}
102
{ACAD_XDICTIONARY
360
237
102
}
330
2A
100
AcDbVisualStyle
  2
3dWireframe
 70
     5
 71
     0
 72
     2
 73
     0
 90
        0
 40
-0.6
 41
-30.0
 62
     5
 63
     7
421
 16777215
 74
     1
 91
        4
 64
     7
 65
   257
 75
     1
175
     1
 42
1.0
 92
        0
 66
   257
 43
1.0
 76
     1
 77
     6
 78
     2
 67
     7
 79
     5
170
     0
171
     0
290
     0
174
     0
 93
        1
 44
0.0
173
     0
291
     0
 45
0.0
  0
VISUALSTYLE
  5
32
102
{ACAD_REACTORS
330
2A
102
}
102
{ACAD_XDICTIONARY
360
23B
102
}
330
2A
100
AcDbVisualStyle
  2
Basic
 70
     7
 71
     1
 72
     0
 73
     1
 90
        0
 40
-0.6
 41
-30.0
 62
     5
 63
     7
421
 16777215
 74
     0
 91
        4
 64
     7
 65
   257
 75
     1
175
     1
 42
1.0
 92
        8
 66
     7
 43
1.0
 76
     1
 77
     6
 78
     2
 67
     7
 79
     5
170
     0
171
     0
290
     0
174
     0
 93
        1
 44
0.0
173
     0
291
     1
 45
0.0
  0
VISUALSTYLE
  5
36
102
{ACAD_REACTORS
330
2A
102
}
102
{ACAD_XDICTIONARY
360
243
102
}
330
2A
100
AcDbVisualStyle
  2
Brighten
 70
    12
 71
     2
 72
     2
 73
     0
 90
        0
 40
-0.6
 41
-30.0
 62
     5
 63
     7
421
 16777215
 74
     1
 91
        4
 64
     7
 65
   257
 75
     1
175
     1
 42
1.0
 92
        8
 66
     7
 43
1.0
 76
     1
 77
     6
 78
     2
 67
     7
 79
     5
170
     0
171
     0
290
     0
174
     0
 93
        1
 44
50.0
173
     0
291
     1
 45
0.0
  0
VISUALSTYLE
  5
3A
102
{ACAD_REACTORS
330
2A
102
}
102
{ACAD_XDICTIONARY
360
24B
102
}
330
2A
100
AcDbVisualStyle
  2
ColorChange
 70
    16
 71
     2
 72
     2
 73
     3
 90
        0
 40
-0.6
 41
-30.0
 62
     5
 63
     8
421
  8421504
 74
     1
 91
        4
 64
     7
 65
   257
 75
     1
175
     1
 42
1.0
 92
        8
 66
     8
424
  8421504
 43
1.0
 76
     1
 77
     6
 78
     2
 67
     7
 79
     5
170
     0
171
     0
290
     0
174
     0
 93
        1
 44
0.0
173
     0
291
     1
 45
0.0
  0
VISUALSTYLE
  5
34
102
{ACAD_REACTORS
330
2A
102
}
102
{ACAD_XDICTIONARY
360
23F
102
}
330
2A
100
AcDbVisualStyle
  2
Conceptual
 70
     9
 71
     3
 72
     2
 73
     0
 90
        0
 40
-0.6
 41
-30.0
 62
     5
 63
     7
421
 16777215
 74
     2
 91
        2
 64
     7
 65
   257
 75
     1
175
     1
 42
40.0
 92
        8
 66
     7
 43
1.0
 76
     1
 77
     6
 78
     2
 67
     7
 79
     3
170
     0
171
     0
290
     0
174
     0
 93
        1
 44
0.0
173
     0
291
     0
 45
0.0
  0
VISUALSTYLE
  5
35
102
{ACAD_REACTORS
330
2A
102
}
102
{ACAD_XDICTIONARY
360
241
102
}
330
2A
100
AcDbVisualStyle
  2
Dim
 70
    11
 71
     2
 72
     2
 73
     0
 90
        0
 40
-0.6
 41
-30.0
 62
     5
 63
     7
421
 16777215
 74
     1
 91
        4
 64
     7
 65
   257
 75
     1
175
     1
 42
1.0
 92
        8
 66
     7
 43
1.0
 76
     1
 77
     6
 78
     2
 67
     7
 79
     5
170
     0
171
     0
290
     0
174
     0
 93
        1
 44
-50.0
173
     0
291
     1
 45
0.0
  0
VISUALSTYLE
  5
39
102
{ACAD_REACTORS
330
2A
102
}
102
{ACAD_XDICTIONARY
360
249
102
}
330
2A
100
AcDbVisualStyle
  2
Facepattern
 70
    15
 71
     2
 72
     2
 73
     0
 90
        0
 40
-0.6
 41
-30.0
 62
     5
 63
     7
421
 16777215
 74
     1
 91
        4
 64
     7
 65
   257
 75
     1
175
     1
 42
1.0
 92
        8
 66
     7
 43
1.0
 76
     1
 77
     6
 78
     2
 67
     7
 79
     5
170
     0
171
     0
290
     0
174
     0
 93
        1
 44
0.0
173
     0
291
     1
 45
0.0
  0
VISUALSTYLE
  5
2B
102
{ACAD_REACTORS
330
2A
102
}
102
{ACAD_XDICTIONARY
360
22D
102
}
330
2A
100
AcDbVisualStyle
  2
Flat
 70
     0
 71
     2
 72
     1
 73
     1
 90
        2
 40
-0.6
 41
30.0
 62
     5
 63
     7
421
 16777215
 74
     0
 91
        4
 64
     7
 65
   257
 75
     1
175
     1
 42
1.0
 92
        8
 66
     7
 43
1.0
 76
     1
 77
     6
 78
     2
 67
     7
 79
     5
170
     0
171
     0
290
     0
174
     0
 93
       13
 44
0.0
173
     0
291
     1
 45
0.0
  0
VISUALSTYLE
  5
2C
102
{ACAD_REACTORS
330
2A
102
}
102
{ACAD_XDICTIONARY
360
22F
102
}
330
2A
100
AcDbVisualStyle
  2
FlatWithEdges
 70
     1
 71
     2
 72
     1
 73
     1
 90
        2
 40
-0.6
 41
30.0
 62
     5
 63
     7
421
 16777215
 74
     1
 91
        4
 64
     7
 65
   257
 75
     1
175
     1
 42
1.0
 92
        0
 66
   257
 43
1.0
 76
     1
 77
     6
 78
     2
 67
     7
 79
     5
170
     0
171
     0
290
     0
174
     0
 93
       13
 44
0.0
173
     0
291
     1
 45
0.0
  0
VISUALSTYLE
  5
2D
102
{ACAD_REACTORS
330
2A
102
}
102
{ACAD_XDICTIONARY
360
231
102
}
330
2A
100
AcDbVisualStyle
  2
Gouraud
 70
     2
 71
     2
 72
     2
 73
     1
 90
        2
 40
-0.6
 41
30.0
 62
     5
 63
     7
421
 16777215
 74
     0
 91
        4
 64
     7
 65
   257
 75
     1
175
     1
 42
1.0
 92
        0
 66
     7
 43
1.0
 76
     1
 77
     6
 78
     2
 67
     7
 79
     5
170
     0
171
     0
290
     0
174
     0
 93
       13
 44
0.0
173
     0
291
     1
 45
0.0
  0
VISUALSTYLE
  5
2E
102
{ACAD_REACTORS
330
2A
102
}
102
{ACAD_XDICTIONARY
360
233
102
}
330
2A
100
AcDbVisualStyle
  2
GouraudWithEdges
 70
     3
 71
     2
 72
     2
 73
     1
 90
        2
 40
-0.6
 41
30.0
 62
     5
 63
     7
421
 16777215
 74
     1
 91
        4
 64
     7
 65
   257
 75
     1
175
     1
 42
1.0
 92
        0
 66
   257
 43
1.0
 76
     1
 77
     6
 78
     2
 67
     7
 79
     5
170
     0
171
     0
290
     0
174
     0
 93
       13
 44
0.0
173
     0
291
     1
 45
0.0
  0
VISUALSTYLE
  5
38
102
{ACAD_REACTORS
330
2A
102
}
102
{ACAD_XDICTIONARY
360
247
102
}
330
2A
100
AcDbVisualStyle
  2
Linepattern
 70
    14
 71
     2
 72
     2
 73
     0
 90
        0
 40
-0.6
 41
-30.0
 62
     5
 63
     7
421
 16777215
 74
     1
 91
        4
 64
     7
 65
   257
 75
     7
175
     7
 42
1.0
 92
        8
 66
     7
 43
1.0
 76
     1
 77
     6
 78
     2
 67
     7
 79
     5
170
     0
171
     0
290
     0
174
     0
 93
        1
 44
0.0
173
     0
291
     1
 45
0.0
  0
VISUALSTYLE
  5
33
102
{ACAD_REACTORS
330
2A
102
}
102
{ACAD_XDICTIONARY
360
23D
102
}
330
2A
100
AcDbVisualStyle
  2
Realistic
 70
     8
 71
     2
 72
     2
 73
     0
 90
        0
 40
-0.6
 41
-30.0
 62
     5
 63
     7
421
 16777215
 74
     1
 91
        0
 64
     7
 65
   257
 75
     1
175
     1
 42
1.0
 92
        8
 66
     8
424
  7895160
 43
1.0
 76
     1
 77
     6
 78
     2
 67
     7
 79
     5
170
     0
171
     0
290
     0
174
     0
 93
       13
 44
0.0
173
     0
291
     0
 45
0.0
  0
VISUALSTYLE
  5
37
102
{ACAD_REACTORS
330
2A
102
}
102
{ACAD_XDICTIONARY
360
245
102
}
330
2A
100
AcDbVisualStyle
  2
Thicken
 70
    13
 71
     2
 72
     2
 73
     0
 90
        0
 40
-0.6
 41
-30.0
 62
     5
 63
     7
421
 16777215
 74
     1
 91
        4
 64
     7
 65
   257
 75
     1
175
     1
 42
1.0
 92
       12
 66
     7
 43
1.0
 76
     1
 77
     6
 78
     2
 67
     7
 79
     5
170
     0
171
     0
290
     0
174
     0
 93
        1
 44
0.0
173
     0
291
     1
 45
0.0
  0
DICTIONARYVAR
  5
22C
102
{ACAD_REACTORS
330
22B
102
}
330
22B
100
DictionaryVariables
280
     0
  1
1:1
  0
DICTIONARY
  5
235
330
2F
100
AcDbDictionary
280
     1
281
     1
  3
ACAD_XREC_ROUNDTRIP
360
236
  0
DICTIONARY
  5
239
330
31
100
AcDbDictionary
280
     1
281
     1
  3
ACAD_XREC_ROUNDTRIP
360
23A
  0
DICTIONARY
  5
237
330
30
100
AcDbDictionary
280
     1
281
     1
  3
ACAD_XREC_ROUNDTRIP
360
238
  0
DICTIONARY
  5
23B
330
32
100
AcDbDictionary
280
     1
281
     1
  3
ACAD_XREC_ROUNDTRIP
360
23C
  0
DICTIONARY
  5
243
330
36
100
AcDbDictionary
280
     1
281
     1
  3
ACAD_XREC_ROUNDTRIP
360
244
  0
DICTIONARY
  5
24B
330
3A
100
AcDbDictionary
280
     1
281
     1
  3
ACAD_XREC_ROUNDTRIP
360
24C
  0
DICTIONARY
  5
23F
330
34
100
AcDbDictionary
280
     1
281
     1
  3
ACAD_XREC_ROUNDTRIP
360
240
  0
DICTIONARY
  5
241
330
35
100
AcDbDictionary
280
     1
281
     1
  3
ACAD_XREC_ROUNDTRIP
360
242
  0
DICTIONARY
  5
249
330
39
100
AcDbDictionary
280
     1
281
     1
  3
ACAD_XREC_ROUNDTRIP
360
24A
  0
DICTIONARY
  5
22D
330
2B
100
AcDbDictionary
280
     1
281
     1
  3
ACAD_XREC_ROUNDTRIP
360
22E
  0
DICTIONARY
  5
22F
330
2C
100
AcDbDictionary
280
     1
281
     1
  3
ACAD_XREC_ROUNDTRIP
360
230
  0
DICTIONARY
  5
231
330
2D
100
AcDbDictionary
280
     1
281
     1
  3
ACAD_XREC_ROUNDTRIP
360
232
  0
DICTIONARY
  5
233
330
2E
100
AcDbDictionary
280
     1
281
     1
  3
ACAD_XREC_ROUNDTRIP
360
234
  0
DICTIONARY
  5
247
330
38
100
AcDbDictionary
280
     1
281
     1
  3
ACAD_XREC_ROUNDTRIP
360
248
  0
DICTIONARY
  5
23D
330
33
100
AcDbDictionary
280
     1
281
     1
  3
ACAD_XREC_ROUNDTRIP
360
23E
  0
DICTIONARY
  5
245
330
37
100
AcDbDictionary
280
     1
281
     1
  3
ACAD_XREC_ROUNDTRIP
360
246
  0
XRECORD
  5
236
102
{ACAD_REACTORS
330
235
102
}
330
235
100
AcDbXrecord
280
     1
102
RTVSPropertyOp0
 70
     1
102
RTVSPropertyOp1
 70
     1
102
RTVSPropertyOp2
 70
     1
102
RTVSPropertyOp3
 70
     1
102
RTVSPropertyOp4
 70
     1
102
RTVSPropertyOp5
 70
     1
102
RTVSPropertyOp6
 70
     1
102
RTVSPropertyOp7
 70
     1
102
RTVSPropertyOp8
 70
     1
102
RTVSPropertyOp9
 70
     1
102
RTVSPropertyOp10
 70
     1
102
RTVSPropertyOp11
 70
     1
102
RTVSPropertyOp12
 70
     1
102
RTVSPropertyOp13
 70
     1
102
RTVSPropertyOp14
 70
     1
102
RTVSPropertyOp15
 70
     1
102
RTVSPropertyOp16
 70
     1
102
RTVSPropertyOp17
 70
     1
102
RTVSPropertyOp18
 70
     1
102
RTVSPropertyOp19
 70
     1
102
RTVSPropertyOp20
 70
     1
102
RTVSPropertyOp21
 70
     1
102
RTVSPropertyOp22
 70
     1
102
RTVSPropertyOp23
 70
     1
102
RTVSPropertyOp24
 70
     1
102
RTVSPropertyOp25
 70
     1
102
RTVSPropertyOp26
 70
     1
102
RTVSPropertyOp27
 70
     1
102
RTVSPropertyOp28
 70
     1
102
RTVSPropertyOp29
 70
     1
102
RTVSPropertyOp30
 70
     1
102
RTVSPropertyOp31
 70
     1
102
RTVSPropertyOp32
 70
     1
  0
XRECORD
  5
23A
102
{ACAD_REACTORS
330
239
102
}
330
239
100
AcDbXrecord
280
     1
102
RTVSPropertyOp0
 70
     1
102
RTVSPropertyOp1
 70
     1
102
RTVSPropertyOp2
 70
     1
102
RTVSPropertyOp3
 70
     1
102
RTVSPropertyOp4
 70
     1
102
RTVSPropertyOp5
 70
     1
102
RTVSPropertyOp6
 70
     1
102
RTVSPropertyOp7
 70
     1
102
RTVSPropertyOp8
 70
     1
102
RTVSPropertyOp9
 70
     1
102
RTVSPropertyOp10
 70
     1
102
RTVSPropertyOp11
 70
     1
102
RTVSPropertyOp12
 70
     1
102
RTVSPropertyOp13
 70
     1
102
RTVSPropertyOp14
 70
     1
102
RTVSPropertyOp15
 70
     1
102
RTVSPropertyOp16
 70
     1
102
RTVSPropertyOp17
 70
     1
102
RTVSPropertyOp18
 70
     1
102
RTVSPropertyOp19
 70
     1
102
RTVSPropertyOp20
 70
     1
102
RTVSPropertyOp21
 70
     1
102
RTVSPropertyOp22
 70
     1
102
RTVSPropertyOp23
 70
     1
102
RTVSPropertyOp24
 70
     1
102
RTVSPropertyOp25
 70
     1
102
RTVSPropertyOp26
 70
     1
102
RTVSPropertyOp27
 70
     1
102
RTVSPropertyOp28
 70
     1
102
RTVSPropertyOp29
 70
     1
102
RTVSPropertyOp30
 70
     1
102
RTVSPropertyOp31
 70
     1
102
RTVSPropertyOp32
 70
     1
  0
XRECORD
  5
238
102
{ACAD_REACTORS
330
237
102
}
330
237
100
AcDbXrecord
280
     1
102
RTVSPropertyOp0
 70
     1
102
RTVSPropertyOp1
 70
     1
102
RTVSPropertyOp2
 70
     1
102
RTVSPropertyOp3
 70
     1
102
RTVSPropertyOp4
 70
     1
102
RTVSPropertyOp5
 70
     1
102
RTVSPropertyOp6
 70
     1
102
RTVSPropertyOp7
 70
     1
102
RTVSPropertyOp8
 70
     1
102
RTVSPropertyOp9
 70
     1
102
RTVSPropertyOp10
 70
     1
102
RTVSPropertyOp11
 70
     1
102
RTVSPropertyOp12
 70
     1
102
RTVSPropertyOp13
 70
     1
102
RTVSPropertyOp14
 70
     1
102
RTVSPropertyOp15
 70
     1
102
RTVSPropertyOp16
 70
     1
102
RTVSPropertyOp17
 70
     1
102
RTVSPropertyOp18
 70
     1
102
RTVSPropertyOp19
 70
     1
102
RTVSPropertyOp20
 70
     1
102
RTVSPropertyOp21
 70
     1
102
RTVSPropertyOp22
 70
     1
102
RTVSPropertyOp23
 70
     1
102
RTVSPropertyOp24
 70
     1
102
RTVSPropertyOp25
 70
     1
102
RTVSPropertyOp26
 70
     1
102
RTVSPropertyOp27
 70
     1
102
RTVSPropertyOp28
 70
     1
102
RTVSPropertyOp29
 70
     1
102
RTVSPropertyOp30
 70
     1
102
RTVSPropertyOp31
 70
     1
102
RTVSPropertyOp32
 70
     1
  0
XRECORD
  5
23C
102
{ACAD_REACTORS
330
23B
102
}
330
23B
100
AcDbXrecord
280
     1
102
RTVSPropertyOp0
 70
     1
102
RTVSPropertyOp1
 70
     1
102
RTVSPropertyOp2
 70
     1
102
RTVSPropertyOp3
 70
     1
102
RTVSPropertyOp4
 70
     1
102
RTVSPropertyOp5
 70
     1
102
RTVSPropertyOp6
 70
     1
102
RTVSPropertyOp7
 70
     1
102
RTVSPropertyOp8
 70
     1
102
RTVSPropertyOp9
 70
     1
102
RTVSPropertyOp10
 70
     1
102
RTVSPropertyOp11
 70
     1
102
RTVSPropertyOp12
 70
     1
102
RTVSPropertyOp13
 70
     1
102
RTVSPropertyOp14
 70
     1
102
RTVSPropertyOp15
 70
     1
102
RTVSPropertyOp16
 70
     1
102
RTVSPropertyOp17
 70
     1
102
RTVSPropertyOp18
 70
     1
102
RTVSPropertyOp19
 70
     1
102
RTVSPropertyOp20
 70
     1
102
RTVSPropertyOp21
 70
     1
102
RTVSPropertyOp22
 70
     1
102
RTVSPropertyOp23
 70
     1
102
RTVSPropertyOp24
 70
     1
102
RTVSPropertyOp25
 70
     1
102
RTVSPropertyOp26
 70
     1
102
RTVSPropertyOp27
 70
     1
102
RTVSPropertyOp28
 70
     1
102
RTVSPropertyOp29
 70
     1
102
RTVSPropertyOp30
 70
     1
102
RTVSPropertyOp31
 70
     1
102
RTVSPropertyOp32
 70
     1
  0
XRECORD
  5
244
102
{ACAD_REACTORS
330
243
102
}
330
243
100
AcDbXrecord
280
     1
102
RTVSPropertyOp0
 70
     1
102
RTVSPropertyOp1
 70
     1
102
RTVSPropertyOp2
 70
     1
102
RTVSPropertyOp3
 70
     1
102
RTVSPropertyOp4
 70
     1
102
RTVSPropertyOp5
 70
     1
102
RTVSPropertyOp6
 70
     1
102
RTVSPropertyOp7
 70
     1
102
RTVSPropertyOp8
 70
     1
102
RTVSPropertyOp9
 70
     1
102
RTVSPropertyOp10
 70
     1
102
RTVSPropertyOp11
 70
     1
102
RTVSPropertyOp12
 70
     1
102
RTVSPropertyOp13
 70
     1
102
RTVSPropertyOp14
 70
     1
102
RTVSPropertyOp15
 70
     1
102
RTVSPropertyOp16
 70
     1
102
RTVSPropertyOp17
 70
     1
102
RTVSPropertyOp18
 70
     1
102
RTVSPropertyOp19
 70
     1
102
RTVSPropertyOp20
 70
     1
102
RTVSPropertyOp21
 70
     1
102
RTVSPropertyOp22
 70
     1
102
RTVSPropertyOp23
 70
     1
102
RTVSPropertyOp24
 70
     1
102
RTVSPropertyOp25
 70
     1
102
RTVSPropertyOp26
 70
     1
102
RTVSPropertyOp27
 70
     1
102
RTVSPropertyOp28
 70
     1
102
RTVSPropertyOp29
 70
     1
102
RTVSPropertyOp30
 70
     1
102
RTVSPropertyOp31
 70
     1
102
RTVSPropertyOp32
 70
     1
  0
XRECORD
  5
24C
102
{ACAD_REACTORS
330
24B
102
}
330
24B
100
AcDbXrecord
280
     1
102
RTVSPropertyOp0
 70
     1
102
RTVSPropertyOp1
 70
     1
102
RTVSPropertyOp2
 70
     1
102
RTVSPropertyOp3
 70
     1
102
RTVSPropertyOp4
 70
     1
102
RTVSPropertyOp5
 70
     1
102
RTVSPropertyOp6
 70
     1
102
RTVSPropertyOp7
 70
     1
102
RTVSPropertyOp8
 70
     1
102
RTVSPropertyOp9
 70
     1
102
RTVSPropertyOp10
 70
     1
102
RTVSPropertyOp11
 70
     1
102
RTVSPropertyOp12
 70
     1
102
RTVSPropertyOp13
 70
     1
102
RTVSPropertyOp14
 70
     1
102
RTVSPropertyOp15
 70
     1
102
RTVSPropertyOp16
 70
     1
102
RTVSPropertyOp17
 70
     1
102
RTVSPropertyOp18
 70
     1
102
RTVSPropertyOp19
 70
     1
102
RTVSPropertyOp20
 70
     1
102
RTVSPropertyOp21
 70
     1
102
RTVSPropertyOp22
 70
     1
102
RTVSPropertyOp23
 70
     1
102
RTVSPropertyOp24
 70
     1
102
RTVSPropertyOp25
 70
     1
102
RTVSPropertyOp26
 70
     1
102
RTVSPropertyOp27
 70
     1
102
RTVSPropertyOp28
 70
     1
102
RTVSPropertyOp29
 70
     1
102
RTVSPropertyOp30
 70
     1
102
RTVSPropertyOp31
 70
     1
102
RTVSPropertyOp32
 70
     1
  0
XRECORD
  5
240
102
{ACAD_REACTORS
330
23F
102
}
330
23F
100
AcDbXrecord
280
     1
102
RTVSPropertyOp0
 70
     1
102
RTVSPropertyOp1
 70
     1
102
RTVSPropertyOp2
 70
     1
102
RTVSPropertyOp3
 70
     1
102
RTVSPropertyOp4
 70
     1
102
RTVSPropertyOp5
 70
     1
102
RTVSPropertyOp6
 70
     1
102
RTVSPropertyOp7
 70
     1
102
RTVSPropertyOp8
 70
     1
102
RTVSPropertyOp9
 70
     1
102
RTVSPropertyOp10
 70
     1
102
RTVSPropertyOp11
 70
     1
102
RTVSPropertyOp12
 70
     1
102
RTVSPropertyOp13
 70
     1
102
RTVSPropertyOp14
 70
     1
102
RTVSPropertyOp15
 70
     1
102
RTVSPropertyOp16
 70
     1
102
RTVSPropertyOp17
 70
     1
102
RTVSPropertyOp18
 70
     1
102
RTVSPropertyOp19
 70
     1
102
RTVSPropertyOp20
 70
     1
102
RTVSPropertyOp21
 70
     1
102
RTVSPropertyOp22
 70
     1
102
RTVSPropertyOp23
 70
     1
102
RTVSPropertyOp24
 70
     1
102
RTVSPropertyOp25
 70
     1
102
RTVSPropertyOp26
 70
     1
102
RTVSPropertyOp27
 70
     1
102
RTVSPropertyOp28
 70
     1
102
RTVSPropertyOp29
 70
     1
102
RTVSPropertyOp30
 70
     1
102
RTVSPropertyOp31
 70
     1
102
RTVSPropertyOp32
 70
     1
  0
XRECORD
  5
242
102
{ACAD_REACTORS
330
241
102
}
330
241
100
AcDbXrecord
280
     1
102
RTVSPropertyOp0
 70
     1
102
RTVSPropertyOp1
 70
     1
102
RTVSPropertyOp2
 70
     1
102
RTVSPropertyOp3
 70
     1
102
RTVSPropertyOp4
 70
     1
102
RTVSPropertyOp5
 70
     1
102
RTVSPropertyOp6
 70
     1
102
RTVSPropertyOp7
 70
     1
102
RTVSPropertyOp8
 70
     1
102
RTVSPropertyOp9
 70
     1
102
RTVSPropertyOp10
 70
     1
102
RTVSPropertyOp11
 70
     1
102
RTVSPropertyOp12
 70
     1
102
RTVSPropertyOp13
 70
     1
102
RTVSPropertyOp14
 70
     1
102
RTVSPropertyOp15
 70
     1
102
RTVSPropertyOp16
 70
     1
102
RTVSPropertyOp17
 70
     1
102
RTVSPropertyOp18
 70
     1
102
RTVSPropertyOp19
 70
     1
102
RTVSPropertyOp20
 70
     1
102
RTVSPropertyOp21
 70
     1
102
RTVSPropertyOp22
 70
     1
102
RTVSPropertyOp23
 70
     1
102
RTVSPropertyOp24
 70
     1
102
RTVSPropertyOp25
 70
     1
102
RTVSPropertyOp26
 70
     1
102
RTVSPropertyOp27
 70
     1
102
RTVSPropertyOp28
 70
     1
102
RTVSPropertyOp29
 70
     1
102
RTVSPropertyOp30
 70
     1
102
RTVSPropertyOp31
 70
     1
102
RTVSPropertyOp32
 70
     1
  0
XRECORD
  5
24A
102
{ACAD_REACTORS
330
249
102
}
330
249
100
AcDbXrecord
280
     1
102
RTVSPropertyOp0
 70
     1
102
RTVSPropertyOp1
 70
     1
102
RTVSPropertyOp2
 70
     1
102
RTVSPropertyOp3
 70
     1
102
RTVSPropertyOp4
 70
     1
102
RTVSPropertyOp5
 70
     1
102
RTVSPropertyOp6
 70
     1
102
RTVSPropertyOp7
 70
     1
102
RTVSPropertyOp8
 70
     1
102
RTVSPropertyOp9
 70
     1
102
RTVSPropertyOp10
 70
     1
102
RTVSPropertyOp11
 70
     1
102
RTVSPropertyOp12
 70
     1
102
RTVSPropertyOp13
 70
     1
102
RTVSPropertyOp14
 70
     1
102
RTVSPropertyOp15
 70
     1
102
RTVSPropertyOp16
 70
     1
102
RTVSPropertyOp17
 70
     1
102
RTVSPropertyOp18
 70
     1
102
RTVSPropertyOp19
 70
     1
102
RTVSPropertyOp20
 70
     1
102
RTVSPropertyOp21
 70
     1
102
RTVSPropertyOp22
 70
     1
102
RTVSPropertyOp23
 70
     1
102
RTVSPropertyOp24
 70
     1
102
RTVSPropertyOp25
 70
     1
102
RTVSPropertyOp26
 70
     1
102
RTVSPropertyOp27
 70
     1
102
RTVSPropertyOp28
 70
     1
102
RTVSPropertyOp29
 70
     1
102
RTVSPropertyOp30
 70
     1
102
RTVSPropertyOp31
 70
     1
102
RTVSPropertyOp32
 70
     1
  0
XRECORD
  5
22E
102
{ACAD_REACTORS
330
22D
102
}
330
22D
100
AcDbXrecord
280
     1
102
RTVSPropertyOp0
 70
     1
102
RTVSPropertyOp1
 70
     1
102
RTVSPropertyOp2
 70
     1
102
RTVSPropertyOp3
 70
     1
102
RTVSPropertyOp4
 70
     1
102
RTVSPropertyOp5
 70
     1
102
RTVSPropertyOp6
 70
     1
102
RTVSPropertyOp7
 70
     1
102
RTVSPropertyOp8
 70
     1
102
RTVSPropertyOp9
 70
     1
102
RTVSPropertyOp10
 70
     1
102
RTVSPropertyOp11
 70
     1
102
RTVSPropertyOp12
 70
     1
102
RTVSPropertyOp13
 70
     1
102
RTVSPropertyOp14
 70
     1
102
RTVSPropertyOp15
 70
     1
102
RTVSPropertyOp16
 70
     1
102
RTVSPropertyOp17
 70
     1
102
RTVSPropertyOp18
 70
     1
102
RTVSPropertyOp19
 70
     1
102
RTVSPropertyOp20
 70
     1
102
RTVSPropertyOp21
 70
     1
102
RTVSPropertyOp22
 70
     1
102
RTVSPropertyOp23
 70
     1
102
RTVSPropertyOp24
 70
     1
102
RTVSPropertyOp25
 70
     1
102
RTVSPropertyOp26
 70
     1
102
RTVSPropertyOp27
 70
     1
102
RTVSPropertyOp28
 70
     1
102
RTVSPropertyOp29
 70
     1
102
RTVSPropertyOp30
 70
     1
102
RTVSPropertyOp31
 70
     1
102
RTVSPropertyOp32
 70
     1
  0
XRECORD
  5
230
102
{ACAD_REACTORS
330
22F
102
}
330
22F
100
AcDbXrecord
280
     1
102
RTVSPropertyOp0
 70
     1
102
RTVSPropertyOp1
 70
     1
102
RTVSPropertyOp2
 70
     1
102
RTVSPropertyOp3
 70
     1
102
RTVSPropertyOp4
 70
     1
102
RTVSPropertyOp5
 70
     1
102
RTVSPropertyOp6
 70
     1
102
RTVSPropertyOp7
 70
     1
102
RTVSPropertyOp8
 70
     1
102
RTVSPropertyOp9
 70
     1
102
RTVSPropertyOp10
 70
     1
102
RTVSPropertyOp11
 70
     1
102
RTVSPropertyOp12
 70
     1
102
RTVSPropertyOp13
 70
     1
102
RTVSPropertyOp14
 70
     1
102
RTVSPropertyOp15
 70
     1
102
RTVSPropertyOp16
 70
     1
102
RTVSPropertyOp17
 70
     1
102
RTVSPropertyOp18
 70
     1
102
RTVSPropertyOp19
 70
     1
102
RTVSPropertyOp20
 70
     1
102
RTVSPropertyOp21
 70
     1
102
RTVSPropertyOp22
 70
     1
102
RTVSPropertyOp23
 70
     1
102
RTVSPropertyOp24
 70
     1
102
RTVSPropertyOp25
 70
     1
102
RTVSPropertyOp26
 70
     1
102
RTVSPropertyOp27
 70
     1
102
RTVSPropertyOp28
 70
     1
102
RTVSPropertyOp29
 70
     1
102
RTVSPropertyOp30
 70
     1
102
RTVSPropertyOp31
 70
     1
102
RTVSPropertyOp32
 70
     1
  0
XRECORD
  5
232
102
{ACAD_REACTORS
330
231
102
}
330
231
100
AcDbXrecord
280
     1
102
RTVSPropertyOp0
 70
     1
102
RTVSPropertyOp1
 70
     1
102
RTVSPropertyOp2
 70
     1
102
RTVSPropertyOp3
 70
     1
102
RTVSPropertyOp4
 70
     1
102
RTVSPropertyOp5
 70
     1
102
RTVSPropertyOp6
 70
     1
102
RTVSPropertyOp7
 70
     1
102
RTVSPropertyOp8
 70
     1
102
RTVSPropertyOp9
 70
     1
102
RTVSPropertyOp10
 70
     1
102
RTVSPropertyOp11
 70
     1
102
RTVSPropertyOp12
 70
     1
102
RTVSPropertyOp13
 70
     1
102
RTVSPropertyOp14
 70
     1
102
RTVSPropertyOp15
 70
     1
102
RTVSPropertyOp16
 70
     1
102
RTVSPropertyOp17
 70
     1
102
RTVSPropertyOp18
 70
     1
102
RTVSPropertyOp19
 70
     1
102
RTVSPropertyOp20
 70
     1
102
RTVSPropertyOp21
 70
     1
102
RTVSPropertyOp22
 70
     1
102
RTVSPropertyOp23
 70
     1
102
RTVSPropertyOp24
 70
     1
102
RTVSPropertyOp25
 70
     1
102
RTVSPropertyOp26
 70
     1
102
RTVSPropertyOp27
 70
     1
102
RTVSPropertyOp28
 70
     1
102
RTVSPropertyOp29
 70
     1
102
RTVSPropertyOp30
 70
     1
102
RTVSPropertyOp31
 70
     1
102
RTVSPropertyOp32
 70
     1
  0
XRECORD
  5
234
102
{ACAD_REACTORS
330
233
102
}
330
233
100
AcDbXrecord
280
     1
102
RTVSPropertyOp0
 70
     1
102
RTVSPropertyOp1
 70
     1
102
RTVSPropertyOp2
 70
     1
102
RTVSPropertyOp3
 70
     1
102
RTVSPropertyOp4
 70
     1
102
RTVSPropertyOp5
 70
     1
102
RTVSPropertyOp6
 70
     1
102
RTVSPropertyOp7
 70
     1
102
RTVSPropertyOp8
 70
     1
102
RTVSPropertyOp9
 70
     1
102
RTVSPropertyOp10
 70
     1
102
RTVSPropertyOp11
 70
     1
102
RTVSPropertyOp12
 70
     1
102
RTVSPropertyOp13
 70
     1
102
RTVSPropertyOp14
 70
     1
102
RTVSPropertyOp15
 70
     1
102
RTVSPropertyOp16
 70
     1
102
RTVSPropertyOp17
 70
     1
102
RTVSPropertyOp18
 70
     1
102
RTVSPropertyOp19
 70
     1
102
RTVSPropertyOp20
 70
     1
102
RTVSPropertyOp21
 70
     1
102
RTVSPropertyOp22
 70
     1
102
RTVSPropertyOp23
 70
     1
102
RTVSPropertyOp24
 70
     1
102
RTVSPropertyOp25
 70
     1
102
RTVSPropertyOp26
 70
     1
102
RTVSPropertyOp27
 70
     1
102
RTVSPropertyOp28
 70
     1
102
RTVSPropertyOp29
 70
     1
102
RTVSPropertyOp30
 70
     1
102
RTVSPropertyOp31
 70
     1
102
RTVSPropertyOp32
 70
     1
  0
XRECORD
  5
248
102
{ACAD_REACTORS
330
247
102
}
330
247
100
AcDbXrecord
280
     1
102
RTVSPropertyOp0
 70
     1
102
RTVSPropertyOp1
 70
     1
102
RTVSPropertyOp2
 70
     1
102
RTVSPropertyOp3
 70
     1
102
RTVSPropertyOp4
 70
     1
102
RTVSPropertyOp5
 70
     1
102
RTVSPropertyOp6
 70
     1
102
RTVSPropertyOp7
 70
     1
102
RTVSPropertyOp8
 70
     1
102
RTVSPropertyOp9
 70
     1
102
RTVSPropertyOp10
 70
     1
102
RTVSPropertyOp11
 70
     1
102
RTVSPropertyOp12
 70
     1
102
RTVSPropertyOp13
 70
     1
102
RTVSPropertyOp14
 70
     1
102
RTVSPropertyOp15
 70
     1
102
RTVSPropertyOp16
 70
     1
102
RTVSPropertyOp17
 70
     1
102
RTVSPropertyOp18
 70
     1
102
RTVSPropertyOp19
 70
     1
102
RTVSPropertyOp20
 70
     1
102
RTVSPropertyOp21
 70
     1
102
RTVSPropertyOp22
 70
     1
102
RTVSPropertyOp23
 70
     1
102
RTVSPropertyOp24
 70
     1
102
RTVSPropertyOp25
 70
     1
102
RTVSPropertyOp26
 70
     1
102
RTVSPropertyOp27
 70
     1
102
RTVSPropertyOp28
 70
     1
102
RTVSPropertyOp29
 70
     1
102
RTVSPropertyOp30
 70
     1
102
RTVSPropertyOp31
 70
     1
102
RTVSPropertyOp32
 70
     1
  0
XRECORD
  5
23E
102
{ACAD_REACTORS
330
23D
102
}
330
23D
100
AcDbXrecord
280
     1
102
RTVSPropertyOp0
 70
     1
102
RTVSPropertyOp1
 70
     1
102
RTVSPropertyOp2
 70
     1
102
RTVSPropertyOp3
 70
     1
102
RTVSPropertyOp4
 70
     1
102
RTVSPropertyOp5
 70
     1
102
RTVSPropertyOp6
 70
     1
102
RTVSPropertyOp7
 70
     1
102
RTVSPropertyOp8
 70
     1
102
RTVSPropertyOp9
 70
     1
102
RTVSPropertyOp10
 70
     1
102
RTVSPropertyOp11
 70
     1
102
RTVSPropertyOp12
 70
     1
102
RTVSPropertyOp13
 70
     1
102
RTVSPropertyOp14
 70
     1
102
RTVSPropertyOp15
 70
     1
102
RTVSPropertyOp16
 70
     1
102
RTVSPropertyOp17
 70
     1
102
RTVSPropertyOp18
 70
     1
102
RTVSPropertyOp19
 70
     1
102
RTVSPropertyOp20
 70
     1
102
RTVSPropertyOp21
 70
     1
102
RTVSPropertyOp22
 70
     1
102
RTVSPropertyOp23
 70
     1
102
RTVSPropertyOp24
 70
     1
102
RTVSPropertyOp25
 70
     1
102
RTVSPropertyOp26
 70
     1
102
RTVSPropertyOp27
 70
     1
102
RTVSPropertyOp28
 70
     1
102
RTVSPropertyOp29
 70
     1
102
RTVSPropertyOp30
 70
     1
102
RTVSPropertyOp31
 70
     1
102
RTVSPropertyOp32
 70
     1
  0
XRECORD
  5
246
102
{ACAD_REACTORS
330
245
102
}
330
245
100
AcDbXrecord
280
     1
102
RTVSPropertyOp0
 70
     1
102
RTVSPropertyOp1
 70
     1
102
RTVSPropertyOp2
 70
     1
102
RTVSPropertyOp3
 70
     1
102
RTVSPropertyOp4
 70
     1
102
RTVSPropertyOp5
 70
     1
102
RTVSPropertyOp6
 70
     1
102
RTVSPropertyOp7
 70
     1
102
RTVSPropertyOp8
 70
     1
102
RTVSPropertyOp9
 70
     1
102
RTVSPropertyOp10
 70
     1
102
RTVSPropertyOp11
 70
     1
102
RTVSPropertyOp12
 70
     1
102
RTVSPropertyOp13
 70
     1
102
RTVSPropertyOp14
 70
     1
102
RTVSPropertyOp15
 70
     1
102
RTVSPropertyOp16
 70
     1
102
RTVSPropertyOp17
 70
     1
102
RTVSPropertyOp18
 70
     1
102
RTVSPropertyOp19
 70
     1
102
RTVSPropertyOp20
 70
     1
102
RTVSPropertyOp21
 70
     1
102
RTVSPropertyOp22
 70
     1
102
RTVSPropertyOp23
 70
     1
102
RTVSPropertyOp24
 70
     1
102
RTVSPropertyOp25
 70
     1
102
RTVSPropertyOp26
 70
     1
102
RTVSPropertyOp27
 70
     1
102
RTVSPropertyOp28
 70
     1
102
RTVSPropertyOp29
 70
     1
102
RTVSPropertyOp30
 70
     1
102
RTVSPropertyOp31
 70
     1
102
RTVSPropertyOp32
 70
     1
  0
ENDSEC
  0
SECTION
  2
THUMBNAILIMAGE
 90
    16364
310
28000000B40000005500000001000800000000000000000000000000000000000000000000000000FFFFFF00FF000000FFFF000000FF000000FFFF000000FF00FF00FF000000000080808000C0C0C000FF000000FF7F7F00A5000000A55252007F0000007F3F3F004C0000004C2626002600000026131300FF3F0000FF9F7F
310
00A5290000A56752007F1F00007F4F3F004C1300004C2F26002609000026171300FF7F0000FFBF7F00A5520000A57C52007F3F00007F5F3F004C2600004C39260026130000261C1300FFBF0000FFDF7F00A57C0000A59152007F5F00007F6F3F004C3900004C422600261C000026211300FFFF0000FFFF7F00A5A50000A5A5
310
52007F7F00007F7F3F004C4C00004C4C26002626000026261300BFFF0000DFFF7F007CA5000091A552005F7F00006F7F3F00394C0000424C26001C260000212613007FFF0000BFFF7F0052A500007CA552003F7F00005F7F3F00264C0000394C2600132600001C2613003FFF00009FFF7F0029A5000067A552001F7F00004F
310
7F3F00134C00002F4C2600092600001726130000FF00007FFF7F0000A5000052A55200007F00003F7F3F00004C0000264C2600002600001326130000FF3F007FFF9F0000A5290052A56700007F1F003F7F4F00004C1300264C2F00002609001326170000FF7F007FFFBF0000A5520052A57C00007F3F003F7F5F00004C2600
310
264C39000026130013261C0000FFBF007FFFDF0000A57C0052A59100007F5F003F7F6F00004C3900264C420000261C001326210000FFFF007FFFFF0000A5A50052A5A500007F7F003F7F7F00004C4C00264C4C00002626001326260000BFFF007FDFFF00007CA5005291A500005F7F003F6F7F0000394C0026424C00001C26
310
0013212600007FFF007FBFFF000052A500527CA500003F7F003F5F7F0000264C0026394C0000132600131C2600003FFF007F9FFF000029A5005267A500001F7F003F4F7F0000134C00262F4C0000092600131726000000FF007F7FFF000000A5005252A50000007F003F3F7F0000004C0026264C0000002600131326003F00
310
FF009F7FFF002900A5006752A5001F007F004F3F7F0013004C002F264C0009002600171326007F00FF00BF7FFF005200A5007C52A5003F007F005F3F7F0026004C0039264C00130026001C132600BF00FF00DF7FFF007C00A5009152A5005F007F006F3F7F0039004C0042264C001C00260021132600FF00FF00FF7FFF00A5
310
00A500A552A5007F007F007F3F7F004C004C004C264C002600260026132600FF00BF00FF7FDF00A5007C00A55291007F005F007F3F6F004C0039004C26420026001C0026132100FF007F00FF7FBF00A5005200A5527C007F003F007F3F5F004C0026004C2639002600130026131C00FF003F00FF7F9F00A5002900A5526700
310
7F001F007F3F4F004C0013004C262F002600090026131700000000002D2D2D005B5B5B0089898900B7B7B700B3B3B30000000000000000000000000000000000000000000000000000000000000000000000000000000000000000000000000000000000000000000000000000000000000000000000000000000000000000
310
00000000000000000000000000000000000000000000000000000000000000000000000000000000000000000000000000000000000000000000000000000000000000000000000000000000000000000000000000000000000000000000000000000000000000000000000000000000000000000000000000000000000000
310
00000707070707070700000000000000000000000000000000009696000000000000000000000000000000000000000000000000000000000000000000000000000000000000000000000000000000000000000000000000000000000000000000000000000000000000000000000000000000000000000000000000000000
310
00000000000000000000000000000000000000000000000000000000000000000000000000000000000000000000000000000000000000070700000000000000000000000000000000000000000096969600969696969600000000000000000000000000000000000000000000000000000000000000000000000000000000
310
00000000000000000000000000000000000000000000000000000000000000000000000000000000000000000000000000000000000000000000000000000000000000000000000000000000000000000000000000000000000000000000000000000000000000000000000007070000000000000000000000000000000000
310
00000096960096969600000096960000000000000000000000000000000000000000000000000000000000000000000000000000000000000000000000000000000000000000009600000096969696000000000000000000000000000000000000000000000707070707070707070700000000000000000000000000000000
310
00000000000000000000000000000000000000000000000000000000000000000000000700000000000000000000000000000000009696969600009696000000000096000096969696969696960096969696000000000000000000000000000000000000000000000000000000000000000000000000000000000000960000
310
96969600960000000000000000000000000000000000000000000000000000000000000707000000000000000000000000000000000000000000000000000000000000000000000000000000000000000000000000000000070000000000000000000000000000969696000000000096969600000000009600969600000000
310
00009696960000969600000000000000000000000000000000000000000000000000000000000000000000000000009696969600009696960000960000000096969696969600009696000000000000000000000000000000070700000000000000000000000000000000000000000000000000000000000000000000000000
310
00000000000000000000000000000700000000000000000000000096969600000000000000960096000000000096969600000000000000000000000000009600000000000000000000000000000000000000000000000000000000000000000000009696000096000000969696009696000096969696969696969696969696
310
00000000000000000000000000000700000000000000000000000000000000000000000000000000000000000000000000000000000000000000000000000000000000070000000000000000000000969600000000000000000000000000000096969696000000000000000000000000000000969600000000000000000000
310
00000000000000000000000000000000000000009696969600000000960096969696969696000096009696969696009696969696969696000000000000000000000000070000000000000000000000000000000000000000000000000000000000000000000000000000000000000000000000000000000007000000000000
310
00000000960000000000000000000000000000000000969696000000000000000000000000000000000096000000000000000000000000000000000000000000000000000000000096969696960096969696969696969696960000009696969696009696009696960096009600000000000000000000000007000000000000
310
00000000000000000000000000000000000000000000000000000000000000000000000000000000000000000000070000000000000000009696000000000000000000000000000000000000000000000000000000000000000000000000009600000000000000000000000000000000000000000000000000000000969696
310
96969696969696960096969696969696969696969600969696969696969696000096000000000000000000000000070000000000000000000000000000000000000000000000000000000000000000000000000000000000000000000000000000000007000000000000000000960000000000000000000000000000000000
310
00000000000000000000000000000000000000000096000000000000000000000000000000000000000000000000000000969696969696969696969696000096969696969696969600969600969696969696960096969696000000000000000000000007000000000000000000000000000000000000000000000000000000
310
00000000000000000000000000000000000000000000000000070000000000000000960000000000000000000000000000000000000000000000000000000000000000000000000000009696000000000000000000000000000000000000000000000000000096969696960096969696969600969696960096969600969600
310
96960096969696969696969600960000000000000000000000070000000000000000000000000000000000000000000000000000000000000000000000000000000000000000000000000000000007000000000000000096000000000000000000000000000000000000000000000000000000000000000000000000000000
310
00960000000000000000000000000000000000000000000000000000969696969696960096969696969696960000009696969696960096960096960096969696969696000000000000000000000007000000000000000000000000000000000000000000000000000000000000000000000000000000000000000000000000
310
00000000070000000000000000960000000000000000000000000000000000000000000000000000000000000000000000000000000096960000000000000000000000000000000000000000000000009600009696969696009696960000969696969696969696000000960000960000969696969696969600000000000000
310
00000000070000000000000000000000000000000000000000000000000000000000000000000000000000000000000000000000000000000007000000000000000096000000000000000000000000000000000000000000000000000000000000000000000000000000000096000000000000000000000000000000000000
310
00000000000096009696969696009600000096969696969696969696969696969696969696000000969696960096960000000000000000000007000000000000000000000000000000000000000000000000000000000000000000000000000000000000000000000000000000000700000000000000009600000000000000
310
00000000000000000000000000000000000000000000000000000000000000000000969600000000000000000000000000000000000000000000009600969696000096960096960000000000000000000000000000000000000096960000969696960096000000000000000000000700000000000000000000000000000000
310
00000000000000000000000000000000000000000000000000000000000000000000000007000000000000000096000000000000000000000000000000000000000000000000000000000000000000000000000000000000969600000000000000000000000000000000000000000000009696009696969600009600000000
310
00000000000000000000000000000000009600000096969696969600000000000000000007000000000000000000000000000000000000000000000000000000000000000000000000000000000000000000000000000000000700000000000000009696000000000000000000000000000000000000000000000000000000
310
00000000000000000000000000000096969696000000000000000000000000000000000000000096969696969600009600000000000000000000000000000000000000000000009600009696969696969696000000000000000700000000000000000000000000000000000000000000000000000000000000000000000000
310
00000000000000000000000000000007000000000000000000960000000000000000000000000000000000000000000000000000000000000000000000000000009696009696960000000000000000000000000000000000000000009696969696960000960000000000000000000000000000000000000000000000960096
310
96969696960000000000000000000007000000000000000000000000000000000000000000000000000000000000000000000000000000000000000000000000000000000700000000000000000096960000000000000000000000000000000000000000000000000000000000000000000000000000009696960000000000
310
00000000000000000000000000000000000000969696969696009600000000000000000000000000000000000000000000009600969696969696000000000000000000000700000000000000000000000000000000000000000000000000000000000000000000000000000000000000000000000000000000070000000000
310
00000000000096960000000000000000000000000000000000000000000000000000000000000000000000000096000000000000000000000000000000000000000000000000000000969696969600960000000000000000000000000000000000000000000000960096969696969600000000000000000000070000000000
310
00000000000000000000000000000000000000000000000000000000000000000000000000000000000000000000000700000000000000000000000096000000000000000000000000000000000000000000000000000000000000000000000000009600000000000000000000000000000000000000000000000000000000
310
96960096009600000000000000000000000000000000000000000000009600969696969696000000000000000000000700000000000000000000000000000000000000000000000000000000000000000000000000000000000000000000000000000000070000000000000000000000009600000000000000000000000000
310
00000000000000000000000000000000000000000000969600000000000000000000000000000000000000000000000000000000009696009600960000000000000000000000000000000000000000000000960096969600000000000000000000000000070000000000000000000000000000000000000000000000000000
310
00000000000000000000000000000000000000000000000000000700000000000000000000000096000000000000000000000000000000000000000000000000000000000000000000000096000000000000000000000000000000000000000000000000000000000000969600960096000000000000000000000000000000
310
00000000000000009600969696000000000000000000000000000700000000000000000000000000000000000000000000000000000000000000000000000000000000000000000000000000000000070000000000000000000000009600000000000000000000000000000000000000000000000000000000000000000000
310
00960000000000000000000000000000000000000000000000000000000000009696009600960000000000000000000000000000000000000000000000960096969600000000000000000000000000070000000000000000000000000000000000000000000000000000000000000000000000000000000000000000000000
310
00000000000700000000000000000000000096000000000000000000000000000000000000000000000000000000000000000000000096000000000000000000000000000000000000000000000000000000000000969600960096000000000000000000000000000000000000000000000096009696960000000000000000
310
00000000000700000000000000000000000000000000000000000000000000000000000000000000000000000000000000000000000000000000070000000000000000000000009600000000000000000000000000000000000000000000000000000000000000000000009600000000000000000000000000000000000000
310
00000000000000000000009696009600960000000000000000000000000000000000000000000000960096969600000000000000000000000000070000000000000000000000000000000000000000000000000000000000000000000000000000000000000000000000000000000007000000000000000000000000960000
310
00000000000000000000000000000000000000000000000000000000000000000096000000000000000000000000000000000000000000000000000000000000969600960096000000000000000000000000000000000000000000000096009696960000000000000000000000000007000000000000000000000000000000
310
00000000000000000000000000000000000000000000000000000000000000000000000000070000000000000000000000009600000000000000000000000000000000000000000000000000000000000000000000009600000000000000000000000000000000000000000000000000000000000096960096009600000000
310
00000000000000000000000000000000000000960096969600000000000000000000000000070000000000000000000000000000000000000000000000000000000000000000000000000000000000000000000000000000000007000000000000000000009696960000000000000000000000000000000000000000000000
310
00000000000000000000000096000000000000000000000000000000000000000000000000000000000000969600960096000000000000000000000000000000000000000000000096009696960000000000000000000000000007000000000000000000000000000000000000000000000000000000000000000000000000
310
00000000000000000000000000000000070000000000000000000096000000000000000000000000000000000000000000000000000000000000000000000000009696000000000000000000000000000000000000000000000000000000969696960096009600000000000000000000000000000000000000000000009600
310
96969600960000000000000000000000070000000000000000000000000000000000000000000000000000000000000000000000000000000000000000000000070007070007000000000000000096969600000000000000000000000000000000000000000000000000000000000000000000000000009600000000000000
310
00000000000000000000000000000000000000009696969696960096000000000000000000000000000000000000000000000096009696969696000000000000000700070707000000000000000000000000000000000000000000000000000000000000000000000000000000000000000000000707070000000700000000
310
00000000960000000000000000000000000000000000000000000000000000000000000000000000000000000096960000000000000000000000000000000000000000000000000096969696969600009600000000000000000000000000000000000000000000009600969696969696000000000007070700000700000000
310
00000000000000000000000000000000000000000000000000000000000000000000000000000000000000000007070007000000000000009696000000000000000000000000000000000000000000000000000000000000000000000000000000000096000000000000000000000000000000000000000000000000969600
310
00000000000096000000000000000000000000000000000000000000000096000000000000960000000000000000000007000000000000000000000000000000000000000000000000000000000000000000000000000000000000000000000007070707000700000000000000969600000000000000000000000000000000
310
00000000000000000000000000000000000000000000000000960000000000000000000000000000000000000000000000009696000000000000009600000000000000000000000000000000000000000000009600000000000096960000000007000000070700000000000000000000000000000000000000000000000000
310
00000000000000000000000000000000000000000007000700070007000000000000000096000000000000000000000000000000000000000000000000000000000000000000000000000000000096000000000000000000000000000000000000000000000000009696969696960000960000000000000000000000000000
310
00000000000000000096000096969696960000000000070007070007000000000000000000000000000000000000000000000000000000000000000000000000000000000000000000000707070707000700000000000000009696960000000000000000000000000000000000000000000000000000000000000000000000
310
00000096960000000000000000000000000000000000000000000000000000969696969696009600000000000000000000000000000000000000000000009600969696969600000000000007070000000700000000000000000000000000000000000000000000000000000000000000000000000000000000000000000000
310
00000707070007000000000000000000009600000000000000000000000000000000000000000000000000000000000000000000000000009600000000000000000000000000000000000000000000000000000000969696009600960000000000000000000000000000000000000000000000960096969696960000000000
310
00070007070707000000000000000000000000000000000000000000000000000000000000000000000000000000000000000000000707070007000700000000000000000000969696000000000000000000000000000000000000000000000000000000000000000000000096960000000000000000000000000000000000
310
00000000000000000000000096960096009600000000000000000000000000000000000000000000009600969696009600000000000007070700070700000000000000000000000000000000000000000000000000000000000000000000000000000000000000000000070007000700070000000000000000000000009600
310
00000000000000000000000000000000000000000000000000000000000000000000960000000000000000000000000000000000000000000000000000000000009696009600960000000000000000000000000000000000000000000000960096969600000000000000000707070707070000000000000000000000000000
310
00000000000000000000000000000000000000000000000000000000000000000707070700070700000000000000000000000096000000000000000000000000000000000000000000000000000000000000000000000096000000000000000000000000000000000000000000000000000000000000969600960096000000
310
00000000000000000000000000000000000000009600969696000000000000000007070007000700000000000000000000000000000000000000000000000000000000000000000000000000000000000000000000000000000707070000000000000000000000009600000000000000000000000000000000000000000000
310
00000000000000000000000000960000000000000000000000000000000000000000000000000000000000009696009600960000000000000000000000000000000000000000000000960096969600000000000000000000000007070000000000000000000000000000000000000000000000000000000000000000000000
310
00000000000000000000000000000000000700000000000000000000009696000000000000000000000000000000000000000000000000000000000000000000000096000000000000000000000000000000000000000000000000000000000000969600960096000000000000000000000000000000000000000000000096
310
00969696000000000000000000000000070700000000000000000000000000000000000000000000000000000000000000000000000000000000000000000000000707000700070000000000000000000096960000000000000000000000000000000000000000000000000000000000000000000000009600000000000000
310
00000000000000000000000000000000000000000000009696009600960000000000000000000000000000000000000000000000960096969696000000000000000707000707070000000000000000000000000000000000000000000000000000000000000000000000000000000000000000000007000707070007000000
310
00000000000000960000000000000000000000000000000000000000000000000000000000000000000000000096000000000000000000000000000000000000000000000000000000009696969600960096000000000000000000000000000000000000000000000096009696009600000000000000070007000707000000
310
00000000000000000000000000000000000000000000000000000000000000000000000000000000000000070707070000070000000000000000000096000000000000000000000000000000000000000000000000000000000000000000000000009600000000000000000000000000000000000000000000000000000000
310
96969696009600960000000000000000000000000000000000000000000000960096960096000000000000000707000007070000000000000000000000000000000000000000000000000000000000000000000000000000000000000000000000000007070007000000000000000096969600000000000000000000000000
310
00000000000000000000000000000000000000000000009696000000000000000000000000000000000000000000000000000000000096969696960096000000000000000000000000000000000000000000000096009696969600000000000000000007070707000000000000000000000000000000000000000000000000
310
00000000000000000000000000000000000000000000070707000700070000000000000096960000000000000000000000000000000000000000000000000000000000000000000000000096960000000000000000000000000000000000000000000000000000009696969600969696009600000000000000000000000000
310
00000000000000000000960096960000000000000000000707070007070000000000000000000000000000000000000000000000000000000000000000000000000000000000000000000007070700070007000000000000969600000000000000000000000000000000000000000000000000000000000000000000000000
310
00009600000000000000000000000000000000000000000000000000000096969696969696960096000000000000000000000000000000000000000000000096009696960000000000000000070707070707000000000000000000000000000000000000000000000000000000000000000000000000000000000000000000
310
00070007070000070000000000969600000000000000000000000000000000000000000000000000000000000000000000000000000000009600000000000000000000000000000000000000000000000000969696969696009696009600000000000000000000000000000000000000000000009600960096960000000000
310
00000707070700070000000000000000000000000000000000000000000000000000000000000000000000000000000000000000000000000000000007000000000096000000000000000000000000000000000000000000000000000000000000000000000000000000000000969600000000000000000000000000000000
310
00000000000096969696969696009696960096000000000000000000000000000000000000000000000096000096969696000000000000000000000007000000000000000000000000000000000000000000000000000000000000000000000000000000000000000000000000000000000700000000009600000000000000
310
00000000000000000000000000000000000000000000000000000000000000000000000000960000000000000000000000000000000000000000009696969696969696969696009600000000000000000000000000000000000000000000960000009696969696000000000000000000000700000000000000000000000000
310
00000000000000000000000000000000000000000000000000000000000000000000000000000007000000009600969600000000000000000000000000000000000000000000000000000000000000000000000000000000000000960000000000000000000000000000000000000000000096969696969696969696009696
310
00000000000000000000000000000000000000969600009696969696009600000000000000000007000000000000000000000000000000000000000000000000000000000000000000000000000000000000000000000000000000000700000000969696969600000000000000000000000000000000000000000000000000
310
00000000000000000000000000000000000096000000000000000000000000000000000000000000000096969696969696960000009696969696969696969696969696969696969600000096969696969696969600000000000000000700000000000000000000000000000000000000000000000000000000000000000000
310
00000000000000000000000000000000000007000000000096960096960000000000000000000000000000000000000000000000000000000000000000000000000000000000009600000000000000000000000000000000000000000000000096969696969600969696969696000096969696969696969696960096969696
310
96009696009696969696960000000000000007000000000000000000000000000000000000000000000000000000000000000000000000000000000000000000000000000000000700000000000000000096000000000000000000000000000000000000000000000000000000000000000000000000000000000000009600
310
00000000000000000000000000000000000000000000969696969696969696000000009696969696960000000096969696969696960096969696960096969696000000000000000700000000000000000000000000000000000000000000000000000000000000000000000000000000000000000000000000000000070000
310
00000000000000969600000000000000000000000000000000000000000000000000000000000000000000000000000000000096000000000000000000000000000000000000000000000096960096969696969696969600000096969696969696009696969696969696969696969696969696969600000000000000070000
310
00000000000000000000000000000000000000000000000000000000000000000000000000000000000000000000000000000700000000000000000096000000009696960000000000000000000000000000000000000000000000000000000000000000000000009600000000000000000000000000000000000000000000
310
00969696000000009696969696969696969600969600969696969696009696969696969600969696969696000000000000000700000000000000000000000000000000000000000000000000000000000000000000000000000000000000000000000000000000070000000000000000009600000000009600969696000000
310
00000000000000000000000000000000000000000000000000000000000096000000000000000000000000000000000000000000000096969696000000000096969696969696969696969696969600969696969696969696969696969696969600000000000000070000000000000000000000000000000000000000000000
310
00000000000000000000000000000000000000000000000000000000000700000000000096000096000000000096960000969600000000000000000000000000000000000000000000000000000000000000009600000000000000000000000000000000000000000000009696960096000000000096000096969696969600
310
96969696009696969600969696969696009696969696000000000000000700000000000000000000000000000000000000000000000000000000000000000000000000000000000000000000000000000000070000000000009696960000000000000096000000969600000000000000000000000000000000000000000000
310
00000000000000009696000000000000000000000000000000000000000096969696969600960000000000009600000096969696000096969696969600000096960096969696969696960000000000000000070000000000000000000000000000000000000000000000000000000000000000000000000000000000000000
310
00000000000000000700000000000096960000000000000096960000000096000000000000000000000000000000000000000000000096000000009696960000000000000000000000000000000000000000000096969696969600000000000000969600969696960000000096009696969696009696960000009696960000
310
00000000000000000700000000000000000000000000000000000000000000000000000000000000000000000000000000000000000000000000000000070000000000000096969696969696969600000000960000000000000000000000000000000000000000000000009696969696960000000000000000000000000000
310
00000000000000000000000000000000000000000000009696009696969600000000969696960000969696969696000000000000000000000000000000070000000000000000000000000000000000000000000000000000000000000000000000000000000000000000000000000000000007000000000000000000000000
310
00960000000000969600000000000000000000000000000000000000960096000096960000000000000000000000000000000000000000000000000000000000000000000000000000000000969600969696000000009696969696000096000000009696000000000000000000000000000007000000000000000000000000
310
00000000000000000000000000000000000000000000000000000000000000000000000000000000070000000000000000000000000000000000000096000000000000000000000000000000000000009696969696960096000000000000000000000000000000000000000000000000000000000000000000000000000000
310
00009696960096969600000096009696969696960000000000960000000000000000000000000000070000000000000000000000000000000000000000000000000000000000000000000000000000000000000000000000000000000007000000000000000000000000000000000000009600000000000000000000000000
310
00009600009696000000009696960000000000000000000000000000000000000000000000000000000000000000000000000000000096969696960096969600969696960000000000000000000000000000000000000000000000000007000000000000000000000000000000000000000000000000000000000000000000
310
00000000000000000000000000000000000000070000000000000000000000000000000000000096000000000000000000000000000000969696960000000000969600000000000000000000000000000000000000000000000000000000000000000000000000000000009696960096000096969696960096000000000000
310
00000000000000000000000000000000000000070000000000000000000000000000000000000000000000000000000000000000000000000000000000000000000000000000000007000000000000000000000000000000000000009600000000000000000000000000009696000000000000000000000000000000000000
310
00000000000000000000000000000000000000000000000000000000000000009696969600969696000000000096000000000000000000000000000000000000000000000000000007000000000000000000000000000000000000000000000000000000000000000000000000000000000000000000000000000000000700
310
00000000000000000000000000000000000096000000000000000000000000000096000000000000000000000000000000000000000000000000000000000000000000000000000000000000000000000000000000969696969600969696000000969600000000000000000000000000000000000000000000000000000700
310
00000000000000000000000000000000000000000000000000000000000000000000000000000000000000000000000000000007000000000000000000000000000000000000009696000000000000000000000000960000000000000000000000000000000000000000000000000000000000000000000000000000000000
310
00000000000000000000000000009696969696969696960000000000000000000000000000000000000000000000000000000007000000000000000000000000000000000000000000000000000000000000000000000000000000000000000000000000000000000700000000000000000000000000000000000000009600
310
00009600000000000096960000000000000000000000000000000000000000000000000000000000000000000000000000000000000000000000000000000000000000960096969696969600000000000000000000000000000000000000000000000000000000000707000000000000000000000000000000000000000000
310
00000000000000000000000000000000000000000000000000000000000007000000000000000000000000000000000000000000960000969600000000969600000000000000000000000000000000000000000000000000000000000000000000000000000000000000000000000000000000000000000096000000969696
310
00000000000000000000000000000000000000000000000000000000000007070000000000000000000000000000000000000000000000000000000000000000000000000000000000000000000000000000070700000000000000000000000000000000000000000000969696969600000096000000000000000000000000
310
00000000000000000000000000000000000000000000000000000000000000000000000000000000000000000000960000009696960000000000000000000000000000000000000000000000000000000000000700000000000000000000000000000000000000000000000000000000000000000000000000000000000000
310
00000000000000000707000000000000000000000000000000000000000000000000969696960000960000000000000000000000000000000000000000000000000000000000000000000000000000000000070000000000000000000000000000000000000000009600000000000000000000000000000000000000000000
310
00070707070707070707070000000000000000000000000000000000000000000000000000000000000000000000000000000000000000000000000000070700000000000000000000000000000000000000000000000000000096969696960000000000000000000000000000000000000000000000000000000000000000
310
00000000000000000700000000000000000000000000000000000000000000000000000000000000000000000000000000000000000007000000000000000000000000000000000000000000000000000000000000000000000000000000000000000000000000000000000000000000000007070707070707000000000000
310
00000000000000000000000000000000000000969600000000000000000000000000000000000000000000000700000000000000000000000000000000070707000000000000000000000000000000000000000000000000000000000000000000000000000000000007070700000000000000000000000000000000000000
310
00000000000000000000000000000000000000000000000000000000000000000000000000000000000000000000070000000000000000000000000000000000000000000000000000000000000000000000000000000000000000000000000000070000000000000000000000000000000007070707070707070707070707
310
07070707070707070707070707070707070707070707070707070707070707070707000000000000000000000000000000000000000000000000000000000000000000000000000000000000000000000000000000000000000000000000000000000007000700000000000000000000000000000000000000000000000000
310
00000000000000000000000000000000000000000007070700000000000000000000000000000000070007000000000000000000000000000000000000000000000007000000000000000000000000000000000007070700000000000000000000000000000000000000000000000000000000000000000000000000000000
310
00000000000000000000000000000000000000000000000000070707070707070707070707070707070707070707070707070707070707070707070707070707070707070707070707070707070000000000000000000000000000000000000000000000000000000000000000000700000700000707070707070707000707
310
00000000000000000000000000000000000000000000000000000000000000000000000000000000000000000000000000000000000000000000000000000000000000000000000000000000000007000700000000000000000000000000000000000000000000000000000700000000000000000000000000000000000000
310
07070700000000000000000000000000000000000000000000000000000000000000000007000007000007000700000700000700070700000000000000000000000000000000000000000000000000000000000000000000000000000000000000000000000000000000000000000000000000000000000000000000000000
310
00000000000000000000000000000000000000000000000700070707070707070007000707000007000000000000000000000000000000000000000000000000000000000000000000000000000000000000000000000000000007000007000707070000000707070700070000000000000000000000000000000000000000
310
00000000000000000000000000000000000000000000000000000000000000000000000000000000000000000000000000000000000000000000000000000000000000000000000000000000070000070700000707000000070007000700000000000000000000000000000000000000000000000000000000000000000000
310
00000000000000000000000000000007070007070007070007000007000007000700000000000000000000000000000000000000000000000000000000000000000000000000000000000000000000000000000000000000000000000000000000000000000000000000000000000000000000000000000000000000000000
310
00000007000000070007070700000700070000070000000000000000000000000000000000000000000000000000000000000000000000000000000000000000000000000007000007000007070700000707070007070000000000000000000000000000000000000000000000000000000000000000000000000000000000
310
00000000000000000000000000000000000000000000000000000000000000000000000000000000000000000000000000000000000000070700070707070700070000070000070707000000000000000000000000000000000000000000000000000000000000000000000000000000000000000000000000000000000000
310
00000000000000000000000000000000000000000000000000000000000000000000000000000000000000000000000000000000000000000000000000000000000000000000000000000000000000000000000000000000000000000000000000000000000000000000000000070000070700000707000000070700000700
310
000000000000000000000000000000000000000000000000000000000000000000000000000000000000000000000000000000000000000000000000000000000000000000000000000000000000000000000000000000000000000000000000000000000000000000000000
  0
ENDSEC
  0
EOF
