  0
SECTION
  2
HEADER
  9
$ACADVER
  1
AC1015
  9
$ACADMAINTVER
 70
     6
  9
$DWGCODEPAGE
  3
ANSI_1252
  9
$INSBASE
 10
0.0
 20
0.0
 30
0.0
  9
$EXTMIN
 10
-3.78285558408865
 20
-4.479066036642407
 30
-0.0015258207003583
  9
$EXTMAX
 10
22.88462483887229
 20
27.89283641447684
 30
0.0000000349246037
  9
$LIMMIN
 10
0.0
 20
0.0
  9
$LIMMAX
 10
12.0
 20
9.0
  9
$ORTHOMODE
 70
     0
  9
$REGENMODE
 70
     1
  9
$FILLMODE
 70
     1
  9
$QTEXTMODE
 70
     0
  9
$MIRRTEXT
 70
     1
  9
$LTSCALE
 40
1.0
  9
$ATTMODE
 70
     1
  9
$TEXTSIZE
 40
0.48
  9
$TRACEWID
 40
0.05
  9
$TEXTSTYLE
  7
STANDARD
  9
$CLAYER
  8
DIM
  9
$CELTYPE
  6
BYLAYER
  9
$CECOLOR
 62
   256
  9
$CELTSCALE
 40
1.0
  9
$DISPSILH
 70
     0
  9
$DIMSCALE
 40
4.0
  9
$DIMASZ
 40
0.12
  9
$DIMEXO
 40
0.0625
  9
$DIMDLI
 40
0.38
  9
$DIMRND
 40
0.0
  9
$DIMDLE
 40
0.0
  9
$DIMEXE
 40
0.12
  9
$DIMTP
 40
0.0
  9
$DIMTM
 40
0.0
  9
$DIMTXT
 40
0.12
  9
$DIMCEN
 40
0.0
  9
$DIMTSZ
 40
0.0
  9
$DIMTOL
 70
     0
  9
$DIMLIM
 70
     0
  9
$DIMTIH
 70
     1
  9
$DIMTOH
 70
     1
  9
$DIMSE1
 70
     0
  9
$DIMSE2
 70
     0
  9
$DIMTAD
 70
     0
  9
$DIMZIN
 70
     0
  9
$DIMBLK
  1

  9
$DIMASO
 70
     1
  9
$DIMSHO
 70
     1
  9
$DIMPOST
  1

  9
$DIMAPOST
  1

  9
$DIMALT
 70
     0
  9
$DIMALTD
 70
     2
  9
$DIMALTF
 40
25.4
  9
$DIMLFAC
 40
1.0
  9
$DIMTOFL
 70
     0
  9
$DIMTVP
 40
0.0
  9
$DIMTIX
 70
     0
  9
$DIMSOXD
 70
     0
  9
$DIMSAH
 70
     0
  9
$DIMBLK1
  1

  9
$DIMBLK2
  1

  9
$DIMSTYLE
  2
DEF
  9
$DIMCLRD
 70
   256
  9
$DIMCLRE
 70
   256
  9
$DIMCLRT
 70
   256
  9
$DIMTFAC
 40
1.0
  9
$DIMGAP
 40
0.09
  9
$DIMJUST
 70
     0
  9
$DIMSD1
 70
     0
  9
$DIMSD2
 70
     0
  9
$DIMTOLJ
 70
     1
  9
$DIMTZIN
 70
     0
  9
$DIMALTZ
 70
     0
  9
$DIMALTTZ
 70
     0
  9
$DIMUPT
 70
     1
  9
$DIMDEC
 70
     2
  9
$DIMTDEC
 70
     2
  9
$DIMALTU
 70
     2
  9
$DIMALTTD
 70
     2
  9
$DIMTXSTY
  7
STANDARD
  9
$DIMAUNIT
 70
     0
  9
$DIMADEC
 70
     0
  9
$DIMALTRND
 40
0.0
  9
$DIMAZIN
 70
     0
  9
$DIMDSEP
 70
    46
  9
$DIMATFIT
 70
     0
  9
$DIMFRAC
 70
     0
  9
$DIMLDRBLK
  1

  9
$DIMLUNIT
 70
     2
  9
$DIMLWD
 70
    -2
  9
$DIMLWE
 70
    -2
  9
$DIMTMOVE
 70
     0
  9
$LUNITS
 70
     2
  9
$LUPREC
 70
     4
  9
$SKETCHINC
 40
0.1
  9
$FILLETRAD
 40
0.0
  9
$AUNITS
 70
     0
  9
$AUPREC
 70
     0
  9
$MENU
  1
acad
  9
$ELEVATION
 40
0.0
  9
$PELEVATION
 40
0.0
  9
$THICKNESS
 40
0.0
  9
$LIMCHECK
 70
     0
  9
$CHAMFERA
 40
0.0
  9
$CHAMFERB
 40
0.0
  9
$CHAMFERC
 40
0.0
  9
$CHAMFERD
 40
0.0
  9
$SKPOLY
 70
     0
  9
$TDCREATE
 40
2451827.534549537
  9
$TDUCREATE
 40
2451827.742882870
  9
$TDUPDATE
 40
2454980.598450023
  9
$TDUUPDATE
 40
2454980.806783356
  9
$TDINDWG
 40
0.0539089931
  9
$TDUSRTIMER
 40
0.0539089931
  9
$USRTIMER
 70
     1
  9
$ANGBASE
 50
0.0
  9
$ANGDIR
 70
     0
  9
$PDMODE
 70
     0
  9
$PDSIZE
 40
0.0
  9
$PLINEWID
 40
0.0
  9
$SPLFRAME
 70
     0
  9
$SPLINETYPE
 70
     6
  9
$SPLINESEGS
 70
     8
  9
$HANDSEED
  5
886
  9
$SURFTAB1
 70
     6
  9
$SURFTAB2
 70
     6
  9
$SURFTYPE
 70
     6
  9
$SURFU
 70
     6
  9
$SURFV
 70
     6
  9
$UCSBASE
  2

  9
$UCSNAME
  2

  9
$UCSORG
 10
0.0
 20
0.0
 30
0.0
  9
$UCSXDIR
 10
1.0
 20
0.0
 30
0.0
  9
$UCSYDIR
 10
0.0
 20
1.0
 30
0.0
  9
$UCSORTHOREF
  2

  9
$UCSORTHOVIEW
 70
     0
  9
$UCSORGTOP
 10
0.0
 20
0.0
 30
0.0
  9
$UCSORGBOTTOM
 10
0.0
 20
0.0
 30
0.0
  9
$UCSORGLEFT
 10
0.0
 20
0.0
 30
0.0
  9
$UCSORGRIGHT
 10
0.0
 20
0.0
 30
0.0
  9
$UCSORGFRONT
 10
0.0
 20
0.0
 30
0.0
  9
$UCSORGBACK
 10
0.0
 20
0.0
 30
0.0
  9
$PUCSBASE
  2

  9
$PUCSNAME
  2

  9
$PUCSORG
 10
0.0
 20
0.0
 30
0.0
  9
$PUCSXDIR
 10
1.0
 20
0.0
 30
0.0
  9
$PUCSYDIR
 10
0.0
 20
1.0
 30
0.0
  9
$PUCSORTHOREF
  2

  9
$PUCSORTHOVIEW
 70
     0
  9
$PUCSORGTOP
 10
0.0
 20
0.0
 30
0.0
  9
$PUCSORGBOTTOM
 10
0.0
 20
0.0
 30
0.0
  9
$PUCSORGLEFT
 10
0.0
 20
0.0
 30
0.0
  9
$PUCSORGRIGHT
 10
0.0
 20
0.0
 30
0.0
  9
$PUCSORGFRONT
 10
0.0
 20
0.0
 30
0.0
  9
$PUCSORGBACK
 10
0.0
 20
0.0
 30
0.0
  9
$USERI1
 70
     0
  9
$USERI2
 70
     0
  9
$USERI3
 70
     0
  9
$USERI4
 70
     0
  9
$USERI5
 70
     0
  9
$USERR1
 40
0.0
  9
$USERR2
 40
0.0
  9
$USERR3
 40
0.0
  9
$USERR4
 40
0.0
  9
$USERR5
 40
0.0
  9
$WORLDVIEW
 70
     1
  9
$SHADEDGE
 70
     3
  9
$SHADEDIF
 70
    70
  9
$TILEMODE
 70
     1
  9
$MAXACTVP
 70
    16
  9
$PINSBASE
 10
0.0
 20
0.0
 30
0.0
  9
$PLIMCHECK
 70
     0
  9
$PEXTMIN
 10
1.000000000000000E+20
 20
1.000000000000000E+20
 30
1.000000000000000E+20
  9
$PEXTMAX
 10
-1.000000000000000E+20
 20
-1.000000000000000E+20
 30
-1.000000000000000E+20
  9
$PLIMMIN
 10
0.0
 20
0.0
  9
$PLIMMAX
 10
12.0
 20
9.0
  9
$UNITMODE
 70
     0
  9
$VISRETAIN
 70
     0
  9
$PLINEGEN
 70
     0
  9
$PSLTSCALE
 70
     1
  9
$TREEDEPTH
 70
  3020
  9
$CMLSTYLE
  2
STANDARD
  9
$CMLJUST
 70
     0
  9
$CMLSCALE
 40
1.0
  9
$PROXYGRAPHICS
 70
     1
  9
$MEASUREMENT
 70
     0
  9
$CELWEIGHT
370
    -1
  9
$ENDCAPS
280
     0
  9
$JOINSTYLE
280
     0
  9
$LWDISPLAY
290
     0
  9
$INSUNITS
 70
     0
  9
$HYPERLINKBASE
  1

  9
$STYLESHEET
  1

  9
$XEDIT
290
     1
  9
$CEPSNTYPE
380
     0
  9
$PSTYLEMODE
290
     1
  9
$FINGERPRINTGUID
  2
{42EFE908-2054-459E-983E-A8CC895C747E}
  9
$VERSIONGUID
  2
{FCDC34CA-7392-485A-8AA5-55828F1AD2C8}
  9
$EXTNAMES
290
     1
  9
$PSVPSCALE
 40
0.0
  9
$OLESTARTUP
290
     0
  0
ENDSEC
  0
SECTION
  2
CLASSES
  0
CLASS
  1
ACDBDICTIONARYWDFLT
  2
AcDbDictionaryWithDefault
  3
AutoCAD 2000
 90
        0
280
     0
281
     0
  0
CLASS
  1
ACDBPLACEHOLDER
  2
AcDbPlaceHolder
  3
AutoCAD 2000
 90
        0
280
     0
281
     0
  0
CLASS
  1
LAYOUT
  2
AcDbLayout
  3
AutoCAD 2000
 90
        0
280
     0
281
     0
  0
ENDSEC
  0
SECTION
  2
TABLES
  0
TABLE
  2
VPORT
  5
8
330
0
100
AcDbSymbolTable
 70
     4
  0
VPORT
  5
885
330
8
100
AcDbSymbolTableRecord
100
AcDbViewportTableRecord
  2
*Active
 70
     0
 10
0.0
 20
0.0
 11
1.0
 21
1.0
 12
9.550884627391816
 22
11.70688518891721
 13
0.0
 23
0.0
 14
1.0
 24
1.0
 15
0.0
 25
0.0
 16
0.0
 26
0.0
 36
1.0
 17
0.0
 27
0.0
 37
0.0
 40
32.70794296099246
 41
2.357019064124783
 42
50.0
 43
0.0
 44
0.0
 50
0.0
 51
0.0
 71
     0
 72
  2000
 73
     1
 74
     2
 75
     0
 76
     0
 77
     0
 78
     0
281
     0
 65
     1
110
0.0
120
0.0
130
0.0
111
1.0
121
0.0
131
0.0
112
0.0
122
1.0
132
0.0
 79
     0
146
0.0
  0
ENDTAB
  0
TABLE
  2
LTYPE
  5
5
330
0
100
AcDbSymbolTable
 70
     4
  0
LTYPE
  5
14
330
5
100
AcDbSymbolTableRecord
100
AcDbLinetypeTableRecord
  2
BYBLOCK
 70
     0
  3

 72
    65
 73
     0
 40
0.0
  0
LTYPE
  5
15
330
5
100
AcDbSymbolTableRecord
100
AcDbLinetypeTableRecord
  2
BYLAYER
 70
     0
  3

 72
    65
 73
     0
 40
0.0
  0
LTYPE
  5
16
330
5
100
AcDbSymbolTableRecord
100
AcDbLinetypeTableRecord
  2
CONTINUOUS
 70
     0
  3
Solid line
 72
    65
 73
     0
 40
0.0
  0
LTYPE
  5
1CE
330
5
100
AcDbSymbolTableRecord
100
AcDbLinetypeTableRecord
  2
CENTER
 70
     0
  3
____ _ ____ _ ____ _ ____ _ ____ _ ____ _ ____ 
 72
    65
 73
     4
 40
2.0
 49
1.25
 74
     0
 49
-0.25
 74
     0
 49
0.25
 74
     0
 49
-0.25
 74
     0
  0
LTYPE
  5
1D1
330
5
100
AcDbSymbolTableRecord
100
AcDbLinetypeTableRecord
  2
HIDDEN
 70
     0
  3
__ __ __ __ __ __ __ __ __ __ __ __ __ __ __ __
 72
    65
 73
     2
 40
0.375
 49
0.25
 74
     0
 49
-0.125
 74
     0
  0
LTYPE
  5
1D4
330
5
100
AcDbSymbolTableRecord
100
AcDbLinetypeTableRecord
  2
PHANTOM
 70
     0
  3
______  __  __  ______  __  __  ______  __  __ 
 72
    65
 73
     6
 40
2.5
 49
1.25
 74
     0
 49
-0.25
 74
     0
 49
0.25
 74
     0
 49
-0.25
 74
     0
 49
0.25
 74
     0
 49
-0.25
 74
     0
  0
ENDTAB
  0
TABLE
  2
LAYER
  5
2
330
0
100
AcDbSymbolTable
 70
    11
  0
LAYER
  5
F
330
2
100
AcDbSymbolTableRecord
100
AcDbLayerTableRecord
  2
0
 70
     0
 62
     7
  6
CONTINUOUS
370
    -3
390
879
  0
LAYER
  5
1CD
330
2
100
AcDbSymbolTableRecord
100
AcDbLayerTableRecord
  2
CENTER
 70
     0
 62
     2
  6
CENTER
370
    -3
390
879
  0
LAYER
  5
1CF
330
2
100
AcDbSymbolTableRecord
100
AcDbLayerTableRecord
  2
DIM
 70
     0
 62
     1
  6
CONTINUOUS
370
    -3
390
879
  0
LAYER
  5
1D0
330
2
100
AcDbSymbolTableRecord
100
AcDbLayerTableRecord
  2
HIDDEN
 70
     0
 62
     5
  6
HIDDEN
370
    -3
390
879
  0
LAYER
  5
1D2
330
2
100
AcDbSymbolTableRecord
100
AcDbLayerTableRecord
  2
DEFPOINTS
 70
     0
 62
     8
  6
CONTINUOUS
290
     0
370
    -3
390
879
  0
LAYER
  5
1D3
330
2
100
AcDbSymbolTableRecord
100
AcDbLayerTableRecord
  2
PHANTOM
 70
     0
 62
     3
  6
PHANTOM
370
    -3
390
879
  0
LAYER
  5
1D6
330
2
100
AcDbSymbolTableRecord
100
AcDbLayerTableRecord
  2
TABLET
 70
     1
 62
    -9
  6
CONTINUOUS
370
    -3
390
879
  0
LAYER
  5
826
330
2
100
AcDbSymbolTableRecord
100
AcDbLayerTableRecord
  2
TBD
 70
     0
 62
     7
  6
CONTINUOUS
370
    -3
390
879
  0
LAYER
  5
880
330
2
100
AcDbSymbolTableRecord
100
AcDbLayerTableRecord
  2
TBB-B|TBB
 70
    48
 62
     7
  6
Continuous
370
    -3
390
879
  0
LAYER
  5
881
330
2
100
AcDbSymbolTableRecord
100
AcDbLayerTableRecord
  2
TBB-B|DIM
 70
    48
 62
     1
  6
Continuous
370
    -3
390
879
  0
LAYER
  5
882
330
2
100
AcDbSymbolTableRecord
100
AcDbLayerTableRecord
  2
TBB-B|TBD
 70
    48
 62
     7
  6
Continuous
370
    -3
390
879
  0
ENDTAB
  0
TABLE
  2
STYLE
  5
3
330
0
100
AcDbSymbolTable
 70
     2
  0
STYLE
  5
10
330
3
100
AcDbSymbolTableRecord
100
AcDbTextStyleTableRecord
  2
STANDARD
 70
     0
 40
0.0
 41
1.0
 50
0.0
 71
     0
 42
0.48
  3
romans
  4

  0
ENDTAB
  0
TABLE
  2
VIEW
  5
6
330
0
100
AcDbSymbolTable
 70
     2
  0
VIEW
  5
44
330
6
100
AcDbSymbolTableRecord
100
AcDbViewTableRecord
  2
EXT
 70
     0
 40
45.0
 10
10.91044258077509
 20
8.041914681927636
 41
66.00000000000001
 11
0.0
 21
0.0
 31
1.0
 12
0.0
 22
0.0
 32
0.0
 42
50.0
 43
0.0
 44
0.0
 50
0.0
 71
     0
281
     0
 72
     0
  0
VIEW
  5
45
330
6
100
AcDbSymbolTableRecord
100
AcDbViewTableRecord
  2
ALL
 70
     0
 40
48.99824999999999
 10
11.64469258077508
 20
8.542539681927635
 41
71.86410000000001
 11
0.0
 21
0.0
 31
1.0
 12
0.0
 22
0.0
 32
0.0
 42
50.0
 43
0.0
 44
0.0
 50
0.0
 71
     0
281
     0
 72
     0
  0
ENDTAB
  0
TABLE
  2
UCS
  5
7
330
0
100
AcDbSymbolTable
 70
     0
  0
ENDTAB
  0
TABLE
  2
APPID
  5
9
330
0
100
AcDbSymbolTable
 70
     1
  0
APPID
  5
11
330
9
100
AcDbSymbolTableRecord
100
AcDbRegAppTableRecord
  2
ACAD
 70
     0
  0
ENDTAB
  0
TABLE
  2
DIMSTYLE
  5
A
330
0
100
AcDbSymbolTable
 70
     3
100
AcDbDimStyleTable
 71
     0
  0
DIMSTYLE
105
9D
102
{ACAD_REACTORS
330
858
330
866
102
}
330
A
100
AcDbSymbolTableRecord
100
AcDbDimStyleTableRecord
  2
DEF
 70
     0
 41
0.12
 44
0.12
140
0.12
141
0.0
176
   256
177
   256
178
   256
271
     2
272
     2
288
     1
289
     0
340
10
  0
DIMSTYLE
105
827
330
A
100
AcDbSymbolTableRecord
100
AcDbDimStyleTableRecord
  2
STANDARD
 70
     0
340
10
  0
ENDTAB
  0
TABLE
  2
BLOCK_RECORD
  5
1
330
0
100
AcDbSymbolTable
 70
     4
  0
BLOCK_RECORD
  5
1A
330
1
100
AcDbSymbolTableRecord
100
AcDbBlockTableRecord
  2
*MODEL_SPACE
340
87C
  0
BLOCK_RECORD
  5
17
330
1
100
AcDbSymbolTableRecord
100
AcDbBlockTableRecord
  2
*PAPER_SPACE
340
87D
  0
BLOCK_RECORD
  5
81E
330
1
100
AcDbSymbolTableRecord
100
AcDbBlockTableRecord
  2
TBB-B
340
0
102
{BLKREFS
331
825
102
}
  0
BLOCK_RECORD
  5
828
330
1
100
AcDbSymbolTableRecord
100
AcDbBlockTableRecord
  2
TBD-B
340
0
102
{BLKREFS
331
839
102
}
  0
BLOCK_RECORD
  5
84B
330
1
100
AcDbSymbolTableRecord
100
AcDbBlockTableRecord
  2
*D2
340
0
  0
BLOCK_RECORD
  5
859
330
1
100
AcDbSymbolTableRecord
100
AcDbBlockTableRecord
  2
*D3
340
0
  0
ENDTAB
  0
ENDSEC
  0
SECTION
  2
BLOCKS
  0
BLOCK
  5
1B
330
1A
100
AcDbEntity
  8
0
100
AcDbBlockBegin
  2
*MODEL_SPACE
 70
     0
 10
0.0
 20
0.0
 30
0.0
  3
*MODEL_SPACE
  1

  0
ENDBLK
  5
1C
330
1A
100
AcDbEntity
  8
0
100
AcDbBlockEnd
  0
BLOCK
  5
18
330
17
100
AcDbEntity
 67
     1
  8
0
100
AcDbBlockBegin
  2
*PAPER_SPACE
 70
     0
 10
0.0
 20
0.0
 30
0.0
  3
*PAPER_SPACE
  1

  0
ENDBLK
  5
19
330
17
100
AcDbEntity
 67
     1
  8
0
100
AcDbBlockEnd
  0
BLOCK
  5
822
330
81E
100
AcDbEntity
  8
0
 62
     7
100
AcDbBlockBegin
  2
TBB-B
 70
    36
 10
0.0
 20
0.0
 30
0.0
  3
TBB-B
  1
tbb-b
  0
ENDBLK
  5
824
330
81E
100
AcDbEntity
  8
0
 62
     7
100
AcDbBlockEnd
  0
BLOCK
  5
837
330
828
100
AcDbEntity
  8
0
100
AcDbBlockBegin
  2
TBD-B
 70
     2
 10
0.0
 20
0.0
 30
0.0
  3
TBD-B
  1

  0
ATTDEF
  5
829
330
828
100
AcDbEntity
  8
TBD
  6
Continuous
100
AcDbText
 10
1.666199999999999
 20
0.8030888408149174
 30
0.0
 40
0.15
  1
XXXXX-XX
100
AcDbAttributeDefinition
  3
ANCHOR DRAWING #
  2
ANCHOR_DWG_NUM
 70
     0
  0
ATTDEF
  5
82A
330
828
100
AcDbEntity
  8
TBD
  6
Continuous
100
AcDbText
 10
2.229499999999999
 20
0.5665888408149176
 30
0.0
 40
0.12
  1

100
AcDbAttributeDefinition
  3
MATERIAL
  2
MATERIAL
 70
     0
  0
ATTDEF
  5
82B
330
828
100
AcDbEntity
  8
TBD
  6
Continuous
100
AcDbText
 10
2.229499999999999
 20
0.3275456874870537
 30
0.0
 40
0.12
  1

100
AcDbAttributeDefinition
  3
THICKNESS
  2
THICK
 70
     0
  0
ATTDEF
  5
82C
330
828
100
AcDbEntity
  8
TBD
  6
Continuous
100
AcDbText
 10
2.356745504110614
 20
0.076153351797957
 30
0.0
 40
0.1
  1

 72
     1
 11
2.559126456491567
 21
0.076153351797957
 31
0.0
100
AcDbAttributeDefinition
  3
SHORT DIM
  2
WIDTH
 70
     0
  0
ATTDEF
  5
82D
330
828
100
AcDbEntity
  8
TBD
  6
Continuous
100
AcDbText
 10
3.403788595087522
 20
0.076153351797957
 30
0.0
 40
0.1
  1

 72
     1
 11
3.668074309373237
 21
0.076153351797957
 31
0.0
100
AcDbAttributeDefinition
  3
LONG DIM
  2
LENGTH
 70
     0
  0
ATTDEF
  5
82E
330
828
100
AcDbEntity
  8
TBD
  6
Continuous
100
AcDbText
 10
0.7464274317269286
 20
0.5665888408149176
 30
0.0
 40
0.12
  1

100
AcDbAttributeDefinition
  3
DRAWN BY
  2
DRAWN_BY
 70
     0
  0
ATTDEF
  5
82F
330
828
100
AcDbEntity
  8
TBD
  6
Continuous
100
AcDbText
 10
0.4168557589617432
 20
0.3275456874870537
 30
0.0
 40
0.1
  1

100
AcDbAttributeDefinition
  3
DATE DRAWN
  2
DATE_DRAWN
 70
     0
  0
ATTDEF
  5
830
330
828
100
AcDbEntity
  8
TBD
  6
Continuous
100
AcDbText
 10
0.4168557589617428
 20
0.076153351797957
 30
0.0
 40
0.1
  1

100
AcDbAttributeDefinition
  3
DATE REVISED
  2
DATE_REV
 70
     0
  0
ATTDEF
  5
831
330
828
100
AcDbEntity
  8
TBD
  6
Continuous
100
AcDbText
 10
6.516604694766606
 20
0.8030888408149174
 30
0.0
 40
0.15
  1

100
AcDbAttributeDefinition
  3
CUSTOMER NAME
  2
CUST_NAME
 70
     0
  0
ATTDEF
  5
832
330
828
100
AcDbEntity
  8
TBD
  6
Continuous
100
AcDbText
 10
6.508912260617928
 20
0.5665888408149172
 30
0.0
 40
0.12
  1

100
AcDbAttributeDefinition
  3
PART DESCRIPTION
  2
PART_DESC
 70
     0
  0
ATTDEF
  5
833
330
828
100
AcDbEntity
  8
TBD
  6
Continuous
100
AcDbText
 10
6.52078187334749
 20
0.3275456874870537
 30
0.0
 40
0.12
  1

100
AcDbAttributeDefinition
  3
CUSTOMER PART NUMBER
  2
CUST_PART_NUM
 70
     0
  0
ATTDEF
  5
834
330
828
100
AcDbEntity
  8
TBD
  6
Continuous
100
AcDbText
 10
6.52078187334749
 20
0.0761533517979571
 30
0.0
 40
0.12
  1

100
AcDbAttributeDefinition
  3
CUSTOMER DRAWING #
  2
CUST_DWG_NUM
 70
     0
  0
ATTDEF
  5
835
330
828
100
AcDbEntity
  8
TBD
  6
Continuous
100
AcDbText
 10
9.949545814714609
 20
0.0761533517979571
 30
0.0
 40
0.12
  1

100
AcDbAttributeDefinition
  3
REVISION NUMBER
  2
REV_NUM
 70
     0
  0
ATTDEF
  5
836
330
828
100
AcDbEntity
  8
TBD
 62
     1
100
AcDbText
 10
10.37333333333333
 20
-0.25
 30
0.0
 40
0.08
  1

 72
     2
 11
10.79999999999999
 21
-0.25
 31
0.0
100
AcDbAttributeDefinition
  3
Plot Date
  2
PLDATE
 70
     0
  0
ENDBLK
  5
838
330
828
100
AcDbEntity
  8
0
100
AcDbBlockEnd
  0
BLOCK
  5
867
330
84B
100
AcDbEntity
  8
0
100
AcDbBlockBegin
  2
*D2
 70
     1
 10
0.0
 20
0.0
 30
0.0
  3
*D2
  1
tbb-b
  0
LINE
  5
868
330
84B
100
AcDbEntity
  8
0
  6
ByBlock
100
AcDbLine
 10
11.20800904036152
 20
-2.799516808773955
 30
0.0
 11
-3.312961391108313
 21
-2.799516808773955
 31
0.0
  0
LINE
  5
869
330
84B
100
AcDbEntity
  8
0
  6
ByBlock
100
AcDbLine
 10
13.47103663052694
 20
27.89186431893105
 30
0.0
 11
-3.312961391108313
 21
27.89186431893105
 31
0.0
  0
LINE
  5
86A
330
84B
100
AcDbEntity
  8
0
  6
ByBlock
100
AcDbLine
 10
-2.832961391108312
 20
-2.319516808773955
 30
0.0
 11
-2.832961391108312
 21
10.27152410853518
 31
0.0
  0
LINE
  5
86B
330
84B
100
AcDbEntity
  8
0
  6
ByBlock
100
AcDbLine
 10
-2.832961391108312
 20
27.41186431893105
 30
0.0
 11
-2.832961391108312
 21
11.47152410853518
 31
0.0
  0
SOLID
  5
86C
330
84B
100
AcDbEntity
  8
0
  6
ByBlock
100
AcDbTrace
 10
-2.912961391108312
 20
-2.319516808773955
 30
0.0
 11
-2.752961391108312
 21
-2.319516808773955
 31
0.0
 12
-2.832961391108312
 22
-2.799516808773955
 32
0.0
 13
-2.832961391108312
 23
-2.799516808773955
 33
0.0
  0
SOLID
  5
86D
330
84B
100
AcDbEntity
  8
0
  6
ByBlock
100
AcDbTrace
 10
-2.912961391108312
 20
27.41186431893105
 30
0.0
 11
-2.752961391108312
 21
27.41186431893105
 31
0.0
 12
-2.832961391108312
 22
27.89186431893105
 32
0.0
 13
-2.832961391108312
 23
27.89186431893105
 33
0.0
  0
MTEXT
  5
86E
330
84B
100
AcDbEntity
  8
0
  6
ByBlock
100
AcDbMText
 10
-2.832961391108312
 20
10.87152410853518
 30
0.0
 40
0.48
 41
0.0
 71
     5
 72
     5
  1
\A1;30.69
 73
     1
 44
1.0
  0
POINT
  5
86F
330
84B
100
AcDbEntity
  8
DEFPOINTS
  6
ByBlock
 62
     0
100
AcDbPoint
 10
11.45800904036152
 20
-2.799516808773955
 30
0.0
  0
POINT
  5
870
330
84B
100
AcDbEntity
  8
DEFPOINTS
  6
ByBlock
 62
     0
100
AcDbPoint
 10
13.72103663052694
 20
27.89186431893105
 30
0.0
  0
POINT
  5
871
330
84B
100
AcDbEntity
  8
DEFPOINTS
  6
ByBlock
 62
     0
100
AcDbPoint
 10
-2.832961391108312
 20
27.89186431893105
 30
0.0
  0
ENDBLK
  5
872
330
84B
100
AcDbEntity
  8
0
100
AcDbBlockEnd
  0
BLOCK
  5
85A
330
859
100
AcDbEntity
  8
0
100
AcDbBlockBegin
  2
*D3
 70
     1
 10
0.0
 20
0.0
 30
0.0
  3
*D3
  1
tbb-b
  0
LINE
  5
85B
330
859
100
AcDbEntity
  8
0
  6
ByBlock
100
AcDbLine
 10
2.795235132514495
 20
2.602083204415603
 30
0.0
 11
2.795235132514495
 21
-4.478145997766542
 31
0.0
  0
LINE
  5
85C
330
859
100
AcDbEntity
  8
0
  6
ByBlock
100
AcDbLine
 10
22.87349131359703
 20
19.29535550419932
 30
0.0
 11
22.87349131359703
 21
-4.478145997766542
 31
0.0
  0
LINE
  5
85D
330
859
100
AcDbEntity
  8
0
  6
ByBlock
100
AcDbLine
 10
3.275235132514495
 20
-3.998145997766542
 30
0.0
 11
11.17631942601189
 21
-3.998145997766542
 31
0.0
  0
LINE
  5
85E
330
859
100
AcDbEntity
  8
0
  6
ByBlock
100
AcDbLine
 10
22.39349131359703
 20
-3.998145997766542
 30
0.0
 11
13.81631942601189
 21
-3.998145997766542
 31
0.0
  0
SOLID
  5
85F
330
859
100
AcDbEntity
  8
0
  6
ByBlock
100
AcDbTrace
 10
3.275235132514495
 20
-3.918145997766542
 30
0.0
 11
3.275235132514495
 21
-4.078145997766542
 31
0.0
 12
2.795235132514495
 22
-3.998145997766542
 32
0.0
 13
2.795235132514495
 23
-3.998145997766542
 33
0.0
  0
SOLID
  5
860
330
859
100
AcDbEntity
  8
0
  6
ByBlock
100
AcDbTrace
 10
22.39349131359703
 20
-3.918145997766542
 30
0.0
 11
22.39349131359703
 21
-4.078145997766542
 31
0.0
 12
22.87349131359703
 22
-3.998145997766542
 32
0.0
 13
22.87349131359703
 23
-3.998145997766542
 33
0.0
  0
MTEXT
  5
861
330
859
100
AcDbEntity
  8
0
  6
ByBlock
100
AcDbMText
 10
12.49631942601189
 20
-3.998145997766542
 30
0.0
 40
0.48
 41
0.0
 71
     5
 72
     5
  1
\A1;20.08
 73
     1
 44
1.0
  0
POINT
  5
862
330
859
100
AcDbEntity
  8
DEFPOINTS
  6
ByBlock
 62
     0
100
AcDbPoint
 10
2.795235132514495
 20
2.852083204415603
 30
0.0
  0
POINT
  5
863
330
859
100
AcDbEntity
  8
DEFPOINTS
  6
ByBlock
 62
     0
100
AcDbPoint
 10
22.87349131359703
 20
19.54535550419932
 30
0.0
  0
POINT
  5
864
330
859
100
AcDbEntity
  8
DEFPOINTS
  6
ByBlock
 62
     0
100
AcDbPoint
 10
22.87349131359703
 20
-3.998145997766542
 30
0.0
  0
ENDBLK
  5
865
330
859
100
AcDbEntity
  8
0
100
AcDbBlockEnd
  0
ENDSEC
  0
SECTION
  2
ENTITIES
  0
LWPOLYLINE
  5
1A8
330
1A
100
AcDbEntity
  8
TABLET
100
AcDbPolyline
 90
        4
 70
     1
 43
0.0
 10
0.0
 20
0.0
 10
10.41786036610383
 20
-3.531031774476531
 10
13.94889214058036
 20
6.886828591627303
 10
3.531031774476531
 20
10.41786036610383
  0
LWPOLYLINE
  5
1AE
330
1A
100
AcDbEntity
  8
TABLET
100
AcDbPolyline
 90
        4
 70
     1
 43
0.0
 10
3.531031774476531
 20
10.41786036610383
 10
13.94889214058036
 20
6.886828591627303
 10
17.47992391505689
 20
17.30468895773113
 10
7.062063548953062
 20
20.83572073220766
  0
LWPOLYLINE
  5
1B4
330
1A
100
AcDbEntity
  8
TABLET
100
AcDbPolyline
 90
        4
 70
     1
 43
0.0
 10
7.062063548953062
 20
20.83572073220766
 10
17.47992391505689
 20
17.30468895773113
 10
21.01095568953343
 20
27.72254932383497
 10
10.59309532342959
 20
31.2535810983115
  0
LWPOLYLINE
  5
1BA
330
1A
100
AcDbEntity
  8
TABLET
100
AcDbPolyline
 90
        4
 70
     1
 43
0.0
 10
10.41786036610383
 20
-3.531031774476531
 10
20.83572073220766
 20
-7.062063548953062
 10
24.3667525066842
 20
3.355796817150771
 10
13.94889214058036
 20
6.886828591627303
  0
LWPOLYLINE
  5
1C0
330
1A
100
AcDbEntity
  8
TABLET
100
AcDbPolyline
 90
        4
 70
     1
 43
0.0
 10
13.94889214058036
 20
6.886828591627303
 10
24.3667525066842
 20
3.355796817150771
 10
27.89778428116073
 20
13.7736571832546
 10
17.47992391505689
 20
17.30468895773113
  0
LWPOLYLINE
  5
1C6
330
1A
100
AcDbEntity
  8
TABLET
100
AcDbPolyline
 90
        4
 70
     1
 43
0.0
 10
17.47992391505689
 20
17.30468895773113
 10
27.89778428116073
 20
13.7736571832546
 10
31.42881605563726
 20
24.19151754935844
 10
21.01095568953343
 20
27.72254932383497
  0
LWPOLYLINE
  5
2AC
330
1A
100
AcDbEntity
  8
0
100
AcDbPolyline
 90
        7
 70
     1
 43
0.0
 10
8.305711856128283
 20
21.70195443607292
 42
0.1113501252812535
 10
8.415711698981613
 20
21.51494450313177
 42
-0.118847425665651
 10
8.514884087763213
 20
21.81819730115631
 42
0.0409600362455132
 10
8.741895168083811
 20
22.39391783998379
 42
0.0507707946948459
 10
8.806550801968683
 20
22.68559693262531
 42
0.0754637831919892
 10
8.53226496705386
 20
22.57971696817631
 42
0.1496129647602304
 10
8.313752430694758
 20
22.24812723286158
 42
0.2507953014849487
  0
LWPOLYLINE
  5
2B5
330
1A
100
AcDbEntity
  8
0
100
AcDbPolyline
 90
        4
 70
     1
 43
0.0
 10
15.96876265481961
 20
21.55421828000228
 42
-0.103129069905978
 10
16.39531957481546
 20
21.18860206401367
 42
0.0580434188095396
 10
15.89251119447911
 20
20.78089921492283
 42
0.0208810403190412
 10
15.64817023532028
 20
21.58324265334172
 42
-0.2016334931131564
  0
ARC
  5
3CB
330
1A
100
AcDbEntity
  8
0
100
AcDbCircle
 10
9.751817923725397
 20
19.94277947757936
 30
0.0
 40
0.9140824104973304
100
AcDbArc
 50
194.7619319691268
 51
231.0623615055148
  0
ARC
  5
3CC
330
1A
100
AcDbEntity
  8
0
100
AcDbCircle
 10
3.428979305794607
 20
18.86266719717024
 30
0.0
 40
5.504514608710914
100
AcDbArc
 50
8.853597874948986
 51
13.5601916071664
  0
ARC
  5
3CD
330
1A
100
AcDbEntity
  8
0
100
AcDbCircle
 10
8.838093813449852
 20
20.15209302664389
 30
0.0
 40
0.0580553783658064
100
AcDbArc
 50
44.04687569083814
 51
178.8157929087895
  0
ARC
  5
3CE
330
1A
100
AcDbEntity
  8
0
100
AcDbCircle
 10
8.82527138118546
 20
19.94202262473207
 30
0.0
 40
0.2563056780048036
100
AcDbArc
 50
11.49626894053305
 51
77.71142340711965
  0
ARC
  5
3CF
330
1A
100
AcDbEntity
  8
0
100
AcDbCircle
 10
6.837588337813633
 20
19.28712307697037
 30
0.0
 40
2.347518967939256
100
AcDbArc
 50
5.349785423107054
 51
17.50178520784995
  0
ARC
  5
3D0
330
1A
100
AcDbEntity
  8
0
100
AcDbCircle
 10
7.087771131212349
 20
19.3501595019614
 30
0.0
 40
2.092920275214438
100
AcDbArc
 50
356.7574669207643
 51
4.270125540281361
  0
LWPOLYLINE
  5
718
330
1A
100
AcDbEntity
  8
0
100
AcDbPolyline
 90
      257
 70
     1
 43
0.0
 10
13.41476601158324
 20
-1.091537598748191
 42
0.1010495367136009
 10
13.32561100555507
 20
-1.252505005000819
 42
0.1971224511731253
 10
13.34132732579857
 20
-1.618807077741506
 42
0.0751884172190197
 10
13.57975761252384
 20
-1.969491324019386
 42
0.0927266954133633
 10
13.94901721616206
 20
-2.264049380169643
 42
0.3891398454441057
 10
14.11810674869932
 20
-2.210279400234687
 42
0.1504840544917549
 10
14.21504055781204
 20
-1.913659999850205
 42
0.0709259816345552
 10
14.2365405258584
 20
-1.490251014271038
 42
0.1237272561148772
 10
14.1329396092457
 20
-0.9433467135528221
 42
-0.0268690490103774
 10
13.99762435427166
 20
-0.6749605776677426
 42
-0.2216328143677501
 10
13.99338982967281
 20
-0.4529214945343134
 42
0.1744110942116316
 10
13.81798090219733
 20
0.1752156578183284
 42
0.0653864535103213
 10
13.5252042459696
 20
0.5400180285103904
 42
-0.2665447374076041
 10
13.4585247516884
 20
0.6395756136920073
 42
-0.0369890434117115
 10
12.56950467288254
 20
2.773613152486742
 42
0.0061409200018467
 10
12.39461551439346
 20
3.456463523646923
 42
-0.1722168307178965
 10
12.51130774441373
 20
4.643632950595799
 42
-0.0086583811148194
 10
12.71576395594982
 20
5.277631528491626
 42
0.0934531714629522
 10
12.94537247617
 20
6.636749525094602
 42
-0.026528110674142
 10
12.9327150772715
 20
7.229499669639523
 42
0.0164928533356162
 10
12.70754298136807
 20
9.274090408439548
 42
0.0220134777194555
 10
13.73158674334642
 20
10.70710787028661
 42
0.1149988502379038
 10
15.20343553878642
 20
14.59621382232294
 42
0.0340261036977681
 10
15.54465396907654
 20
17.92079349942568
 42
-0.1364180608805776
 10
15.56478885294155
 20
17.98465750306381
 42
-0.0465796540465466
 10
15.86740277941033
 20
18.36688418975129
 42
0.1316682599016908
 10
16.06980862011589
 20
19.0448522787819
 42
0.0910096911196524
 10
16.64464411994898
 20
19.60030279105485
 42
0.0047449697341265
 10
16.88985273492098
 20
20.05166053319502
 42
-0.1362219580918052
 10
17.13993327400236
 20
20.36731922899363
 42
0.0298598597905783
 10
17.26374320722688
 20
20.23687071911899
 42
-0.2584866670041603
 10
17.36221859158756
 20
20.01258348794506
 42
0.1176482260614069
 10
17.52031440802234
 20
19.66156548683847
 42
0.0004041659529543
 10
17.34835328566735
 20
19.34593251182546
 42
0.1775883618849294
 10
17.32728117686884
 20
18.86749051034317
 42
0.0867169196727832
 10
17.5946806213846
 20
18.2273091305115
 42
0.5166713574049196
 10
17.71505293324397
 20
18.19302026297191
 42
0.1334289926237766
 10
17.80927983527247
 20
18.27205421345613
 42
0.0542533694632284
 10
18.04208197578877
 20
18.53179415237121
 42
0.256826301476274
 10
18.16934783877113
 20
19.33275824166747
 42
0.01170673173642
 10
18.11485372859774
 20
19.5622585254704
 42
-0.2118236458702404
 10
18.14488454543347
 20
19.89834455686623
 42
0.2902333935603592
 10
18.15347938849489
 20
20.08333203444319
 42
0.255772338480465
 10
17.96877720850487
 20
20.50877304375819
 42
-0.1077759524131569
 10
17.60538938842997
 20
20.936460006433
 42
-0.0355819704456914
 10
18.16713453876904
 20
21.54382790502022
 42
0.1637115332891946
 10
18.61257642946559
 20
21.49378145942116
 42
0.1004375720705533
 10
18.85781217025536
 20
21.35718842109721
 42
-0.0424179759371848
 10
20.76216573213489
 20
20.35510926826514
 42
0.1821390594818019
 10
21.13811535399438
 20
20.15857082176141
 42
-0.2965004166271838
 10
21.31519244022983
 20
20.06397926510852
 42
-0.2447080714085343
 10
21.40198825173589
 20
19.84574465264548
 42
0.2814341527375015
 10
21.64429139276513
 20
19.51591999057435
 42
0.1030087375051478
 10
22.24563098839483
 20
19.37420721439207
 42
0.0969363993580266
 10
22.81846457463918
 20
19.47644660125576
 42
0.6695073682421623
 10
22.84028310166426
 20
19.60527377574089
 42
-0.0323932843686488
 10
22.31812722495536
 20
20.15829351324899
 42
0.1900939384178655
 10
21.72057375290128
 20
20.46761666169547
 42
0.1404332066256148
 10
21.41140290875236
 20
20.84639600017324
 42
0.1172805468047102
 10
21.04163749386091
 20
21.00495873899104
 42
-0.1272692756937105
 10
20.66924312389056
 20
21.13696436114399
 42
-0.0245432340805013
 10
19.0763276909438
 20
22.02971995950337
 42
-0.2880412016675593
 10
18.87946804231225
 20
22.16265407314718
 42
0.1149345247032309
 10
18.58302289303301
 20
22.39147288955949
 42
0.1010329617955027
 10
18.43611699061358
 20
22.43471607577482
 42
0.1937337093487023
 10
18.08509460014547
 20
22.44550981998653
 42
0.1342809276671954
 10
17.64653234154078
 20
22.13434742026905
 42
-0.0451488722370184
 10
16.92004322974519
 20
21.53613161756762
 42
0.0599227474845663
 10
16.61543408098171
 20
21.86587174359117
 42
0.007270355509484
 10
16.2415422036436
 20
22.19049292140495
 42
-0.1739939202820737
 10
16.00852713611884
 20
22.46651670374562
 42
0.1649129159479477
 10
15.69311985378217
 20
22.61412399994751
 42
-0.0895916330638949
 10
15.36442663942219
 20
22.59099353124397
 42
0.1201957045352908
 10
14.92987619706948
 20
22.42308767763757
 42
0.3103535343106759
 10
14.78609250828118
 20
22.20033403263715
 42
0.0506567901795501
 10
14.77769026341965
 20
21.89705990318859
 42
-0.034334862095332
 10
14.75970586874365
 20
21.56851960850981
 42
-0.0624019708324395
 10
14.68512256716317
 20
21.32874613913017
 42
-0.2476402115354715
 10
14.44608718575539
 20
21.26163659092019
 42
-0.0438930145040755
 10
14.25703425567457
 20
21.36765850164653
 42
0.0460528854581595
 10
13.78294519896388
 20
21.62370492871047
 42
0.0936372179698764
 10
13.23983878487368
 20
21.69087706616033
 42
-0.2667030749260393
 10
13.1418522697037
 20
21.79149991010009
 42
0.0018796926066894
 10
12.99241230627312
 20
22.25887401745258
 42
-0.0849586152923781
 10
12.80799761855081
 20
23.01671641269786
 42
-0.1830074815076264
 10
12.96982890663864
 20
23.41493420072273
 42
-0.2003610264520632
 10
13.53077636409529
 20
23.72279495669374
 42
-0.2228793245247306
 10
13.78732263375375
 20
23.65099572455413
 42
0.0596578034393378
 10
13.97906552885624
 20
23.50289955916156
 42
0.1101752698439283
 10
14.4386460857426
 20
23.17258304357041
 42
0.1591674014260816
 10
14.98816239947723
 20
23.0430813722815
 42
-0.0121564113318184
 10
15.26959402732757
 20
23.0293837334242
 42
-0.0567128036720801
 10
15.82083652543563
 20
23.02385448341265
 42
-0.1623474131484897
 10
16.13871984317001
 20
22.86168944049609
 42
0.0028146138100922
 10
16.23352015043677
 20
22.75475299601189
 42
0.3056900203752355
 10
16.49405909960395
 20
22.65099538574005
 42
-0.1567526733498715
 10
16.75396802295163
 20
22.63294998112128
 42
0.1316772721619429
 10
17.11239060414652
 20
22.74104719381517
 42
0.1669521586973299
 10
17.46607802849931
 20
23.19168519507819
 42
0.2664733894076978
 10
17.48052332370009
 20
23.41903143525972
 42
-0.087134303410314
 10
17.38898717634181
 20
23.72330981352388
 42
0.2296487491772253
 10
17.15309393495699
 20
23.99080494175589
 42
-0.0084400917512973
 10
16.42713573981651
 20
24.38568298681272
 42
-0.0852877089987545
 10
15.83969375493491
 20
24.86259298141858
 42
-0.2211440162913302
 10
15.70266925765005
 20
25.26666640059289
 42
0.0813808534430015
 10
15.71356149564246
 20
25.47410068480195
 42
0.30912507725219
 10
15.58433414853663
 20
25.76365443893702
 42
0.0890299331125712
 10
15.01745986623253
 20
26.07317975395506
 42
-0.1449829981733353
 10
14.06269321269997
 20
26.68460669526879
 42
-0.2020803393524164
 10
13.98276825456269
 20
26.8794115837082
 42
0.0193625576158716
 10
13.94048085992119
 20
27.32962471005165
 42
0.0588326472135281
 10
13.75331221290498
 20
27.85723092820396
 42
1.079618846574707
 10
13.6887911516066
 20
27.85683835811322
 42
0.0865357064132669
 10
13.45826748224491
 20
27.52719093147666
 42
0.0717964985921626
 10
13.32459229629975
 20
27.13108232954431
 42
-0.1018924436579056
 10
13.24200449895858
 20
26.78001069218582
 42
0.1445453503547955
 10
12.47009919484793
 20
27.15133918801425
 42
0.1110246666883432
 10
12.4825704919263
 20
26.76291010573694
 42
0.058460788022707
 10
12.61899068417723
 20
26.36642947548934
 42
-0.0290527990062647
 10
12.3209435650908
 20
26.24956834763886
 42
-0.2240873538351269
 10
11.87643753957614
 20
26.29613231434392
 42
0.1474307748837357
 10
11.3522131118573
 20
26.33793241909199
 42
0.1420463815034903
 10
10.80174618555906
 20
26.12681208438514
 42
0.0376156427383568
 10
10.10605169935667
 20
25.64487004656275
 42
0.0336035578470567
 10
9.48961466163411
 20
25.12879206088197
 42
-0.1669597559254792
 10
8.91541656131138
 20
24.65968158540082
 42
0.0854422984826346
 10
8.288802637111825
 20
24.21353768553796
 42
0.2012132684580629
 10
8.019644529130049
 20
23.70059587122168
 42
-0.0219383203660435
 10
7.972857064429386
 20
23.19599889153692
 42
-0.0476927769433062
 10
7.795696057530018
 20
22.41767850877175
 42
-0.0189635692363975
 10
7.715297592967415
 20
22.1450343221828
 42
0.1084088500610774
 10
7.728556224908015
 20
21.54311833698551
 42
0.2637337199827092
 10
7.95010564920213
 20
21.24563066540419
 42
0.0786268422358448
 10
8.284891160791723
 20
21.12103919171117
 42
0.0702563961406238
 10
8.282268000106491
 20
20.41576115066262
 42
0.0967887576029104
 10
8.552129609949325
 20
19.50293537127451
 42
-0.0706019973699292
 10
8.794282025978176
 20
19.04755106550065
 42
0.071893015238218
 10
9.221031544173987
 20
18.56364819764047
 42
-0.1817129833132274
 10
9.381662211268389
 20
18.21388585881132
 42
-0.0451370015364806
 10
9.490589421672666
 20
17.82351666253661
 42
-0.0870474809035813
 10
9.565274027098286
 20
16.90003929818169
 42
-0.0877081373047574
 10
9.2896492246257
 20
14.98856429782204
 42
-0.073833930117086
 10
8.362704569877257
 20
12.96122583438515
 42
-0.0102742054100822
 10
7.635866166222636
 20
11.67385343366994
 42
0.1044341599664844
 10
6.925364627922011
 20
9.507490541073265
 42
-0.2909052274231781
 10
6.777573424580622
 20
9.311959540681225
 42
-0.1477798456729551
 10
6.686853404862123
 20
9.326204651024374
 42
0.0687038306850154
 10
6.207177072526444
 20
9.440581754402645
 42
-0.1092795336044525
 10
6.003178215001746
 20
9.439759130383219
 42
-0.333333333330501
 10
5.85637818005392
 20
9.511466452784404
 42
0.1139655878422795
 10
5.747506800582409
 20
9.57670725495994
 42
-0.2915111875327032
 10
5.661627717514969
 20
9.616244464285697
 42
0.1053459624946296
 10
5.599339969212909
 20
9.705357020432909
 42
-0.1706040155232331
 10
5.244144853737104
 20
10.29494505986138
 42
-0.164408327110175
 10
5.174736505563988
 20
11.02136499837478
 42
0.1309321794871585
 10
5.005314007846587
 20
11.47331607214505
 42
0.2597065713951344
 10
4.573799838045231
 20
11.61155075879477
 42
0.216067227412405
 10
4.238230591306384
 20
11.35535299134686
 42
0.1435863182882009
 10
3.830082766640181
 20
10.29293015245296
 42
0.0487798515757667
 10
3.850487894562392
 20
8.296849865431614
 42
-0.0050301459249566
 10
4.134138791073541
 20
6.753966169403661
 42
-0.0399880552000054
 10
4.247439488024773
 20
6.26395485189993
 42
-0.2169599928076434
 10
4.140443438630001
 20
5.727954552226515
 42
-0.0288005717938711
 10
3.816997776407639
 20
5.244944271316514
 42
0.103629977652587
 10
2.980702035342294
 20
3.780233802532282
 42
0.1339039508206576
 10
2.818194284609007
 20
2.519859545814462
 42
0.1856938972206608
 10
3.037366167286153
 20
2.093341514688778
 42
0.2817816110186288
 10
3.494609650722843
 20
1.899979707716718
 42
-0.3073683280322262
 10
3.900551815931599
 20
1.689097444122202
 42
0.0952148870382061
 10
4.201435851062237
 20
1.123115574503362
 42
0.0963090104220091
 10
4.507369045736807
 20
0.8942614689338979
 42
0.2700043016285083
 10
4.761745119360102
 20
0.9192497102678444
 42
0.1829137300661787
 10
4.862067302947394
 20
1.191503521447038
 42
0.3459687767401879
 10
4.708666964835993
 20
1.359382249235623
 42
0.221354007664505
 10
4.487027825484227
 20
1.462678905783304
 42
-0.2132938739564352
 10
4.256632144666615
 20
1.677652342666979
 42
-0.3754931555629776
 10
4.391816601032019
 20
1.884308070737032
 42
-0.1916126751830963
 10
4.62505297187165
 20
1.752820022889624
 42
0.277460480524591
 10
4.855564088532357
 20
1.653918184313184
 42
0.4124590516146078
 10
4.960475882971532
 20
1.714568585988414
 42
0.2360679775006498
 10
4.992072590808708
 20
1.961459932837202
 42
0.1766260683285536
 10
4.690139449333755
 20
2.330407902719323
 42
-0.1904253746696955
 10
4.359476800477839
 20
2.88321708147734
 42
-0.1139069065911746
 10
4.441747785052769
 20
3.574282893692874
 42
-0.188269468345531
 10
4.61285757827351
 20
3.831092339865579
 42
-0.1105068823746034
 10
4.890578839872688
 20
3.925257442302818
 42
-0.1737383475688234
 10
5.237779817607996
 20
3.737365280431688
 42
0.0435505080397709
 10
5.82568495089473
 20
3.214910315317992
 42
0.0934762319671987
 10
6.340390433422627
 20
2.994767893685397
 42
0.1988187810916314
 10
6.705754446300604
 20
3.098411473146345
 42
0.2047503863036834
 10
6.86502955230466
 20
3.404603454973588
 42
0.1186785580659354
 10
6.853150797208031
 20
3.782277066525782
 42
-0.1607917467504836
 10
6.894800176955468
 20
4.180941850541882
 42
0.1157446001346303
 10
6.993352108289287
 20
4.657514316341089
 42
0.093980953579592
 10
6.946032496166242
 20
5.030259383202663
 42
0.2617413967159858
 10
6.842785876157796
 20
5.162212774136142
 42
0.4575369605020238
 10
6.653593984128877
 20
5.145837722957907
 42
0.1648142645555637
 10
6.563352387918283
 20
4.862793151896601
 42
0.0797238650051885
 10
6.576235391830494
 20
4.585057932564192
 42
-0.1836639311211566
 10
6.510822533230578
 20
4.259856765469861
 42
0.0021878230389924
 10
6.361564809979532
 20
4.095950175414252
 42
-0.2644082017474237
 10
5.99007101603413
 20
4.214985273278197
 42
-0.0842543466759141
 10
5.73084215504478
 20
4.500911002528846
 42
-0.0649139238749254
 10
5.534427307723813
 20
4.838471804836283
 42
-0.1643415569489512
 10
5.562967201234168
 20
5.113839050923292
 42
-0.137491819991633
 10
5.851890929549634
 20
5.328778603682235
 42
0.1567120738524327
 10
6.426942553687451
 20
5.772267827680407
 42
0.1748569425506532
 10
6.825581001534359
 20
6.743955811811423
 42
0.0698861449617913
 10
6.831127193608459
 20
7.554858014485514
 42
-0.1914864846716312
 10
6.963693052914956
 20
8.247950671427295
 42
0.0445340533071844
 10
7.903944448316014
 20
6.45498345198916
 42
0.002306239135925
 10
8.636753570433413
 20
5.43607417525089
 42
-0.1138927001556092
 10
8.961554004097637
 20
4.837743552089843
 42
-0.1910202355945819
 10
8.998101203433117
 20
4.204746238680206
 42
-0.0812799888915239
 10
8.846360071093656
 20
3.883345152894665
 42
0.027112325475487
 10
8.527365847423622
 20
3.491721083991044
 42
0.2584605799372448
 10
8.293603738939015
 20
2.886612306848229
 42
0.0714258037369207
 10
8.332582905791856
 20
2.567348322621527
 42
0.1132175000805719
 10
8.493627474401067
 20
2.243835066414054
 42
0.0124059351249402
 10
9.054008726045445
 20
1.549113929231577
 42
-0.0175775549285158
 10
10.49679716192905
 20
-0.3342787058940542
 42
-0.1779472357803046
 10
10.58269239741063
 20
-0.5395427940678173
 42
0.089191962324855
 10
10.69315538866893
 20
-0.7720976975167502
 42
0.0624356980550477
 10
10.85520420609362
 20
-0.9956725615044579
 42
-0.0791357564676918
 10
10.97245131999253
 20
-1.104906400919589
 42
-0.1800535729936673
 10
11.04139292004752
 20
-1.191505224864184
 42
-0.4942542839090249
 10
11.0357585922132
 20
-1.345825275743854
 42
0.021287541619328
 10
10.93361910416222
 20
-1.426411159495973
 42
0.3764893137312741
 10
10.78476053504434
 20
-1.908173151819429
 42
0.0720597660786082
 10
10.90402492529742
 20
-2.155309328087842
 42
0.100882259632924
 10
11.12938122790958
 20
-2.536942437009775
 42
0.1155249673254174
 10
11.40048963364425
 20
-2.775155194398133
 42
0.432558587062359
 10
11.51720082614286
 20
-2.773375373772788
 42
0.1571690833280139
 10
11.70808659771729
 20
-2.301574143621407
 42
0.0824848361057347
 10
11.69466108836232
 20
-1.65949092327887
 42
0.035270612000725
 10
11.63636988120939
 20
-1.175377110124042
 42
0.1571851870385335
 10
11.67451325595824
 20
-0.7839735548867087
 42
0.1006994203838486
 10
11.52443129068883
 20
-0.31691055356929
 42
-0.099131289549006
 10
11.3856004623445
 20
-0.1433931085845383
 42
-0.1067391154749884
 10
11.08130891599579
 20
0.2717394259965427
 42
0.0082081019654038
 10
9.857399076127922
 20
2.074933568450335
 42
0.0735096694393913
 10
9.842523111614973
 20
2.922283071647599
 42
0.0776722751249782
 10
10.44823118904636
 20
3.785035682034861
 42
0.0865276445225977
 10
10.81933478184699
 20
5.006681395713167
 42
-0.0016476887561907
 10
11.02786162489707
 20
5.799749928712165
 42
-0.0823954624072164
 10
11.15512296295498
 20
4.13125514741087
 42
-0.1362668602521991
 10
11.12521715033406
 20
3.998848176444123
 42
0.128414686261326
 10
11.06070267307787
 20
3.745121265383733
 42
0.0025622086550402
 10
11.06302280446516
 20
3.348506852198192
 42
0.110952573075015
 10
11.24673030401126
 20
2.910734912785028
 42
-0.0218089383256294
 10
12.11306968146717
 20
1.483653669892132
 42
-0.010831581388778
 10
12.78366412890717
 20
0.231880138292035
 42
-0.0950245526137048
 10
12.89023073975688
 20
-0.0278597129605154
 42
0.0642376434173917
 10
13.04144393977049
 20
-0.3586106718418915
 42
0.2265862739592954
 10
13.27749010083651
 20
-0.5849909366944362
 42
-0.0815887698264664
 10
13.40870241946857
 20
-0.6809932699867432
 42
-0.2428843381328187
 10
13.48252770668537
 20
-0.9001284584744775
 42
-0.1919579207209582
  0
DIMENSION
  5
858
330
1A
100
AcDbEntity
  8
DIM
100
AcDbDimension
  2
*D2
 10
-2.832961391108312
 20
27.89186431893105
 30
0.0
 11
-2.832961391108312
 21
10.87152410853518
 31
0.0
 70
   160
 71
     5
 42
-1.0
  3
DEF
100
AcDbAlignedDimension
 13
11.45800904036152
 23
-2.799516808773955
 33
0.0
 14
13.72103663052694
 24
27.89186431893105
 34
0.0
 50
90.0
100
AcDbRotatedDimension
1001
ACAD
1000
DSTYLE
1002
{
1070
    40
1040
4.0
1002
}
  0
DIMENSION
  5
866
330
1A
100
AcDbEntity
  8
DIM
100
AcDbDimension
  2
*D3
 10
22.87349131359703
 20
-3.998145997766542
 30
0.0
 11
12.49631942601189
 21
-3.998145997766542
 31
0.0
 70
   160
 71
     5
 42
-1.0
  3
DEF
100
AcDbAlignedDimension
 13
2.795235132514495
 23
2.852083204415603
 33
0.0
 14
22.87349131359703
 24
19.54535550419932
 34
0.0
100
AcDbRotatedDimension
1001
ACAD
1000
DSTYLE
1002
{
1070
    40
1040
4.0
1002
}
  0
ENDSEC
  0
SECTION
  2
OBJECTS
  0
DICTIONARY
  5
C
330
0
100
AcDbDictionary
281
     1
  3
ACAD_GROUP
350
D
  3
ACAD_MLINESTYLE
350
E
  3
ACAD_PLOTSTYLENAME
350
878
  3
ACAD_LAYOUT
350
87A
  3
ACAD_PLOTSETTINGS
350
87B
  0
DICTIONARY
  5
D
102
{ACAD_REACTORS
330
C
102
}
330
C
100
AcDbDictionary
281
     1
  0
DICTIONARY
  5
E
102
{ACAD_REACTORS
330
C
102
}
330
C
100
AcDbDictionary
281
     1
  3
STANDARD
350
13
  0
ACDBDICTIONARYWDFLT
  5
878
102
{ACAD_REACTORS
330
C
102
}
330
C
100
AcDbDictionary
281
     1
  3
Normal
350
879
100
AcDbDictionaryWithDefault
340
879
  0
DICTIONARY
  5
87A
102
{ACAD_REACTORS
330
C
102
}
330
C
100
AcDbDictionary
281
     1
  3
Model
350
87C
  3
Layout1
350
87D
  0
DICTIONARY
  5
87B
102
{ACAD_REACTORS
330
C
102
}
330
C
100
AcDbDictionary
281
     1
  0
MLINESTYLE
  5
13
102
{ACAD_REACTORS
330
E
102
}
330
E
100
AcDbMlineStyle
  2
STANDARD
 70
     0
  3

 62
     0
 51
90.0
 52
90.0
 71
     2
 49
0.5
 62
   256
  6
BYLAYER
 49
-0.5
 62
   256
  6
BYLAYER
  0
ACDBPLACEHOLDER
  5
879
102
{ACAD_REACTORS
330
878
102
}
330
878
  0
LAYOUT
  5
87C
102
{ACAD_REACTORS
330
87A
102
}
330
87A
100
AcDbPlotSettings
  1

  2
\\SBSERVER\HP LaserJet 4050 Series PCL6
  4

  6

 40
0.0
 41
0.0
 42
0.0
 43
0.0
 44
0.0
 45
0.0
 46
0.0
 47
0.0
 48
0.0
 49
0.0
140
0.0
141
0.0
142
1.0
143
1.0
 70
  1712
 72
     0
 73
     0
 74
     0
  7

 75
     0
147
1.0
148
0.0
149
0.0
100
AcDbLayout
  1
Model
 70
     1
 71
     0
 10
0.0
 20
0.0
 11
12.0
 21
9.0
 12
0.0
 22
0.0
 32
0.0
 14
0.0
 24
0.0
 34
0.0
 15
0.0
 25
0.0
 35
0.0
146
0.0
 13
0.0
 23
0.0
 33
0.0
 16
1.0
 26
0.0
 36
0.0
 17
0.0
 27
1.0
 37
0.0
 76
     0
330
1A
  0
LAYOUT
  5
87D
102
{ACAD_REACTORS
330
87A
102
}
330
87A
100
AcDbPlotSettings
  1

  2
\\SBSERVER\HP LaserJet 4050 Series PCL6
  4

  6

 40
0.0
 41
0.0
 42
0.0
 43
0.0
 44
0.0
 45
0.0
 46
0.0
 47
0.0
 48
0.0
 49
0.0
140
0.0
141
0.0
142
1.0
143
1.0
 70
   688
 72
     0
 73
     0
 74
     5
  7

 75
    16
147
1.0
148
0.0
149
0.0
100
AcDbLayout
  1
Layout1
 70
     1
 71
     1
 10
0.0
 20
0.0
 11
12.0
 21
9.0
 12
0.0
 22
0.0
 32
0.0
 14
1.000000000000000E+20
 24
1.000000000000000E+20
 34
1.000000000000000E+20
 15
-1.000000000000000E+20
 25
-1.000000000000000E+20
 35
-1.000000000000000E+20
146
0.0
 13
0.0
 23
0.0
 33
0.0
 16
1.0
 26
0.0
 36
0.0
 17
0.0
 27
1.0
 37
0.0
 76
     0
330
17
  0
ENDSEC
  0
EOF
