  0
SECTION
  2
HEADER
  9
$ACADVER
  1
AC1018
  9
$ACADMAINTVER
 70
     0
  9
$DWGCODEPAGE
  3
ANSI_1250
  9
$INSBASE
 10
0.0
 20
0.0
 30
0.0
  9
$EXTMIN
 10
-110.3838333281044
 20
-323.5493096491219
 30
0.0
  9
$EXTMAX
 10
165.6274821768798
 20
444.4338886496344
 30
0.0
  9
$LIMMIN
 10
0.0
 20
0.0
  9
$LIMMAX
 10
12.0
 20
9.0
  9
$ORTHOMODE
 70
     0
  9
$REGENMODE
 70
     1
  9
$FILLMODE
 70
     1
  9
$QTEXTMODE
 70
     0
  9
$MIRRTEXT
 70
     1
  9
$LTSCALE
 40
1.0
  9
$ATTMODE
 70
     1
  9
$TEXTSIZE
 40
0.2
  9
$TRACEWID
 40
0.05
  9
$TEXTSTYLE
  7
Standard
  9
$CLAYER
  8
WHITE
  9
$CELTYPE
  6
ByLayer
  9
$CECOLOR
 62
   256
  9
$CELTSCALE
 40
1.0
  9
$DISPSILH
 70
     0
  9
$DIMSCALE
 40
1.0
  9
$DIMASZ
 40
0.18
  9
$DIMEXO
 40
0.0625
  9
$DIMDLI
 40
0.38
  9
$DIMRND
 40
0.0
  9
$DIMDLE
 40
0.0
  9
$DIMEXE
 40
0.18
  9
$DIMTP
 40
0.0
  9
$DIMTM
 40
0.0
  9
$DIMTXT
 40
0.18
  9
$DIMCEN
 40
0.09
  9
$DIMTSZ
 40
0.0
  9
$DIMTOL
 70
     0
  9
$DIMLIM
 70
     0
  9
$DIMTIH
 70
     1
  9
$DIMTOH
 70
     1
  9
$DIMSE1
 70
     0
  9
$DIMSE2
 70
     0
  9
$DIMTAD
 70
     0
  9
$DIMZIN
 70
     0
  9
$DIMBLK
  1

  9
$DIMASO
 70
     1
  9
$DIMSHO
 70
     1
  9
$DIMPOST
  1

  9
$DIMAPOST
  1

  9
$DIMALT
 70
     0
  9
$DIMALTD
 70
     2
  9
$DIMALTF
 40
25.4
  9
$DIMLFAC
 40
1.0
  9
$DIMTOFL
 70
     0
  9
$DIMTVP
 40
0.0
  9
$DIMTIX
 70
     0
  9
$DIMSOXD
 70
     0
  9
$DIMSAH
 70
     0
  9
$DIMBLK1
  1

  9
$DIMBLK2
  1

  9
$DIMSTYLE
  2
Standard
  9
$DIMCLRD
 70
     0
  9
$DIMCLRE
 70
     0
  9
$DIMCLRT
 70
     0
  9
$DIMTFAC
 40
1.0
  9
$DIMGAP
 40
0.09
  9
$DIMJUST
 70
     0
  9
$DIMSD1
 70
     0
  9
$DIMSD2
 70
     0
  9
$DIMTOLJ
 70
     1
  9
$DIMTZIN
 70
     0
  9
$DIMALTZ
 70
     0
  9
$DIMALTTZ
 70
     0
  9
$DIMUPT
 70
     0
  9
$DIMDEC
 70
     4
  9
$DIMTDEC
 70
     4
  9
$DIMALTU
 70
     2
  9
$DIMALTTD
 70
     2
  9
$DIMTXSTY
  7
Standard
  9
$DIMAUNIT
 70
     0
  9
$DIMADEC
 70
     0
  9
$DIMALTRND
 40
0.0
  9
$DIMAZIN
 70
     0
  9
$DIMDSEP
 70
    46
  9
$DIMATFIT
 70
     3
  9
$DIMFRAC
 70
     0
  9
$DIMLDRBLK
  1

  9
$DIMLUNIT
 70
     2
  9
$DIMLWD
 70
    -2
  9
$DIMLWE
 70
    -2
  9
$DIMTMOVE
 70
     2
  9
$LUNITS
 70
     2
  9
$LUPREC
 70
     4
  9
$SKETCHINC
 40
0.1
  9
$FILLETRAD
 40
0.5
  9
$AUNITS
 70
     0
  9
$AUPREC
 70
     0
  9
$MENU
  1
.
  9
$ELEVATION
 40
0.0
  9
$PELEVATION
 40
0.0
  9
$THICKNESS
 40
0.0
  9
$LIMCHECK
 70
     0
  9
$CHAMFERA
 40
0.5
  9
$CHAMFERB
 40
0.5
  9
$CHAMFERC
 40
1.0
  9
$CHAMFERD
 40
0.0
  9
$SKPOLY
 70
     0
  9
$TDCREATE
 40
2458057.828516748
  9
$TDUCREATE
 40
2458057.786850081
  9
$TDUPDATE
 40
2458057.828516759
  9
$TDUUPDATE
 40
2458057.786850092
  9
$TDINDWG
 40
0.0000000116
  9
$TDUSRTIMER
 40
0.0000000116
  9
$USRTIMER
 70
     1
  9
$ANGBASE
 50
0.0
  9
$ANGDIR
 70
     0
  9
$PDMODE
 70
     0
  9
$PDSIZE
 40
0.0
  9
$PLINEWID
 40
0.0
  9
$SPLFRAME
 70
     0
  9
$SPLINETYPE
 70
     6
  9
$SPLINESEGS
 70
     8
  9
$HANDSEED
  5
2FB
  9
$SURFTAB1
 70
     6
  9
$SURFTAB2
 70
     6
  9
$SURFTYPE
 70
     6
  9
$SURFU
 70
     6
  9
$SURFV
 70
     6
  9
$UCSBASE
  2

  9
$UCSNAME
  2

  9
$UCSORG
 10
0.0
 20
0.0
 30
0.0
  9
$UCSXDIR
 10
1.0
 20
0.0
 30
0.0
  9
$UCSYDIR
 10
0.0
 20
1.0
 30
0.0
  9
$UCSORTHOREF
  2

  9
$UCSORTHOVIEW
 70
     0
  9
$UCSORGTOP
 10
0.0
 20
0.0
 30
0.0
  9
$UCSORGBOTTOM
 10
0.0
 20
0.0
 30
0.0
  9
$UCSORGLEFT
 10
0.0
 20
0.0
 30
0.0
  9
$UCSORGRIGHT
 10
0.0
 20
0.0
 30
0.0
  9
$UCSORGFRONT
 10
0.0
 20
0.0
 30
0.0
  9
$UCSORGBACK
 10
0.0
 20
0.0
 30
0.0
  9
$PUCSBASE
  2

  9
$PUCSNAME
  2

  9
$PUCSORG
 10
0.0
 20
0.0
 30
0.0
  9
$PUCSXDIR
 10
1.0
 20
0.0
 30
0.0
  9
$PUCSYDIR
 10
0.0
 20
1.0
 30
0.0
  9
$PUCSORTHOREF
  2

  9
$PUCSORTHOVIEW
 70
     0
  9
$PUCSORGTOP
 10
0.0
 20
0.0
 30
0.0
  9
$PUCSORGBOTTOM
 10
0.0
 20
0.0
 30
0.0
  9
$PUCSORGLEFT
 10
0.0
 20
0.0
 30
0.0
  9
$PUCSORGRIGHT
 10
0.0
 20
0.0
 30
0.0
  9
$PUCSORGFRONT
 10
0.0
 20
0.0
 30
0.0
  9
$PUCSORGBACK
 10
0.0
 20
0.0
 30
0.0
  9
$USERI1
 70
     0
  9
$USERI2
 70
     0
  9
$USERI3
 70
     0
  9
$USERI4
 70
     0
  9
$USERI5
 70
     0
  9
$USERR1
 40
0.0
  9
$USERR2
 40
0.0
  9
$USERR3
 40
0.0
  9
$USERR4
 40
0.0
  9
$USERR5
 40
0.0
  9
$WORLDVIEW
 70
     1
  9
$SHADEDGE
 70
     3
  9
$SHADEDIF
 70
    70
  9
$TILEMODE
 70
     0
  9
$MAXACTVP
 70
    64
  9
$PINSBASE
 10
0.0
 20
0.0
 30
0.0
  9
$PLIMCHECK
 70
     0
  9
$PEXTMIN
 10
0.0
 20
0.0
 30
0.0
  9
$PEXTMAX
 10
0.0
 20
0.0
 30
0.0
  9
$PLIMMIN
 10
0.0
 20
0.0
  9
$PLIMMAX
 10
12.0
 20
9.0
  9
$UNITMODE
 70
     0
  9
$VISRETAIN
 70
     1
  9
$PLINEGEN
 70
     0
  9
$PSLTSCALE
 70
     1
  9
$TREEDEPTH
 70
  3020
  9
$CMLSTYLE
  2
Standard
  9
$CMLJUST
 70
     0
  9
$CMLSCALE
 40
1.0
  9
$PROXYGRAPHICS
 70
     1
  9
$MEASUREMENT
 70
     0
  9
$CELWEIGHT
370
    -1
  9
$ENDCAPS
280
     0
  9
$JOINSTYLE
280
     0
  9
$LWDISPLAY
290
     0
  9
$INSUNITS
 70
     4
  9
$HYPERLINKBASE
  1

  9
$STYLESHEET
  1

  9
$XEDIT
290
     1
  9
$CEPSNTYPE
380
     0
  9
$PSTYLEMODE
290
     1
  9
$FINGERPRINTGUID
  2
{F230BFBC-1E33-45D7-BA9A-3982EE49D2CC}
  9
$VERSIONGUID
  2
{FAEB1C32-E019-11D5-929B-00C0DF256EC4}
  9
$EXTNAMES
290
     1
  9
$PSVPSCALE
 40
0.0
  9
$OLESTARTUP
290
     0
  9
$SORTENTS
280
   127
  9
$INDEXCTL
280
     0
  9
$HIDETEXT
280
     1
  9
$XCLIPFRAME
290
     0
  9
$HALOGAP
280
     0
  9
$OBSCOLOR
 70
   257
  9
$OBSLTYPE
280
     0
  9
$INTERSECTIONDISPLAY
280
     0
  9
$INTERSECTIONCOLOR
 70
   257
  9
$DIMASSOC
280
     2
  9
$PROJECTNAME
  1

  0
ENDSEC
  0
SECTION
  2
CLASSES
  0
CLASS
  1
ACDBDICTIONARYWDFLT
  2
AcDbDictionaryWithDefault
  3
ObjectDBX Classes
 90
        0
 91
        4
280
     0
281
     0
  0
CLASS
  1
VISUALSTYLE
  2
AcDbVisualStyle
  3
ObjectDBX Classes
 90
     4095
 91
        4
280
     0
281
     0
  0
CLASS
  1
SCALE
  2
AcDbScale
  3
ObjectDBX Classes
 90
     1153
 91
        4
280
     0
281
     0
  0
CLASS
  1
DICTIONARYVAR
  2
AcDbDictionaryVar
  3
ObjectDBX Classes
 90
        0
 91
        4
280
     0
281
     0
  0
ENDSEC
  0
SECTION
  2
TABLES
  0
TABLE
  2
VPORT
  5
8
330
0
100
AcDbSymbolTable
 70
     1
  0
VPORT
  5
29
330
8
100
AcDbSymbolTableRecord
100
AcDbViewportTableRecord
  2
*Active
 70
     0
 10
0.0
 20
0.0
 11
1.0
 21
1.0
 12
27.62182442438768
 22
60.44228950025621
 13
0.0
 23
0.0
 14
0.5
 24
0.5
 15
0.5
 25
0.5
 16
0.0
 26
0.0
 36
1.0
 17
0.0
 27
0.0
 37
0.0
 40
783.3428622647315
 41
0.3593975963489918
 42
50.0
 43
0.0
 44
0.0
 50
0.0
 51
0.0
 71
     0
 72
   100
 73
     1
 74
     3
 75
     0
 76
     0
 77
     0
 78
     0
281
     0
 65
     1
110
0.0
120
0.0
130
0.0
111
1.0
121
0.0
131
0.0
112
0.0
122
1.0
132
0.0
 79
     0
146
0.0
  0
ENDTAB
  0
TABLE
  2
LTYPE
  5
5
330
0
100
AcDbSymbolTable
 70
     1
  0
LTYPE
  5
14
330
5
100
AcDbSymbolTableRecord
100
AcDbLinetypeTableRecord
  2
ByBlock
 70
     0
  3

 72
    65
 73
     0
 40
0.0
  0
LTYPE
  5
15
330
5
100
AcDbSymbolTableRecord
100
AcDbLinetypeTableRecord
  2
ByLayer
 70
     0
  3

 72
    65
 73
     0
 40
0.0
  0
LTYPE
  5
16
330
5
100
AcDbSymbolTableRecord
100
AcDbLinetypeTableRecord
  2
Continuous
 70
     0
  3
Solid line
 72
    65
 73
     0
 40
0.0
  0
ENDTAB
  0
TABLE
  2
LAYER
  5
2
330
0
100
AcDbSymbolTable
 70
     3
  0
LAYER
  5
10
330
2
100
AcDbSymbolTableRecord
100
AcDbLayerTableRecord
  2
0
 70
     0
 62
     7
  6
Continuous
370
    -3
390
F
  0
LAYER
  5
3B
330
2
100
AcDbSymbolTableRecord
100
AcDbLayerTableRecord
  2
WHITE
 70
     0
 62
     7
  6
Continuous
370
    -3
390
F
  0
LAYER
  5
61
330
2
100
AcDbSymbolTableRecord
100
AcDbLayerTableRecord
  2
Defpoints
 70
     0
 62
     7
  6
Continuous
290
     0
370
    -3
390
F
  0
ENDTAB
  0
TABLE
  2
STYLE
  5
3
330
0
100
AcDbSymbolTable
 70
     2
  0
STYLE
  5
11
330
3
100
AcDbSymbolTableRecord
100
AcDbTextStyleTableRecord
  2
Standard
 70
     0
 40
0.0
 41
1.0
 50
0.0
 71
     0
 42
0.2
  3
txt
  4

  0
STYLE
  5
5F
330
3
100
AcDbSymbolTableRecord
100
AcDbTextStyleTableRecord
  2
DEFAULT
 70
     0
 40
0.0
 41
1.0
 50
0.0
 71
     0
 42
0.0
  3
arial.ttf
  4

1001
ACAD
1000
Arial
1071
      256
  0
ENDTAB
  0
TABLE
  2
VIEW
  5
6
330
0
100
AcDbSymbolTable
 70
     0
  0
ENDTAB
  0
TABLE
  2
UCS
  5
7
330
0
100
AcDbSymbolTable
 70
     0
  0
ENDTAB
  0
TABLE
  2
APPID
  5
9
330
0
100
AcDbSymbolTable
 70
     1
  0
APPID
  5
12
330
9
100
AcDbSymbolTableRecord
100
AcDbRegAppTableRecord
  2
ACAD
 70
     0
  0
ENDTAB
  0
TABLE
  2
DIMSTYLE
  5
A
330
0
100
AcDbSymbolTable
 70
     2
100
AcDbDimStyleTable
  0
DIMSTYLE
105
27
330
A
100
AcDbSymbolTableRecord
100
AcDbDimStyleTableRecord
  2
Standard
 70
     0
340
11
  0
DIMSTYLE
105
60
102
{ACAD_REACTORS
330
3C
102
}
330
A
100
AcDbSymbolTableRecord
100
AcDbDimStyleTableRecord
  2
DIMENSION STYLE 01
 70
     0
 41
1.0
 42
0.5
 44
0.5
 73
     0
 77
     1
 78
     1
140
1.0
141
0.5
172
     1
174
     1
179
     2
271
     2
284
     1
340
5F
  0
ENDTAB
  0
TABLE
  2
BLOCK_RECORD
  5
1
330
0
100
AcDbSymbolTable
 70
     3
  0
BLOCK_RECORD
  5
1F
330
1
100
AcDbSymbolTableRecord
100
AcDbBlockTableRecord
  2
*Model_Space
340
22
  0
BLOCK_RECORD
  5
2F2
330
1
100
AcDbSymbolTableRecord
100
AcDbBlockTableRecord
  2
*Paper_Space
340
2F3
  0
BLOCK_RECORD
  5
23
330
1
100
AcDbSymbolTableRecord
100
AcDbBlockTableRecord
  2
*Paper_Space0
340
26
  0
BLOCK_RECORD
  5
62
330
1
100
AcDbSymbolTableRecord
100
AcDbBlockTableRecord
  2
*D1
340
0
  0
BLOCK_RECORD
  5
1B
330
1
100
AcDbSymbolTableRecord
100
AcDbBlockTableRecord
  2
*Paper_Space2
340
1E
  0
ENDTAB
  0
ENDSEC
  0
SECTION
  2
BLOCKS
  0
BLOCK
  5
20
330
1F
100
AcDbEntity
  8
0
100
AcDbBlockBegin
  2
*Model_Space
 70
     0
 10
0.0
 20
0.0
 30
0.0
  3
*Model_Space
  1

  0
ENDBLK
  5
21
330
1F
100
AcDbEntity
  8
0
100
AcDbBlockEnd
  0
BLOCK
  5
2F4
330
2F2
100
AcDbEntity
 67
     1
  8
0
100
AcDbBlockBegin
  2
*Paper_Space
 70
     0
 10
0.0
 20
0.0
 30
0.0
  3
*Paper_Space
  1

  0
ENDBLK
  5
2F5
330
2F2
100
AcDbEntity
 67
     1
  8
0
100
AcDbBlockEnd
  0
BLOCK
  5
24
330
23
100
AcDbEntity
  8
0
100
AcDbBlockBegin
  2
*Paper_Space0
 70
     0
 10
0.0
 20
0.0
 30
0.0
  3
*Paper_Space0
  1

  0
ENDBLK
  5
25
330
23
100
AcDbEntity
  8
0
100
AcDbBlockEnd
  0
BLOCK
  5
6C
330
62
100
AcDbEntity
  8
0
100
AcDbBlockBegin
  2
*D1
 70
     1
 10
0.0
 20
0.0
 30
0.0
  3
*D1
  1

  0
LINE
  5
63
330
62
100
AcDbEntity
  8
WHITE
 62
     0
370
    -2
100
AcDbLine
 10
70.91088220568098
 20
255.5898740943234
 30
0.0
 11
70.91088220568098
 21
255.5898739749057
 31
0.0
  0
LINE
  5
64
330
62
100
AcDbEntity
  8
WHITE
 62
     0
370
    -2
100
AcDbLine
 10
73.91586210338423
 20
255.598324708594
 30
0.0
 11
73.91586210338423
 21
255.5898739749057
 31
0.0
  0
LINE
  5
65
330
62
100
AcDbEntity
  8
WHITE
 62
     0
370
    -2
100
AcDbLine
 10
71.91088220568098
 20
256.0898739749057
 30
0.0
 11
72.91586210338423
 21
256.0898739749057
 31
0.0
  0
SOLID
  5
66
330
62
100
AcDbEntity
  8
WHITE
 62
     0
100
AcDbTrace
 10
71.91088220568098
 20
256.2565406415724
 30
0.0
 11
71.91088220568098
 21
255.923207308239
 31
0.0
 12
70.91088220568098
 22
256.0898739749057
 32
0.0
 13
70.91088220568098
 23
256.0898739749057
 33
0.0
  0
SOLID
  5
67
330
62
100
AcDbEntity
  8
WHITE
 62
     0
100
AcDbTrace
 10
72.91586210338423
 20
255.923207308239
 30
0.0
 11
72.91586210338423
 21
256.2565406415724
 31
0.0
 12
73.91586210338423
 22
256.0898739749057
 32
0.0
 13
73.91586210338423
 23
256.0898739749057
 33
0.0
  0
MTEXT
  5
68
330
62
100
AcDbEntity
  8
WHITE
 62
     0
100
AcDbMText
 10
72.4133721545326
 20
256.6903739749057
 30
0.0
 40
1.0
 41
0.0
 71
     5
 72
     1
  1
\A1;3.00
  7
DEFAULT
 73
     1
 44
1.0
  0
POINT
  5
69
330
62
100
AcDbEntity
  8
Defpoints
 62
     0
100
AcDbPoint
 10
70.91088220568098
 20
256.0898740943234
 30
0.0
  0
POINT
  5
6A
330
62
100
AcDbEntity
  8
Defpoints
 62
     0
100
AcDbPoint
 10
73.91586210338423
 20
256.098324708594
 30
0.0
  0
POINT
  5
6B
330
62
100
AcDbEntity
  8
Defpoints
 62
     0
100
AcDbPoint
 10
73.91586210338423
 20
256.0898739749057
 30
0.0
  0
ENDBLK
  5
6D
330
62
100
AcDbEntity
  8
0
100
AcDbBlockEnd
  0
BLOCK
  5
1C
330
1B
100
AcDbEntity
  8
0
100
AcDbBlockBegin
  2
*Paper_Space2
 70
     0
 10
0.0
 20
0.0
 30
0.0
  3
*Paper_Space2
  1

  0
ENDBLK
  5
1D
330
1B
100
AcDbEntity
  8
0
100
AcDbBlockEnd
  0
ENDSEC
  0
SECTION
  2
ENTITIES
  0
DIMENSION
  5
3C
330
1F
100
AcDbEntity
  8
WHITE
100
AcDbDimension
  2
*D1
 10
73.91586210338423
 20
256.0898739749057
 30
0.0
 11
72.4133721545326
 21
256.6903739749057
 31
0.0
 70
    32
  1
<>
 71
     5
 42
3.004979897703251
  3
DIMENSION STYLE 01
100
AcDbAlignedDimension
 13
70.91088220568098
 23
256.0898740943234
 33
0.0
 14
73.91586210338423
 24
256.098324708594
 34
0.0
100
AcDbRotatedDimension
1001
ACAD
1000
DSTYLE
1002
{
1070
   279
1070
     1
1002
}
  0
SPLINE
  5
6E
330
1F
100
AcDbEntity
  8
WHITE
100
AcDbSpline
210
0.0
220
0.0
230
1.0
 70
    12
 71
     2
 72
     6
 73
     3
 74
     0
 42
0.0000000001
 43
0.0000000001
 40
261.1254330661748
 40
261.1254330661748
 40
261.1254330661748
 40
265.7594790861531
 40
265.7594790861531
 40
265.7594790861531
 10
57.52012993557828
 20
202.7256087570936
 30
0.0
 41
1.0
 10
59.62430175411249
 20
207.8326869865344
 30
0.0
 41
0.8020537694692976
 10
65.12018415239051
 20
207.2803612241088
 30
0.0
 41
1.0
  0
LINE
  5
6F
330
1F
100
AcDbEntity
  8
WHITE
100
AcDbLine
 10
65.12018415239051
 20
207.2803612241088
 30
0.0
 11
77.82464894956085
 21
204.5638545070726
 31
0.0
  0
SPLINE
  5
70
330
1F
100
AcDbEntity
  8
WHITE
100
AcDbSpline
210
0.0
220
0.0
230
1.0
 70
    12
 71
     2
 72
     6
 73
     3
 74
     0
 42
0.0000000001
 43
0.0000000001
 40
103.0684273556042
 40
103.0684273556042
 40
103.0684273556042
 40
107.2544676467558
 40
107.2544676467558
 40
107.2544676467558
 10
77.82464894956085
 20
204.5638545070726
 30
0.0
 41
1.0
 10
82.80379312564772
 20
203.4626594670976
 30
0.0
 41
0.778043081065941
 10
82.77643555165655
 20
198.3632713856244
 30
0.0
 41
1.0
  0
LINE
  5
71
330
1F
100
AcDbEntity
  8
WHITE
100
AcDbLine
 10
82.77643555165655
 20
198.3632713856244
 30
0.0
 11
82.77231316969616
 21
197.5948689884443
 31
0.0
  0
LINE
  5
72
330
1F
100
AcDbEntity
  8
WHITE
100
AcDbLine
 10
82.77231316969616
 20
197.5948689884443
 30
0.0
 11
70.4704328124376
 21
197.5948689884443
 31
0.0
  0
LINE
  5
73
330
1F
100
AcDbEntity
  8
WHITE
100
AcDbLine
 10
70.4704328124376
 20
197.5948689884443
 30
0.0
 11
70.4704328124376
 21
194.5212205481053
 31
0.0
  0
LINE
  5
74
330
1F
100
AcDbEntity
  8
WHITE
100
AcDbLine
 10
70.4704328124376
 20
194.5212205481053
 30
0.0
 11
82.73633908994422
 21
194.5212206006006
 31
0.0
  0
SPLINE
  5
75
330
1F
100
AcDbEntity
  8
WHITE
100
AcDbSpline
210
0.0
220
0.0
230
1.0
 70
    12
 71
     2
 72
     6
 73
     3
 74
     0
 42
0.0000000001
 43
0.0000000001
 40
121.1190240443143
 40
121.1190240443143
 40
121.1190240443143
 40
125.5759232736806
 40
125.5759232736806
 40
125.5759232736806
 10
82.73633908994422
 20
194.5212206006006
 30
0.0
 41
1.0
 10
82.39118189239102
 20
189.311855886372
 30
0.0
 41
0.8207351689313515
 10
77.38606710386067
 20
187.8267834401566
 30
0.0
 41
1.0
  0
SPLINE
  5
76
330
1F
100
AcDbEntity
  8
WHITE
100
AcDbSpline
210
0.0
220
0.0
230
1.0
 70
    12
 71
     2
 72
     6
 73
     3
 74
     0
 42
0.0000000001
 43
0.0000000001
 40
125.5759232736806
 40
125.5759232736806
 40
125.5759232736806
 40
146.3981050229244
 40
146.3981050229244
 40
146.3981050229244
 10
77.38606710386067
 20
187.8267834401567
 30
0.0
 41
1.0
 10
56.51361045083062
 20
181.5594908509103
 30
0.0
 41
0.9690459700965043
 10
35.18674819489548
 20
186.043166736633
 30
0.0
 41
1.0
  0
SPLINE
  5
77
330
1F
100
AcDbEntity
  8
WHITE
100
AcDbSpline
210
0.0
220
0.0
230
1.0
 70
    12
 71
     2
 72
     8
 73
     5
 74
     0
 42
0.0000000001
 43
0.0000000001
 40
146.3981050229244
 40
146.3981050229244
 40
146.3981050229244
 40
152.0551950843744
 40
152.0551950843744
 40
157.7122851458244
 40
157.7122851458244
 40
157.7122851458244
 10
35.18674819489546
 20
186.043166736633
 30
0.0
 41
1.0
 10
29.18147670559673
 20
187.3056914643993
 30
0.0
 41
0.9187910097836758
 10
25.96352898232208
 20
192.5308294337431
 30
0.0
 41
1.0
 10
22.74558125904742
 20
197.7559674030869
 30
0.0
 41
0.9187910097836758
 10
24.32067940826081
 20
203.6869302396549
 30
0.0
 41
1.0
  0
SPLINE
  5
78
330
1F
100
AcDbEntity
  8
WHITE
100
AcDbSpline
210
0.0
220
0.0
230
1.0
 70
    12
 71
     2
 72
     6
 73
     3
 74
     0
 42
0.0000000001
 43
0.0000000001
 40
157.7122851458244
 40
157.7122851458244
 40
157.7122851458244
 40
169.0312261525888
 40
169.0312261525888
 40
169.0312261525888
 10
24.32067940826079
 20
203.6869302396549
 30
0.0
 41
1.0
 10
26.40050614306108
 20
215.1308437877637
 30
0.0
 41
0.9955493403429877
 10
26.29599959112635
 20
226.7617472317776
 30
0.0
 41
1.0
  0
SPLINE
  5
79
330
1F
100
AcDbEntity
  8
WHITE
100
AcDbSpline
210
0.0
220
0.0
230
1.0
 70
    12
 71
     2
 72
     6
 73
     3
 74
     0
 42
0.0000000001
 43
0.0000000001
 40
169.0312261525888
 40
169.0312261525888
 40
169.0312261525888
 40
193.4652998496007
 40
193.4652998496007
 40
193.4652998496007
 10
26.29600022110195
 20
226.7617457274947
 30
0.0
 41
1.0
 10
15.89763295909326
 20
251.8433608658348
 30
0.0
 41
0.8870072912319261
 10
-10.61237181922145
 20
257.7113337966832
 30
0.0
 41
1.0
  0
LINE
  5
7A
330
1F
100
AcDbEntity
  8
WHITE
100
AcDbLine
 10
-10.61237181922145
 20
257.7113337966832
 30
0.0
 11
-19.90708493640524
 21
257.7379728954838
 31
0.0
  0
SPLINE
  5
7B
330
1F
100
AcDbEntity
  8
WHITE
100
AcDbSpline
210
0.0
220
0.0
230
1.0
 70
    12
 71
     2
 72
     8
 73
     5
 74
     0
 42
0.0000000001
 43
0.0000000001
 40
198.0013184783103
 40
198.0013184783103
 40
198.0013184783103
 40
199.5579320850705
 40
199.5579320850705
 40
201.1145456918308
 40
201.1145456918308
 40
201.1145456918308
 10
-19.90708493640524
 20
257.7379728954838
 30
0.0
 41
1.0
 10
-21.91350307634384
 20
257.7749729294172
 30
0.0
 41
0.7112943149150801
 10
-21.90034030526314
 20
259.7816890269864
 30
0.0
 41
1.0
 10
-21.88717753418241
 20
261.7884051245555
 30
0.0
 41
0.7112943149150801
 10
-19.88044666773537
 20
261.7990814738641
 30
0.0
 41
1.0
  0
LINE
  5
7C
330
1F
100
AcDbEntity
  8
WHITE
100
AcDbLine
 10
-19.88044666773537
 20
261.7990814738641
 30
0.0
 11
-9.866499777628361
 21
261.8523583715009
 31
0.0
  0
SPLINE
  5
7D
330
1F
100
AcDbEntity
  8
WHITE
100
AcDbSpline
210
0.0
220
0.0
230
1.0
 70
    12
 71
     2
 72
     8
 73
     5
 74
     0
 42
0.0000000001
 43
0.0000000001
 40
206.0016148544271
 40
206.0016148544271
 40
206.0016148544271
 40
225.6734677978499
 40
225.6734677978499
 40
245.3453207412726
 40
245.3453207412726
 40
245.3453207412726
 10
-9.866499777628361
 20
261.8523583715009
 30
0.0
 41
1.0
 10
11.65335987824769
 20
261.0374058118454
 30
0.0
 41
0.9072346843900165
 10
24.93642678952109
 20
244.0866347168856
 30
0.0
 41
1.0
 10
38.21949370079449
 20
227.1358636219258
 30
0.0
 41
0.9072346843900165
 10
33.86532932996754
 20
206.045350116681
 30
0.0
 41
1.0
  0
SPLINE
  5
7E
330
1F
100
AcDbEntity
  8
WHITE
100
AcDbSpline
210
0.0
220
0.0
230
1.0
 70
    12
 71
     2
 72
     8
 73
     5
 74
     0
 42
0.0000000001
 43
0.0000000001
 40
245.3453207412726
 40
245.3453207412726
 40
245.3453207412726
 40
248.7172801528011
 40
248.7172801528011
 40
252.0892395643296
 40
252.0892395643296
 40
252.0892395643296
 10
33.86532932996747
 20
206.045350116681
 30
0.0
 41
1.0
 10
33.1206930889178
 20
202.4216457645656
 30
0.0
 41
0.9032986629526639
 10
35.45872052913816
 20
199.554705923585
 30
0.0
 41
1.0
 10
37.7967479693585
 20
196.6877660826044
 30
0.0
 41
0.9032986629526639
 10
41.49616902264106
 20
196.6882493578464
 30
0.0
 41
1.0
  0
LINE
  5
7F
330
1F
100
AcDbEntity
  8
WHITE
100
AcDbLine
 10
41.49616902264106
 20
196.6882493578464
 30
0.0
 11
48.52048515243088
 21
196.6891669819905
 31
0.0
  0
SPLINE
  5
80
330
1F
100
AcDbEntity
  8
WHITE
100
AcDbSpline
210
0.0
220
0.0
230
1.0
 70
    12
 71
     2
 72
     6
 73
     3
 74
     0
 42
0.0000000001
 43
0.0000000001
 40
255.5172415936038
 40
255.5172415936038
 40
255.5172415936038
 40
261.1254330661748
 40
261.1254330661748
 40
261.1254330661748
 10
48.52048515243088
 20
196.6891669819905
 30
0.0
 41
1.0
 10
55.0375044231532
 20
196.6999778676952
 30
0.0
 41
0.8314077449361922
 10
57.52012993557831
 20
202.7256087570936
 30
0.0
 41
1.0
  0
SPLINE
  5
81
330
1F
100
AcDbEntity
  8
WHITE
100
AcDbSpline
210
0.0
220
0.0
230
1.0
 70
    12
 71
     2
 72
     8
 73
     5
 74
     0
 42
0.0000000001
 43
0.0000000001
 40
130.4240285488096
 40
130.4240285488096
 40
130.4240285488096
 40
134.3124185970526
 40
134.3124185970526
 40
138.2008086452955
 40
138.2008086452955
 40
138.2008086452955
 10
120.2346305435678
 20
176.2554061284592
 30
0.0
 41
1.0
 10
116.4908600129348
 20
179.2838054535054
 30
0.0
 41
0.760030617244651
 10
112.9178182380652
 20
176.0557421435602
 30
0.0
 41
1.0
 10
109.3447764631957
 20
172.827678833615
 30
0.0
 41
0.760030617244651
 10
111.9788096816109
 20
168.7966877318806
 30
0.0
 41
1.0
  0
SPLINE
  5
82
330
1F
100
AcDbEntity
  8
WHITE
100
AcDbSpline
210
0.0
220
0.0
230
1.0
 70
    12
 71
     2
 72
     8
 73
     5
 74
     0
 42
0.0000000001
 43
0.0000000001
 40
7.776780096485809
 40
7.776780096485809
 40
7.776780096485809
 40
15.64121508894943
 40
15.64121508894943
 40
23.50565008141306
 40
23.50565008141306
 40
23.50565008141306
 10
111.978809681611
 20
168.7966877318806
 30
0.0
 41
1.0
 10
116.7300508606123
 20
161.4131900861187
 30
0.0
 41
0.8801183261285705
 10
113.1692691770108
 20
153.3875334757385
 30
0.0
 41
1.0
 10
109.6084874934093
 20
145.3618768653583
 30
0.0
 41
0.8801183261285705
 10
100.9459659511486
 20
143.9297278661693
 30
0.0
 41
1.0
  0
LINE
  5
83
330
1F
100
AcDbEntity
  8
WHITE
100
AcDbLine
 10
100.9459659511486
 20
143.9297278661693
 30
0.0
 11
100.1821480033088
 21
143.8034481098392
 31
0.0
  0
LINE
  5
84
330
1F
100
AcDbEntity
  8
WHITE
100
AcDbLine
 10
100.1821480033088
 20
143.8034481098392
 30
0.0
 11
100.1821480033088
 21
134.8554120338397
 31
0.0
  0
LINE
  5
85
330
1F
100
AcDbEntity
  8
WHITE
100
AcDbLine
 10
100.1821480033088
 20
134.8554120338397
 30
0.0
 11
97.10849956296978
 21
134.8554120338397
 31
0.0
  0
LINE
  5
86
330
1F
100
AcDbEntity
  8
WHITE
100
AcDbLine
 10
97.10849956296978
 20
134.8554120338397
 30
0.0
 11
97.1084994764098
 21
143.7177650260243
 31
0.0
  0
SPLINE
  5
87
330
1F
100
AcDbEntity
  8
WHITE
100
AcDbSpline
210
0.0
220
0.0
230
1.0
 70
    12
 71
     2
 72
     8
 73
     5
 74
     0
 42
0.0000000001
 43
0.0000000001
 40
34.07528304511119
 40
34.07528304511119
 40
34.07528304511119
 40
42.44911255909447
 40
42.44911255909447
 40
50.82294207307774
 40
50.82294207307774
 40
50.82294207307774
 10
97.1084994764098
 20
143.7177650260243
 30
0.0
 41
1.0
 10
87.66263656113166
 20
144.3950969511256
 30
0.0
 41
0.864708324294984
 10
83.5711277475565
 20
152.9357444897742
 30
0.0
 41
1.0
 10
79.47961893398137
 20
161.4763920284229
 30
0.0
 41
0.864708324294984
 10
84.87127964045196
 20
169.2618335430249
 30
0.0
 41
1.0
  0
SPLINE
  5
88
330
1F
100
AcDbEntity
  8
WHITE
100
AcDbSpline
210
0.0
220
0.0
230
1.0
 70
    12
 71
     2
 72
     8
 73
     5
 74
     0
 42
0.0000000001
 43
0.0000000001
 40
50.82294207307774
 40
50.82294207307774
 40
50.82294207307774
 40
54.82242352844877
 40
54.82242352844877
 40
58.8219049838198
 40
58.8219049838198
 40
58.8219049838198
 10
84.87127964045199
 20
169.2618335430249
 30
0.0
 41
1.0
 10
88.24569682581267
 20
173.2406550877321
 30
0.0
 41
0.7071536991079465
 10
84.26732312939141
 20
176.6156002661177
 30
0.0
 41
1.0
 10
80.28894943297017
 20
179.9905454445031
 30
0.0
 41
0.7071536991079465
 10
76.91347632099767
 20
176.0126196664331
 30
0.0
 41
1.0
  0
SPLINE
  5
89
330
1F
100
AcDbEntity
  8
WHITE
100
AcDbSpline
210
0.0
220
0.0
230
1.0
 70
    12
 71
     2
 72
    12
 73
     9
 74
     0
 42
0.0000000001
 43
0.0000000001
 40
58.8219049838198
 40
58.8219049838198
 40
58.8219049838198
 40
76.72243587506726
 40
76.72243587506726
 40
94.62296676631472
 40
94.62296676631472
 40
112.5234976575622
 40
112.5234976575622
 40
130.4240285488096
 40
130.4240285488096
 40
130.4240285488096
 10
76.91347632099767
 20
176.0126196664331
 30
0.0
 41
1.0
 10
62.09952067337046
 20
161.3671437443001
 30
0.0
 41
0.8298935662776522
 10
70.07021204156032
 20
142.1210707415104
 30
0.0
 41
1.0
 10
78.04090340975024
 20
122.8749977387208
 30
0.0
 41
0.8298935662776522
 10
98.87188077001682
 20
122.9917416109606
 30
0.0
 41
1.0
 10
119.7028581302834
 20
123.1084854832006
 30
0.0
 41
0.8298935662776522
 10
127.4573325328373
 20
142.442687655925
 30
0.0
 41
1.0
 10
135.2118069353911
 20
161.7768898286495
 30
0.0
 41
0.8298935662776522
 10
120.2346305435678
 20
176.2554061284592
 30
0.0
 41
1.0
  0
SPLINE
  5
8A
330
1F
100
AcDbEntity
  8
WHITE
100
AcDbSpline
210
0.0
220
0.0
230
1.0
 70
    12
 71
     2
 72
     6
 73
     3
 74
     0
 42
0.0000000001
 43
0.0000000001
 40
233.0523637102628
 40
233.0523637102628
 40
233.0523637102628
 40
241.2862017691033
 40
241.2862017691033
 40
241.2862017691033
 10
99.87144849629493
 20
-314.5803559738384
 30
0.0
 41
1.0
 10
92.59139060341712
 20
-309.4279429458712
 30
0.0
 41
0.920726209588277
 10
91.23057856049071
 20
-300.6134779298735
 30
0.0
 41
1.0
  0
LINE
  5
8B
330
1F
100
AcDbEntity
  8
WHITE
100
AcDbLine
 10
91.23057856049071
 20
-300.6134779298735
 30
0.0
 11
91.2305808271765
 21
-265.5759344325857
 31
0.0
  0
LINE
  5
8C
330
1F
100
AcDbEntity
  8
WHITE
100
AcDbLine
 10
91.2305808271765
 20
-265.5759344325857
 30
0.0
 11
91.22178960600061
 21
-264.8052292533593
 31
0.0
  0
SPLINE
  5
8D
330
1F
100
AcDbEntity
  8
WHITE
100
AcDbSpline
210
0.0
220
0.0
230
1.0
 70
    12
 71
     2
 72
     6
 73
     3
 74
     0
 42
0.0000000001
 43
0.0000000001
 40
67.91477146886336
 40
67.91477146886336
 40
67.91477146886336
 40
74.02275970226184
 40
74.02275970226184
 40
74.02275970226184
 10
91.22178960600061
 20
-264.8052292533593
 30
0.0
 41
1.0
 10
92.01077455237994
 20
-258.3966572991506
 30
0.0
 41
0.9544007898232848
 10
89.00732764028317
 20
-252.6807498135364
 30
0.0
 41
1.0
  0
SPLINE
  5
8E
330
1F
100
AcDbEntity
  8
WHITE
100
AcDbSpline
210
0.0
220
0.0
230
1.0
 70
    12
 71
     2
 72
     6
 73
     3
 74
     0
 42
0.0000000001
 43
0.0000000001
 40
74.02275970226184
 40
74.02275970226184
 40
74.02275970226184
 40
89.22349201476942
 40
89.22349201476942
 40
89.22349201476942
 10
89.00732764028317
 20
-252.6807498135364
 30
0.0
 41
1.0
 10
84.96559494407518
 20
-236.8130688731508
 30
0.0
 41
0.9282622048045763
 10
92.99852545743828
 20
-222.5445395522658
 30
0.0
 41
1.0
  0
SPLINE
  5
8F
330
1F
100
AcDbEntity
  8
WHITE
100
AcDbSpline
210
0.0
220
0.0
230
1.0
 70
    12
 71
     2
 72
     6
 73
     3
 74
     0
 42
0.0000000001
 43
0.0000000001
 40
89.22349201476942
 40
89.22349201476942
 40
89.22349201476942
 40
93.71678825607755
 40
93.71678825607755
 40
93.71678825607755
 10
92.99852545743832
 20
-222.5445395522658
 30
0.0
 41
1.0
 10
95.6708414480556
 20
-218.4284784581351
 30
0.0
 41
0.9096584465241235
 10
100.5314615658549
 20
-217.7520143018274
 30
0.0
 41
1.0
  0
LINE
  5
90
330
1F
100
AcDbEntity
  8
WHITE
100
AcDbLine
 10
100.5314615658549
 20
-217.7520143018274
 30
0.0
 11
99.21389086720667
 21
-237.3700872450747
 31
0.0
  0
LINE
  5
91
330
1F
100
AcDbEntity
  8
WHITE
100
AcDbLine
 10
99.21389086720667
 20
-237.3700872450747
 30
0.0
 11
102.2609010210628
 21
-237.726630464154
 31
0.0
  0
LINE
  5
92
330
1F
100
AcDbEntity
  8
WHITE
100
AcDbLine
 10
102.2609010210628
 20
-237.726630464154
 30
0.0
 11
103.6050299051964
 21
-217.8019525842244
 31
0.0
  0
SPLINE
  5
93
330
1F
100
AcDbEntity
  8
WHITE
100
AcDbSpline
210
0.0
220
0.0
230
1.0
 70
    12
 71
     2
 72
     8
 73
     5
 74
     0
 42
0.0000000001
 43
0.0000000001
 40
114.5552314777039
 40
114.5552314777039
 40
114.5552314777039
 40
117.8024788791034
 40
117.8024788791034
 40
121.049726280503
 40
121.049726280503
 40
121.049726280503
 10
103.6050299051964
 20
-217.8019525842244
 30
0.0
 41
1.0
 10
107.1422622187533
 20
-217.9172629351067
 30
0.0
 41
0.9119472893415094
 10
109.4021999087492
 20
-220.6408617591679
 30
0.0
 41
1.0
 10
111.6621375987451
 20
-223.3644605832291
 30
0.0
 41
0.9119472893415094
 10
111.122919266448
 20
-226.8622531024054
 30
0.0
 41
1.0
  0
SPLINE
  5
94
330
1F
100
AcDbEntity
  8
WHITE
100
AcDbSpline
210
0.0
220
0.0
230
1.0
 70
    12
 71
     2
 72
     8
 73
     5
 74
     0
 42
0.0000000001
 43
0.0000000001
 40
121.049726280503
 40
121.049726280503
 40
121.049726280503
 40
123.6432875554145
 40
123.6432875554145
 40
126.2368488303261
 40
126.2368488303261
 40
126.2368488303261
 10
111.122919266448
 20
-226.8622531024054
 30
0.0
 41
1.0
 10
110.6771580662347
 20
-229.7538094499108
 30
0.0
 41
0.8678673111749017
 10
112.9448370023973
 20
-231.6024395916372
 30
0.0
 41
1.0
 10
115.2125159385599
 20
-233.4510697333634
 30
0.0
 41
0.8678673111749017
 10
117.9549249459278
 20
-232.4317591846483
 30
0.0
 41
1.0
  0
LINE
  5
95
330
1F
100
AcDbEntity
  8
WHITE
100
AcDbLine
 10
117.9549249459278
 20
-232.4317591846483
 30
0.0
 11
125.9648572531155
 21
-229.655230100196
 31
0.0
  0
SPLINE
  5
96
330
1F
100
AcDbEntity
  8
WHITE
100
AcDbSpline
210
0.0
220
0.0
230
1.0
 70
    12
 71
     2
 72
     6
 73
     3
 74
     0
 42
0.0000000001
 43
0.0000000001
 40
130.374036478476
 40
130.374036478476
 40
130.374036478476
 40
140.5256134876795
 40
140.5256134876795
 40
140.5256134876795
 10
125.9648572531155
 20
-229.655230100196
 30
0.0
 41
1.0
 10
138.2892880795974
 20
-225.9011119856652
 30
0.0
 41
0.7344962773775598
 10
143.0049371029462
 20
-237.8905928878218
 30
0.0
 41
1.0
  0
SPLINE
  5
97
330
1F
100
AcDbEntity
  8
WHITE
100
AcDbSpline
210
0.0
220
0.0
230
1.0
 70
    12
 71
     2
 72
     6
 73
     3
 74
     0
 42
0.0000000001
 43
0.0000000001
 40
140.5256134876795
 40
140.5256134876795
 40
140.5256134876795
 40
171.248925114495
 40
171.248925114495
 40
171.248925114495
 10
143.0049371029463
 20
-237.8905928878218
 30
0.0
 41
1.0
 10
151.9072220631873
 20
-268.8255545557031
 30
0.0
 41
0.9671110966266575
 10
144.438306047112
 20
-300.1374983543791
 30
0.0
 41
1.0
  0
SPLINE
  5
98
330
1F
100
AcDbEntity
  8
WHITE
100
AcDbSpline
210
0.0
220
0.0
230
1.0
 70
    12
 71
     2
 72
     6
 73
     3
 74
     0
 42
0.0000000001
 43
0.0000000001
 40
171.248925114495
 40
171.248925114495
 40
171.248925114495
 40
182.3550515367794
 40
182.3550515367794
 40
182.3550515367794
 10
144.438306047112
 20
-300.1374983543791
 30
0.0
 41
1.0
 10
139.8376515018377
 20
-311.3891478273442
 30
0.0
 41
0.906808273625169
 10
128.2699706238297
 20
-315.1247063146391
 30
0.0
 41
1.0
  0
SPLINE
  5
99
330
1F
100
AcDbEntity
  8
WHITE
100
AcDbSpline
210
0.0
220
0.0
230
1.0
 70
    12
 71
     2
 72
     6
 73
     3
 74
     0
 42
0.0000000001
 43
0.0000000001
 40
182.3550515367794
 40
182.3550515367794
 40
182.3550515367794
 40
190.8465737652383
 40
190.8465737652383
 40
190.8465737652383
 10
128.2699706238297
 20
-315.1247063146391
 30
0.0
 41
1.0
 10
119.6878941834356
 20
-316.7528376151593
 30
0.0
 41
0.9939723938813377
 10
110.9572772153253
 20
-316.4714572380063
 30
0.0
 41
1.0
  0
LINE
  5
9A
330
1F
100
AcDbEntity
  8
WHITE
100
AcDbLine
 10
110.9572772153253
 20
-316.4714572380063
 30
0.0
 11
116.3914874507813
 21
-279.431941601634
 31
0.0
  0
LINE
  5
9B
330
1F
100
AcDbEntity
  8
WHITE
100
AcDbLine
 10
116.3914874507813
 20
-279.431941601634
 30
0.0
 11
113.3444772969252
 21
-278.9934344241456
 31
0.0
  0
LINE
  5
9C
330
1F
100
AcDbEntity
  8
WHITE
100
AcDbLine
 10
113.3444772969252
 20
-278.9934344241456
 30
0.0
 11
107.8569901477444
 21
-316.3341646501934
 31
0.0
  0
SPLINE
  5
9D
330
1F
100
AcDbEntity
  8
WHITE
100
AcDbSpline
210
0.0
220
0.0
230
1.0
 70
    12
 71
     2
 72
     6
 73
     3
 74
     0
 42
0.0000000001
 43
0.0000000001
 40
229.0371249946594
 40
229.0371249946594
 40
229.0371249946594
 40
233.0523637102628
 40
233.0523637102628
 40
233.0523637102628
 10
107.8569901477444
 20
-316.3341646501934
 30
0.0
 41
1.0
 10
103.6915086558982
 20
-316.2436563633968
 30
0.0
 41
0.9811510130595311
 10
99.87144849629493
 20
-314.5803559738385
 30
0.0
 41
1.0
  0
SPLINE
  5
9E
330
1F
100
AcDbEntity
  8
WHITE
100
AcDbSpline
210
0.0
220
0.0
230
1.0
 70
    12
 71
     2
 72
    12
 73
     9
 74
     0
 42
0.0000000001
 43
0.0000000001
 40
308.0983060749296
 40
308.0983060749296
 40
308.0983060749296
 40
309.3655012918907
 40
309.3655012918907
 40
310.6326965088518
 40
310.6326965088518
 40
311.8998917258128
 40
311.8998917258128
 40
313.1670869427739
 40
313.1670869427739
 40
313.1670869427739
 10
163.8270206689537
 20
244.9298422449307
 30
0.0
 41
1.0
 10
165.089312297165
 20
244.3645543191049
 30
0.0
 41
0.9105362596601392
 10
165.4944961953036
 20
243.0421487071891
 30
0.0
 41
1.0
 10
165.8996800934422
 20
241.7197430952734
 30
0.0
 41
0.9105362596601392
 10
165.1707341051448
 20
240.5443417425934
 30
0.0
 41
1.0
 10
164.4417881168474
 20
239.3689403899134
 30
0.0
 41
0.9105362596601392
 10
163.0770888816552
 20
239.1441591825085
 30
0.0
 41
1.0
 10
161.7123896464628
 20
238.9193779751037
 30
0.0
 41
0.9105362596601392
 10
160.6449750433656
 20
239.7988986734568
 30
0.0
 41
1.0
  0
LINE
  5
9F
330
1F
100
AcDbEntity
  8
WHITE
100
AcDbLine
 10
160.6449750433656
 20
239.7988986734568
 30
0.0
 11
144.868736427171
 21
249.4030517189167
 31
0.0
  0
SPLINE
  5
A0
330
1F
100
AcDbEntity
  8
WHITE
100
AcDbSpline
210
0.0
220
0.0
230
1.0
 70
    12
 71
     2
 72
     6
 73
     3
 74
     0
 42
0.0000000001
 43
0.0000000001
 40
121.6674246282326
 40
121.6674246282326
 40
121.6674246282326
 40
153.3635779676003
 40
153.3635779676003
 40
153.3635779676003
 10
144.868736427171
 20
249.4030517189167
 30
0.0
 41
1.0
 10
124.609762266541
 20
277.8804348423297
 30
0.0
 41
0.8971584527278318
 10
134.8263077339374
 20
311.3021281314399
 30
0.0
 41
1.0
  0
SPLINE
  5
A1
330
1F
100
AcDbEntity
  8
WHITE
100
AcDbSpline
210
0.0
220
0.0
230
1.0
 70
    12
 71
     2
 72
     6
 73
     3
 74
     0
 42
0.0000000001
 43
0.0000000001
 40
153.3635779676003
 40
153.3635779676003
 40
153.3635779676003
 40
165.4290250268291
 40
165.4290250268291
 40
165.4290250268291
 10
134.8263077339374
 20
311.3021281314399
 30
0.0
 41
1.0
 10
138.4620424233394
 20
323.1900267341492
 30
0.0
 41
0.9916087085020366
 10
138.9284174174297
 20
335.6127154239987
 30
0.0
 41
1.0
  0
SPLINE
  5
A2
330
1F
100
AcDbEntity
  8
WHITE
100
AcDbSpline
210
0.0
220
0.0
230
1.0
 70
    12
 71
     2
 72
     6
 73
     3
 74
     0
 42
0.0000000001
 43
0.0000000001
 40
165.4290250268291
 40
165.4290250268291
 40
165.4290250268291
 40
174.8989731758042
 40
174.8989731758042
 40
174.8989731758042
 10
138.9284174174297
 20
335.6127154239987
 30
0.0
 41
1.0
 10
139.3833538427944
 20
347.7307184421484
 30
0.0
 41
0.7254368443896791
 10
127.3059654507741
 20
348.8214310199166
 30
0.0
 41
1.0
  0
SPLINE
  5
A3
330
1F
100
AcDbEntity
  8
WHITE
100
AcDbSpline
210
0.0
220
0.0
230
1.0
 70
    12
 71
     2
 72
     6
 73
     3
 74
     0
 42
0.0000000001
 43
0.0000000001
 40
174.8989731758042
 40
174.8989731758042
 40
174.8989731758042
 40
188.9625936405481
 40
188.9625936405481
 40
188.9625936405481
 10
127.3059654507741
 20
348.8214310199166
 30
0.0
 41
1.0
 10
112.8431263265377
 20
349.5159331435012
 30
0.0
 41
0.9926992050430467
 10
98.63479292608912
 20
346.7267915703819
 30
0.0
 41
1.0
  0
SPLINE
  5
A4
330
1F
100
AcDbEntity
  8
WHITE
100
AcDbSpline
210
0.0
220
0.0
230
1.0
 70
    12
 71
     2
 72
     6
 73
     3
 74
     0
 42
0.0000000001
 43
0.0000000001
 40
188.9625936405481
 40
188.9625936405481
 40
188.9625936405481
 40
200.5132290699534
 40
200.5132290699534
 40
200.5132290699534
 10
98.63479454843504
 20
346.7267925428421
 30
0.0
 41
1.0
 10
85.62960132147889
 20
346.420679467021
 30
0.0
 41
0.8699046334870546
 10
78.68917062922235
 20
357.4233690423766
 30
0.0
 41
1.0
  0
SPLINE
  5
A5
330
1F
100
AcDbEntity
  8
WHITE
100
AcDbSpline
210
0.0
220
0.0
230
1.0
 70
    12
 71
     2
 72
     6
 73
     3
 74
     0
 42
0.0000000001
 43
0.0000000001
 40
200.5132290699534
 40
200.5132290699534
 40
200.5132290699534
 40
203.0824677035008
 40
203.0824677035008
 40
203.0824677035008
 10
78.68917062922242
 20
357.4233690423766
 30
0.0
 41
1.0
 10
78.33294665775195
 20
360.0837347144736
 30
0.0
 41
0.9713032988375115
 10
79.24621547989483
 20
362.6076961019801
 30
0.0
 41
1.0
  0
LINE
  5
A6
330
1F
100
AcDbEntity
  8
WHITE
100
AcDbLine
 10
79.24621547989483
 20
362.6076961019801
 30
0.0
 11
79.54342688059319
 21
363.2898326885737
 31
0.0
  0
LINE
  5
A7
330
1F
100
AcDbEntity
  8
WHITE
100
AcDbLine
 10
79.54342688059319
 20
363.2898326885737
 30
0.0
 11
88.4837009697312
 21
358.0831357527072
 31
0.0
  0
LINE
  5
A8
330
1F
100
AcDbEntity
  8
WHITE
100
AcDbLine
 10
88.4837009697312
 20
358.0831357527072
 30
0.0
 11
90.02052518990061
 21
360.7449153020407
 31
0.0
  0
LINE
  5
A9
330
1F
100
AcDbEntity
  8
WHITE
100
AcDbLine
 10
90.02052518990061
 20
360.7449153020407
 30
0.0
 11
81.13153347597074
 21
365.9291362161717
 31
0.0
  0
SPLINE
  5
AA
330
1F
100
AcDbEntity
  8
WHITE
100
AcDbSpline
210
0.0
220
0.0
230
1.0
 70
    12
 71
     2
 72
     6
 73
     3
 74
     0
 42
0.0000000001
 43
0.0000000001
 40
215.0164361630777
 40
215.0164361630777
 40
215.0164361630777
 40
217.528122483452
 40
217.528122483452
 40
217.528122483452
 10
81.13153347597074
 20
365.9291362161717
 30
0.0
 41
1.0
 10
82.80836101149244
 20
367.9439800062643
 30
0.0
 41
0.9727701344682059
 10
85.21357296645647
 20
368.9862379081567
 30
0.0
 41
1.0
  0
SPLINE
  5
AB
330
1F
100
AcDbEntity
  8
WHITE
100
AcDbSpline
210
0.0
220
0.0
230
1.0
 70
    12
 71
     2
 72
     6
 73
     3
 74
     0
 42
0.0000000001
 43
0.0000000001
 40
217.528122483452
 40
217.528122483452
 40
217.528122483452
 40
247.4296843454181
 40
247.4296843454181
 40
247.4296843454181
 10
85.21357296645651
 20
368.9862379081566
 30
0.0
 41
1.0
 10
114.5259948291284
 20
359.8123094895498
 30
0.0
 41
0.996313713656932
 10
144.975157434346
 20
355.7839680534265
 30
0.0
 41
1.0
  0
SPLINE
  5
AC
330
1F
100
AcDbEntity
  8
WHITE
100
AcDbSpline
210
0.0
220
0.0
230
1.0
 70
    12
 71
     2
 72
     8
 73
     5
 74
     0
 42
0.0000000001
 43
0.0000000001
 40
247.4296843454181
 40
247.4296843454181
 40
247.4296843454181
 40
251.1775976658041
 40
251.1775976658041
 40
254.9255109861902
 40
254.9255109861902
 40
254.9255109861902
 10
144.975157434346
 20
355.7839680534267
 30
0.0
 41
1.0
 10
149.0628225034454
 20
355.2539057206407
 30
0.0
 41
0.9015469302483035
 10
151.2064223023241
 20
351.7332592322778
 30
0.0
 41
1.0
 10
153.3500221012028
 20
348.2126127439152
 30
0.0
 41
0.9015469302483035
 10
151.9443164966497
 20
344.3378271308646
 30
0.0
 41
1.0
  0
SPLINE
  5
AD
330
1F
100
AcDbEntity
  8
WHITE
100
AcDbSpline
210
0.0
220
0.0
230
1.0
 70
    12
 71
     2
 72
     6
 73
     3
 74
     0
 42
0.0000000001
 43
0.0000000001
 40
254.9255109861902
 40
254.9255109861902
 40
254.9255109861902
 40
280.2788665677879
 40
280.2788665677879
 40
280.2788665677879
 10
151.9443164966497
 20
344.3378271308644
 30
0.0
 41
1.0
 10
142.9729383715625
 20
319.7661146737397
 30
0.0
 41
0.989712669323299
 10
141.3274148515944
 20
293.6596608570268
 30
0.0
 41
1.0
  0
SPLINE
  5
AE
330
1F
100
AcDbEntity
  8
WHITE
100
AcDbSpline
210
0.0
220
0.0
230
1.0
 70
    12
 71
     2
 72
     6
 73
     3
 74
     0
 42
0.0000000001
 43
0.0000000001
 40
280.2788665677879
 40
280.2788665677879
 40
280.2788665677879
 40
302.5524751182559
 40
302.5524751182559
 40
302.5524751182559
 10
141.3274148515943
 20
293.6596608570268
 30
0.0
 41
1.0
 10
139.8290796168848
 20
269.8883691481971
 30
0.0
 41
0.9383153732183622
 10
154.1142922085238
 20
250.829197623875
 30
0.0
 41
1.0
  0
LINE
  5
AF
330
1F
100
AcDbEntity
  8
WHITE
100
AcDbLine
 10
154.1142922085238
 20
250.829197623875
 30
0.0
 11
163.8270206689537
 21
244.9298422449307
 31
0.0
  0
SPLINE
  5
B0
330
1F
100
AcDbEntity
  8
WHITE
100
AcDbSpline
210
0.0
220
0.0
230
1.0
 70
    12
 71
     2
 72
     6
 73
     3
 74
     0
 42
0.0000000001
 43
0.0000000001
 40
307.2235581847149
 40
307.2235581847149
 40
307.2235581847149
 40
319.4806176152974
 40
319.4806176152974
 40
319.4806176152974
 10
-51.83642720910562
 20
-115.7441333542986
 30
0.0
 41
1.0
 10
-39.15766743369056
 20
-115.1522281136131
 30
0.0
 41
0.9841681376417976
 10
-27.06897170964771
 20
-119.0206563407025
 30
0.0
 41
1.0
  0
SPLINE
  5
B1
330
1F
100
AcDbEntity
  8
WHITE
100
AcDbSpline
210
0.0
220
0.0
230
1.0
 70
    12
 71
     2
 72
     6
 73
     3
 74
     0
 42
0.0000000001
 43
0.0000000001
 40
36.51692921831084
 40
36.51692921831084
 40
36.51692921831084
 40
49.58756091264664
 40
49.58756091264664
 40
49.58756091264664
 10
-27.06897170964769
 20
-119.0206563407024
 30
0.0
 41
1.0
 10
-13.28170202316312
 20
-125.1885185429385
 30
0.0
 41
0.8382917122864041
 10
-13.32953839753936
 20
-140.2924597913317
 30
0.0
 41
1.0
  0
SPLINE
  5
B2
330
1F
100
AcDbEntity
  8
WHITE
100
AcDbSpline
210
0.0
220
0.0
230
1.0
 70
    12
 71
     2
 72
     6
 73
     3
 74
     0
 42
0.0000000001
 43
0.0000000001
 40
49.58756091264664
 40
49.58756091264664
 40
49.58756091264664
 40
71.95754263085013
 40
71.95754263085013
 40
71.95754263085013
 10
-13.32953839753933
 20
-140.2924597913317
 30
0.0
 41
1.0
 10
-11.90493896693744
 20
-164.7673576029931
 30
0.0
 41
0.902090658839783
 10
-30.06682094441383
 20
-181.235391774234
 30
0.0
 41
1.0
  0
SPLINE
  5
B3
330
1F
100
AcDbEntity
  8
WHITE
100
AcDbSpline
210
0.0
220
0.0
230
1.0
 70
    12
 71
     2
 72
     8
 73
     5
 74
     0
 42
0.0000000001
 43
0.0000000001
 40
71.95754263085013
 40
71.95754263085013
 40
71.95754263085013
 40
73.26117613905014
 40
73.26117613905014
 40
74.56480964725016
 40
74.56480964725016
 40
74.56480964725016
 10
-30.06682094441384
 20
-181.235391774234
 30
0.0
 41
1.0
 10
-31.23290467324529
 20
-182.2850091125448
 30
0.0
 41
0.7891530460529471
 10
-32.53669625845816
 20
-181.4123262824994
 30
0.0
 41
1.0
 10
-33.84048784367104
 20
-180.539643452454
 30
0.0
 41
0.7891530460529471
 10
-33.31463112970696
 20
-179.0614951053971
 30
0.0
 41
1.0
  0
LINE
  5
B4
330
1F
100
AcDbEntity
  8
WHITE
100
AcDbLine
 10
-33.31463112970696
 20
-179.0614951053971
 30
0.0
 11
-21.13273807604504
 21
-144.8190016596956
 31
0.0
  0
LINE
  5
B5
330
1F
100
AcDbEntity
  8
WHITE
100
AcDbLine
 10
-21.13273807604504
 20
-144.8190016596956
 30
0.0
 11
-24.01377121412282
 21
-143.8046976743838
 31
0.0
  0
LINE
  5
B6
330
1F
100
AcDbEntity
  8
WHITE
100
AcDbLine
 10
-24.01377121412282
 20
-143.8046976743838
 30
0.0
 11
-37.51323516409177
 21
-181.749912219849
 31
0.0
  0
LINE
  5
B7
330
1F
100
AcDbEntity
  8
WHITE
100
AcDbLine
 10
-37.51323516409177
 20
-181.749912219849
 30
0.0
 11
-45.55185038505842
 21
-183.0674828512743
 31
0.0
  0
LINE
  5
B8
330
1F
100
AcDbEntity
  8
WHITE
100
AcDbLine
 10
-45.55185038505842
 20
-183.0674828512743
 30
0.0
 11
-38.60950310781268
 21
-150.8290089100385
 31
0.0
  0
LINE
  5
B9
330
1F
100
AcDbEntity
  8
WHITE
100
AcDbLine
 10
-38.60950310781268
 20
-150.8290089100385
 30
0.0
 11
-41.60118758974267
 21
-150.1978864302889
 31
0.0
  0
LINE
  5
BA
330
1F
100
AcDbEntity
  8
WHITE
100
AcDbLine
 10
-41.60118758974267
 20
-150.1978864302889
 30
0.0
 11
-48.2400674786086
 21
-180.7516242985911
 31
0.0
  0
SPLINE
  5
BB
330
1F
100
AcDbEntity
  8
WHITE
100
AcDbSpline
210
0.0
220
0.0
230
1.0
 70
    12
 71
     2
 72
     8
 73
     5
 74
     0
 42
0.0000000001
 43
0.0000000001
 40
150.2672453095563
 40
150.2672453095563
 40
150.2672453095563
 40
153.7722886298881
 40
153.7722886298881
 40
157.2773319502199
 40
157.2773319502199
 40
157.2773319502199
 10
-48.2400674786086
 20
-180.7516242985911
 30
0.0
 41
1.0
 10
-49.12979153712173
 20
-184.9224741333161
 30
0.0
 41
0.777699300935456
 10
-53.39448120534858
 20
-184.9268647871761
 30
0.0
 41
1.0
 10
-57.65917087357545
 20
-184.9312554410363
 30
0.0
 41
0.777699300935456
 10
-58.5574811215142
 20
-180.7622464529708
 30
0.0
 41
1.0
  0
LINE
  5
BC
330
1F
100
AcDbEntity
  8
WHITE
100
AcDbLine
 10
-58.5574811215142
 20
-180.7622464529708
 30
0.0
 11
-65.14328554377934
 21
-150.1978864302889
 31
0.0
  0
LINE
  5
BD
330
1F
100
AcDbEntity
  8
WHITE
100
AcDbLine
 10
-65.14328554377934
 20
-150.1978864302889
 30
0.0
 11
-68.13292092674911
 21
-150.8290089100385
 31
0.0
  0
LINE
  5
BE
330
1F
100
AcDbEntity
  8
WHITE
100
AcDbLine
 10
-68.13292092674911
 20
-150.8290089100385
 30
0.0
 11
-61.1905736495034
 21
-183.0674828512743
 31
0.0
  0
LINE
  5
BF
330
1F
100
AcDbEntity
  8
WHITE
100
AcDbLine
 10
-61.1905736495034
 20
-183.0674828512743
 30
0.0
 11
-69.23123796943027
 21
-181.749912219849
 31
0.0
  0
LINE
  5
C0
330
1F
100
AcDbEntity
  8
WHITE
100
AcDbLine
 10
-69.23123796943027
 20
-181.749912219849
 30
0.0
 11
-82.73068142840965
 21
-143.8046976743838
 31
0.0
  0
LINE
  5
C1
330
1F
100
AcDbEntity
  8
WHITE
100
AcDbLine
 10
-82.73068142840965
 20
-143.8046976743838
 30
0.0
 11
-85.6096859585168
 21
-144.8190016596956
 31
0.0
  0
LINE
  5
C2
330
1F
100
AcDbEntity
  8
WHITE
100
AcDbLine
 10
-85.6096859585168
 20
-144.8190016596956
 30
0.0
 11
-73.45852859446603
 21
-179.0614948708735
 31
0.0
  0
SPLINE
  5
C3
330
1F
100
AcDbEntity
  8
WHITE
100
AcDbSpline
210
0.0
220
0.0
230
1.0
 70
    12
 71
     2
 72
     8
 73
     5
 74
     0
 42
0.0000000001
 43
0.0000000001
 40
232.9734057269795
 40
232.9734057269795
 40
232.9734057269795
 40
234.2808903007268
 40
234.2808903007268
 40
235.5883748744742
 40
235.5883748744742
 40
235.5883748744742
 10
-73.45852859446603
 20
-179.0614948708735
 30
0.0
 41
1.0
 10
-72.90421900264971
 20
-180.5448769505958
 30
0.0
 41
0.7883027006030584
 10
-74.20858738462817
 20
-181.4428216271297
 30
0.0
 41
1.0
 10
-75.51295576660661
 20
-182.3407663036637
 30
0.0
 41
0.7883027006030584
 10
-76.70077698268393
 20
-181.2935021170052
 30
0.0
 41
1.0
  0
SPLINE
  5
C4
330
1F
100
AcDbEntity
  8
WHITE
100
AcDbSpline
210
0.0
220
0.0
230
1.0
 70
    12
 71
     2
 72
     6
 73
     3
 74
     0
 42
0.0000000001
 43
0.0000000001
 40
235.5883748744742
 40
235.5883748744742
 40
235.5883748744742
 40
257.9834427600943
 40
257.9834427600943
 40
257.9834427600943
 10
-76.70077698268395
 20
-181.2935021170052
 30
0.0
 41
1.0
 10
-95.24275831805053
 20
-164.9456269154275
 30
0.0
 41
0.8957067164129044
 10
-93.43109281587834
 20
-140.2925142609232
 30
0.0
 41
1.0
  0
SPLINE
  5
C5
330
1F
100
AcDbEntity
  8
WHITE
100
AcDbSpline
210
0.0
220
0.0
230
1.0
 70
    12
 71
     2
 72
     6
 73
     3
 74
     0
 42
0.0000000001
 43
0.0000000001
 40
257.9834427600943
 40
257.9834427600943
 40
257.9834427600943
 40
271.0658282843091
 40
271.0658282843091
 40
271.0658282843091
 10
-93.43109281587834
 20
-140.2925142609232
 30
0.0
 41
1.0
 10
-93.48415059499949
 20
-125.1740628548443
 30
0.0
 41
0.8382166063839079
 10
-79.68403261467414
 20
-118.99934571355
 30
0.0
 41
1.0
  0
SPLINE
  5
C6
330
1F
100
AcDbEntity
  8
WHITE
100
AcDbSpline
210
0.0
220
0.0
230
1.0
 70
    12
 71
     2
 72
     6
 73
     3
 74
     0
 42
0.0000000001
 43
0.0000000001
 40
271.0658282843091
 40
271.0658282843091
 40
271.0658282843091
 40
282.9636883969865
 40
282.9636883969865
 40
282.9636883969865
 10
-79.68403261467414
 20
-118.99934571355
 30
0.0
 41
1.0
 10
-67.95436292788953
 20
-115.2547797415107
 30
0.0
 41
0.9850912821657216
 10
-55.64981052117314
 20
-115.7074555089179
 30
0.0
 41
1.0
  0
LINE
  5
C7
330
1F
100
AcDbEntity
  8
WHITE
100
AcDbLine
 10
-55.64981006105224
 20
-115.7074527317646
 30
0.0
 11
-54.8813979509675
 21
-115.7627784036907
 31
0.0
  0
LINE
  5
C8
330
1F
100
AcDbEntity
  8
WHITE
100
AcDbLine
 10
-54.8813979509675
 20
-115.7627784036907
 30
0.0
 11
-54.8813979509675
 21
-138.7001872545647
 31
0.0
  0
LINE
  5
C9
330
1F
100
AcDbEntity
  8
WHITE
100
AcDbLine
 10
-54.8813979509675
 20
-138.7001872545647
 30
0.0
 11
-51.83438779711141
 21
-138.7001872545647
 31
0.0
  0
LINE
  5
CA
330
1F
100
AcDbEntity
  8
WHITE
100
AcDbLine
 10
-51.83438779711141
 20
-138.7001872545647
 30
0.0
 11
-51.83642720910562
 21
-115.7441333542986
 31
0.0
  0
SPLINE
  5
CB
330
1F
100
AcDbEntity
  8
WHITE
100
AcDbSpline
210
0.0
220
0.0
230
1.0
 70
    12
 71
     2
 72
     8
 73
     5
 74
     0
 42
0.0000000001
 43
0.0000000001
 40
130.295353122508
 40
130.295353122508
 40
130.295353122508
 40
143.885796423477
 40
143.885796423477
 40
157.476239724446
 40
157.476239724446
 40
157.476239724446
 10
17.49248577934631
 20
228.8843042694614
 30
0.0
 41
1.0
 10
17.0881068166241
 20
213.9422547514547
 30
0.0
 41
0.9003912327847963
 10
5.129927379211524
 20
204.9739600034717
 30
0.0
 41
1.0
 10
-6.82825205820105
 20
196.0056652554887
 30
0.0
 41
0.9003912327847963
 10
-21.28570762855931
 20
199.801761220447
 30
0.0
 41
1.0
  0
SPLINE
  5
CC
330
1F
100
AcDbEntity
  8
WHITE
100
AcDbSpline
210
0.0
220
0.0
230
1.0
 70
    12
 71
     2
 72
     6
 73
     3
 74
     0
 42
0.0000000001
 43
0.0000000001
 40
59.52200993972086
 40
59.52200993972086
 40
59.52200993972086
 40
80.36696006753098
 40
80.36696006753098
 40
80.36696006753098
 10
-21.28570762855929
 20
199.801761220447
 30
0.0
 41
1.0
 10
-43.95215389781853
 20
207.9212813311434
 30
0.0
 41
0.8388375403263315
 10
-45.76860188020233
 20
231.929507213797
 30
0.0
 41
1.0
  0
LINE
  5
CD
330
1F
100
AcDbEntity
  8
WHITE
100
AcDbLine
 10
-45.76860188020233
 20
231.929507213797
 30
0.0
 11
-45.77384521555278
 21
232.6678165949232
 31
0.0
  0
LINE
  5
CE
330
1F
100
AcDbEntity
  8
WHITE
100
AcDbLine
 10
-45.77384521555278
 20
232.6678165949232
 30
0.0
 11
-32.28742582956462
 21
232.1218976990389
 31
0.0
  0
LINE
  5
CF
330
1F
100
AcDbEntity
  8
WHITE
100
AcDbLine
 10
-32.28742582956462
 20
232.1218976990389
 30
0.0
 11
-32.17882358467268
 21
235.1955461393778
 31
0.0
  0
LINE
  5
D0
330
1F
100
AcDbEntity
  8
WHITE
100
AcDbLine
 10
-32.17882358467268
 20
235.1955461393778
 30
0.0
 11
-43.78491986411683
 21
235.6893787823068
 31
0.0
  0
SPLINE
  5
D1
330
1F
100
AcDbEntity
  8
WHITE
100
AcDbSpline
210
0.0
220
0.0
230
1.0
 70
    12
 71
     2
 72
     6
 73
     3
 74
     0
 42
0.0000000001
 43
0.0000000001
 40
94.48436308566609
 40
94.48436308566609
 40
94.48436308566609
 40
95.33550084775973
 40
95.33550084775973
 40
95.33550084775973
 10
-43.78491986411679
 20
235.6893787823066
 30
0.0
 41
1.0
 10
-43.61677003928785
 20
236.5452962289156
 30
0.0
 41
0.9995863654796373
 10
-43.39968753950865
 20
237.3901300748815
 30
0.0
 41
1.0
  0
SPLINE
  5
D2
330
1F
100
AcDbEntity
  8
WHITE
100
AcDbSpline
210
0.0
220
0.0
230
1.0
 70
    12
 71
     2
 72
     6
 73
     3
 74
     0
 42
0.0000000001
 43
0.0000000001
 40
95.33550084775973
 40
95.33550084775973
 40
95.33550084775973
 40
97.95422978472517
 40
97.95422978472517
 40
97.95422978472517
 10
-43.39968753950865
 20
237.3901300748815
 30
0.0
 41
1.0
 10
-42.65075916602333
 20
240.2470995529735
 30
0.0
 41
0.8670386723738951
 10
-39.80527684203155
 20
241.038553058374
 30
0.0
 41
1.0
  0
SPLINE
  5
D3
330
1F
100
AcDbEntity
  8
WHITE
100
AcDbSpline
210
0.0
220
0.0
230
1.0
 70
    12
 71
     2
 72
     6
 73
     3
 74
     0
 42
0.0000000001
 43
0.0000000001
 40
97.95422978472517
 40
97.95422978472517
 40
97.95422978472517
 40
120.3508296208839
 40
120.3508296208839
 40
120.3508296208839
 10
-39.80527684203155
 20
241.038553058374
 30
0.0
 41
1.0
 10
-17.33262826253367
 20
247.2950343988409
 30
0.0
 41
0.9757130027800123
 10
5.657788115885642
 20
243.3448131786901
 30
0.0
 41
1.0
  0
SPLINE
  5
D4
330
1F
100
AcDbEntity
  8
WHITE
100
AcDbSpline
210
0.0
220
0.0
230
1.0
 70
    12
 71
     2
 72
     6
 73
     3
 74
     0
 42
0.0000000001
 43
0.0000000001
 40
120.3508296208839
 40
120.3508296208839
 40
120.3508296208839
 40
130.295353122508
 40
130.295353122508
 40
130.295353122508
 10
5.657788115885625
 20
243.3448131786901
 30
0.0
 41
1.0
 10
17.82662273031465
 20
241.2308685752763
 30
0.0
 41
0.7564515418827045
 10
17.49248577934628
 20
228.8843042694614
 30
0.0
 41
1.0
  0
SPLINE
  5
D5
330
1F
100
AcDbEntity
  8
WHITE
100
AcDbSpline
210
0.0
220
0.0
230
1.0
 70
    12
 71
     2
 72
     6
 73
     3
 74
     0
 42
0.0000000001
 43
0.0000000001
 40
117.0901939884207
 40
117.0901939884207
 40
117.0901939884207
 40
125.0390584158967
 40
125.0390584158967
 40
125.0390584158967
 10
70.97294891572818
 20
-56.21036335267234
 30
0.0
 41
1.0
 10
71.29896732215744
 20
-64.86827899686803
 30
0.0
 41
0.912349432275811
 10
65.047758814792
 20
-70.86729420778236
 30
0.0
 41
1.0
  0
SPLINE
  5
D6
330
1F
100
AcDbEntity
  8
WHITE
100
AcDbSpline
210
0.0
220
0.0
230
1.0
 70
    12
 71
     2
 72
     8
 73
     5
 74
     0
 42
0.0000000001
 43
0.0000000001
 40
29.68808082038417
 40
29.68808082038417
 40
29.68808082038417
 40
34.17521267013495
 40
34.17521267013495
 40
38.66234451988573
 40
38.66234451988573
 40
38.66234451988573
 10
65.047758814792
 20
-70.86729420778236
 30
0.0
 41
1.0
 10
61.58561077484229
 20
-74.29285449774638
 30
0.0
 41
0.9218488756508536
 10
56.71580914903201
 20
-74.21562447792431
 30
0.0
 41
1.0
 10
51.84600752322176
 20
-74.13839445810227
 30
0.0
 41
0.9218488756508536
 10
48.49422492356781
 20
-70.60477227182322
 30
0.0
 41
1.0
  0
LINE
  5
D7
330
1F
100
AcDbEntity
  8
WHITE
100
AcDbLine
 10
48.49422492356781
 20
-70.60477227182322
 30
0.0
 11
47.89866324093689
 21
-69.97690041185844
 31
0.0
  0
LINE
  5
D8
330
1F
100
AcDbEntity
  8
WHITE
100
AcDbLine
 10
47.89866324093689
 20
-69.97690041185844
 30
0.0
 11
59.07930475159361
 21
-53.96071510101891
 31
0.0
  0
LINE
  5
D9
330
1F
100
AcDbEntity
  8
WHITE
100
AcDbLine
 10
59.07930475159361
 20
-53.96071510101891
 30
0.0
 11
56.62332412301424
 21
-52.22958515619661
 31
0.0
  0
LINE
  5
DA
330
1F
100
AcDbEntity
  8
WHITE
100
AcDbLine
 10
56.62332412301424
 20
-52.22958515619661
 30
0.0
 11
45.44804694842329
 21
-68.21562072484132
 31
0.0
  0
SPLINE
  5
DB
330
1F
100
AcDbEntity
  8
WHITE
100
AcDbSpline
210
0.0
220
0.0
230
1.0
 70
    12
 71
     2
 72
     8
 73
     5
 74
     0
 42
0.0000000001
 43
0.0000000001
 40
59.6021384903369
 40
59.6021384903369
 40
59.6021384903369
 40
64.29760830666555
 40
64.29760830666555
 40
68.9930781229942
 40
68.9930781229942
 40
68.9930781229942
 10
45.4480469484232
 20
-68.21562072484134
 30
0.0
 41
1.0
 10
40.6472348809737
 20
-66.49787426196212
 30
0.0
 41
0.9168304297822452
 10
38.63476045396931
 20
-61.8129627261531
 30
0.0
 41
1.0
 10
36.62228602696492
 20
-57.1280511903441
 30
0.0
 41
0.9168304297822452
 10
38.68147973517066
 20
-52.46348575615968
 30
0.0
 41
1.0
  0
SPLINE
  5
DC
330
1F
100
AcDbEntity
  8
WHITE
100
AcDbSpline
210
0.0
220
0.0
230
1.0
 70
    12
 71
     2
 72
     6
 73
     3
 74
     0
 42
0.0000000001
 43
0.0000000001
 40
68.9930781229942
 40
68.9930781229942
 40
68.9930781229942
 40
76.94073875316663
 40
76.94073875316663
 40
76.94073875316663
 10
38.68147973517063
 20
-52.46348575615964
 30
0.0
 41
1.0
 10
42.20507584057231
 20
-44.56850028375131
 30
0.0
 41
0.9142306060565037
 10
50.42089974228968
 20
-41.87651909148617
 30
0.0
 41
1.0
  0
SPLINE
  5
DD
330
1F
100
AcDbEntity
  8
WHITE
100
AcDbSpline
210
0.0
220
0.0
230
1.0
 70
    12
 71
     2
 72
     6
 73
     3
 74
     0
 42
0.0000000001
 43
0.0000000001
 40
76.94073875316663
 40
76.94073875316663
 40
76.94073875316663
 40
92.51779766478464
 40
92.51779766478464
 40
92.51779766478464
 10
50.42089974228968
 20
-41.87651909148614
 30
0.0
 41
1.0
 10
66.60565661134542
 20
-36.45087260793266
 30
0.0
 41
0.9038551603633157
 10
72.66906879926132
 20
-20.49408636149893
 30
0.0
 41
1.0
  0
SPLINE
  5
DE
330
1F
100
AcDbEntity
  8
WHITE
100
AcDbSpline
210
0.0
220
0.0
230
1.0
 70
    12
 71
     2
 72
     8
 73
     5
 74
     0
 42
0.0000000001
 43
0.0000000001
 40
92.51779766478464
 40
92.51779766478464
 40
92.51779766478464
 40
93.93438763014859
 40
93.93438763014859
 40
95.35097759551255
 40
95.35097759551255
 40
95.35097759551255
 10
72.6690687992613
 20
-20.49408636149893
 30
0.0
 41
1.0
 10
73.22023630406927
 20
-19.0327474507735
 30
0.0
 41
0.8982514152466742
 10
74.71226575105193
 20
-18.57107098430266
 30
0.0
 41
1.0
 10
76.20429519803459
 20
-18.10939451783172
 30
0.0
 41
0.8982514152466742
 10
77.48447808770949
 20
-19.00406138283796
 30
0.0
 41
1.0
  0
LINE
  5
DF
330
1F
100
AcDbEntity
  8
WHITE
100
AcDbLine
 10
77.48447808770949
 20
-19.00406138283796
 30
0.0
 11
83.09125775697284
 21
-22.9224077612639
 31
0.0
  0
SPLINE
  5
E0
330
1F
100
AcDbEntity
  8
WHITE
100
AcDbSpline
210
0.0
220
0.0
230
1.0
 70
    12
 71
     2
 72
     8
 73
     5
 74
     0
 42
0.0000000001
 43
0.0000000001
 40
98.68916632594706
 40
98.68916632594706
 40
98.68916632594706
 40
100.0982743707669
 40
100.0982743707669
 40
101.5073824155868
 40
101.5073824155868
 40
101.5073824155868
 10
83.09125775697284
 20
-22.9224077612639
 30
0.0
 41
1.0
 10
84.36493591932766
 20
-23.81115937146264
 30
0.0
 41
0.8980138417494129
 10
84.44323386650495
 20
-25.36228957791154
 30
0.0
 41
1.0
 10
84.5215318136822
 20
-26.91341978436046
 30
0.0
 41
0.8980138417494129
 10
83.3438246540946
 20
-27.92591241749236
 30
0.0
 41
1.0
  0
SPLINE
  5
E1
330
1F
100
AcDbEntity
  8
WHITE
100
AcDbSpline
210
0.0
220
0.0
230
1.0
 70
    12
 71
     2
 72
     6
 73
     3
 74
     0
 42
0.0000000001
 43
0.0000000001
 40
101.5073824155868
 40
101.5073824155868
 40
101.5073824155868
 40
117.0901939884207
 40
117.0901939884207
 40
117.0901939884207
 10
83.34382465409458
 20
-27.92591241749236
 30
0.0
 41
1.0
 10
70.32792129075304
 20
-39.08067173072489
 30
0.0
 41
0.9004722425007926
 10
70.97294891572814
 20
-56.21036335267234
 30
0.0
 41
1.0
  0
LINE
  5
E2
330
1F
100
AcDbEntity
  8
WHITE
100
AcDbLine
 10
58.63473075528528
 20
285.1676125395032
 30
0.0
 11
62.66530793525982
 21
273.9098631629276
 31
0.0
  0
SPLINE
  5
E3
330
1F
100
AcDbEntity
  8
WHITE
100
AcDbSpline
210
0.0
220
0.0
230
1.0
 70
    12
 71
     2
 72
     6
 73
     3
 74
     0
 42
0.0000000001
 43
0.0000000001
 40
44.12521485216861
 40
44.12521485216861
 40
44.12521485216861
 40
49.53445147012471
 40
49.53445147012471
 40
49.53445147012471
 10
62.66530793525982
 20
273.9098631629276
 30
0.0
 41
1.0
 10
64.62791932711065
 20
268.3219877935655
 30
0.0
 41
0.9066709659264081
 10
70.16642167583495
 20
266.2240873306927
 30
0.0
 41
1.0
  0
LINE
  5
E4
330
1F
100
AcDbEntity
  8
WHITE
100
AcDbLine
 10
70.16642167583495
 20
266.2240873306927
 30
0.0
 11
70.95186418488548
 21
265.9265736528884
 31
0.0
  0
LINE
  5
E5
330
1F
100
AcDbEntity
  8
WHITE
100
AcDbLine
 10
70.95186418488548
 20
265.9265736528884
 30
0.0
 11
70.86990022647647
 21
246.2531745357583
 31
0.0
  0
LINE
  5
E6
330
1F
100
AcDbEntity
  8
WHITE
100
AcDbLine
 10
70.86990022647647
 20
246.2531745357583
 30
0.0
 11
73.94354866681546
 21
246.2531745357583
 31
0.0
  0
LINE
  5
E7
330
1F
100
AcDbEntity
  8
WHITE
100
AcDbLine
 10
73.94354866681546
 20
246.2531745357583
 30
0.0
 11
73.88822307031468
 21
265.926573414053
 31
0.0
  0
SPLINE
  5
E8
330
1F
100
AcDbEntity
  8
WHITE
100
AcDbSpline
210
0.0
220
0.0
230
1.0
 70
    12
 71
     2
 72
     6
 73
     3
 74
     0
 42
0.0000000001
 43
0.0000000001
 40
70.64646095117244
 40
70.64646095117244
 40
70.64646095117244
 40
76.45976583443822
 40
76.45976583443822
 40
76.45976583443822
 10
73.88822307031468
 20
265.926573414053
 30
0.0
 41
1.0
 10
79.99915312263391
 20
267.8680181322102
 30
0.0
 41
0.8956523649386697
 10
82.14578333326787
 20
273.9099261451473
 30
0.0
 41
1.0
  0
LINE
  5
E9
330
1F
100
AcDbEntity
  8
WHITE
100
AcDbLine
 10
82.14578333326787
 20
273.9099261451473
 30
0.0
 11
86.15208040118995
 21
285.1860547661713
 31
0.0
  0
SPLINE
  5
EA
330
1F
100
AcDbEntity
  8
WHITE
100
AcDbSpline
210
0.0
220
0.0
230
1.0
 70
    12
 71
     2
 72
     8
 73
     5
 74
     0
 42
0.0000000001
 43
0.0000000001
 40
82.2997387151768
 40
82.2997387151768
 40
82.2997387151768
 40
86.84411217246485
 40
86.84411217246485
 40
91.3884856297529
 40
91.3884856297529
 40
91.3884856297529
 10
86.15208040118995
 20
285.1860547661713
 30
0.0
 41
1.0
 10
87.83831474367676
 20
289.967553807964
 30
0.0
 41
0.8818491945052711
 10
92.75119078191165
 20
291.2204577856827
 30
0.0
 41
1.0
 10
97.66406682014662
 20
292.4733617634013
 30
0.0
 41
0.8818491945052711
 10
101.434229854104
 20
289.0833779814597
 30
0.0
 41
1.0
  0
LINE
  5
EB
330
1F
100
AcDbEntity
  8
WHITE
100
AcDbLine
 10
101.434229854104
 20
289.0833779814597
 30
0.0
 11
99.23967533080558
 21
257.310112525138
 31
0.0
  0
LINE
  5
EC
330
1F
100
AcDbEntity
  8
WHITE
100
AcDbLine
 10
99.23967533080558
 20
257.310112525138
 30
0.0
 11
102.3133237711446
 21
257.0908589363938
 31
0.0
  0
LINE
  5
ED
330
1F
100
AcDbEntity
  8
WHITE
100
AcDbLine
 10
102.3133237711446
 20
257.0908589363938
 30
0.0
 11
103.4116409093858
 21
272.92219750761
 31
0.0
  0
SPLINE
  5
EE
330
1F
100
AcDbEntity
  8
WHITE
100
AcDbSpline
210
0.0
220
0.0
230
1.0
 70
    12
 71
     2
 72
     8
 73
     5
 74
     0
 42
0.0000000001
 43
0.0000000001
 40
116.1797786426259
 40
116.1797786426259
 40
116.1797786426259
 40
118.3913585459154
 40
118.3913585459154
 40
120.6029384492049
 40
120.6029384492049
 40
120.6029384492049
 10
103.4116409093858
 20
272.92219750761
 30
0.0
 41
1.0
 10
103.5971614616426
 20
275.6571064317954
 30
0.0
 41
0.7582322536994878
 10
106.3289941320416
 20
275.8834578396529
 30
0.0
 41
1.0
 10
109.0608268024406
 20
276.1098092475104
 30
0.0
 41
0.7582322536994878
 10
109.693939800638
 20
273.4427298279184
 30
0.0
 41
1.0
  0
SPLINE
  5
EF
330
1F
100
AcDbEntity
  8
WHITE
100
AcDbSpline
210
0.0
220
0.0
230
1.0
 70
    12
 71
     2
 72
     6
 73
     3
 74
     0
 42
0.0000000001
 43
0.0000000001
 40
120.6029384492049
 40
120.6029384492049
 40
120.6029384492049
 40
145.0436986756555
 40
145.0436986756555
 40
145.0436986756555
 10
109.693939800638
 20
273.4427298279184
 30
0.0
 41
1.0
 10
115.6754704188203
 20
248.0373868390349
 30
0.0
 41
0.9399227714527949
 10
103.9587552973723
 20
224.715106768641
 30
0.0
 41
1.0
  0
SPLINE
  5
F0
330
1F
100
AcDbEntity
  8
WHITE
100
AcDbSpline
210
0.0
220
0.0
230
1.0
 70
    12
 71
     2
 72
     6
 73
     3
 74
     0
 42
0.0000000001
 43
0.0000000001
 40
145.0436986756555
 40
145.0436986756555
 40
145.0436986756555
 40
157.9415642958641
 40
157.9415642958641
 40
157.9415642958641
 10
103.9587552973723
 20
224.7151067686409
 30
0.0
 41
1.0
 10
96.88789550921622
 20
210.5210422086186
 30
0.0
 41
0.7686104255693678
 10
81.64611320098946
 20
214.897867421769
 30
0.0
 41
1.0
  0
SPLINE
  5
F1
330
1F
100
AcDbEntity
  8
WHITE
100
AcDbSpline
210
0.0
220
0.0
230
1.0
 70
    12
 71
     2
 72
     6
 73
     3
 74
     0
 42
0.0000000001
 43
0.0000000001
 40
157.9415642958641
 40
157.9415642958641
 40
157.9415642958641
 40
167.0670095622879
 40
167.0670095622879
 40
167.0670095622879
 10
81.64611320098946
 20
214.897867421769
 30
0.0
 41
1.0
 10
72.42020100755555
 20
217.5562908372105
 30
0.0
 41
0.9612412314035265
 10
63.1878252038634
 20
214.9204023956942
 30
0.0
 41
1.0
  0
SPLINE
  5
F2
330
1F
100
AcDbEntity
  8
WHITE
100
AcDbSpline
210
0.0
220
0.0
230
1.0
 70
    12
 71
     2
 72
     6
 73
     3
 74
     0
 42
0.0000000001
 43
0.0000000001
 40
167.0670095622879
 40
167.0670095622879
 40
167.0670095622879
 40
179.9844853269805
 40
179.9844853269805
 40
179.9844853269805
 10
63.1878252038634
 20
214.9204023956942
 30
0.0
 41
1.0
 10
47.95205859379266
 20
210.5602312713222
 30
0.0
 41
0.7702473373580117
 10
40.82602421051212
 20
224.7150647355017
 30
0.0
 41
1.0
  0
SPLINE
  5
F3
330
1F
100
AcDbEntity
  8
WHITE
100
AcDbSpline
210
0.0
220
0.0
230
1.0
 70
    12
 71
     2
 72
     6
 73
     3
 74
     0
 42
0.0000000001
 43
0.0000000001
 40
179.9844853269805
 40
179.9844853269805
 40
179.9844853269805
 40
204.4244407435483
 40
204.4244407435483
 40
204.4244407435483
 10
40.82602421051217
 20
224.7150647355017
 30
0.0
 41
1.0
 10
29.35876336105413
 20
248.0741236031997
 30
0.0
 41
0.9427183941805886
 10
35.13566597193105
 20
273.4467682978021
 30
0.0
 41
1.0
  0
SPLINE
  5
F4
330
1F
100
AcDbEntity
  8
WHITE
100
AcDbSpline
210
0.0
220
0.0
230
1.0
 70
    12
 71
     2
 72
     8
 73
     5
 74
     0
 42
0.0000000001
 43
0.0000000001
 40
204.4244407435483
 40
204.4244407435483
 40
204.4244407435483
 40
206.6323623296373
 40
206.6323623296373
 40
208.8402839157264
 40
208.8402839157264
 40
208.8402839157264
 10
35.13566597193105
 20
273.4467682978021
 30
0.0
 41
1.0
 10
35.74578657060282
 20
276.1264695518635
 30
0.0
 41
0.754606135552455
 10
38.48424848028776
 20
275.8943654262069
 30
0.0
 41
1.0
 10
41.22271038997261
 20
275.6622613005503
 30
0.0
 41
0.754606135552455
 10
41.37312003143067
 20
272.9180996989498
 30
0.0
 41
1.0
  0
LINE
  5
F5
330
1F
100
AcDbEntity
  8
WHITE
100
AcDbLine
 10
41.37312003143067
 20
272.9180996989498
 30
0.0
 11
42.5267634086302
 21
257.0908589363938
 31
0.0
  0
LINE
  5
F6
330
1F
100
AcDbEntity
  8
WHITE
100
AcDbLine
 10
42.5267634086302
 20
257.0908589363938
 30
0.0
 11
45.57172446352607
 21
257.310112525138
 31
0.0
  0
LINE
  5
F7
330
1F
100
AcDbEntity
  8
WHITE
100
AcDbLine
 10
45.57172446352607
 20
257.310112525138
 30
0.0
 11
43.3505017356602
 21
289.0834405977382
 31
0.0
  0
SPLINE
  5
F8
330
1F
100
AcDbEntity
  8
WHITE
100
AcDbSpline
210
0.0
220
0.0
230
1.0
 70
    12
 71
     2
 72
     8
 73
     5
 74
     0
 42
0.0000000001
 43
0.0000000001
 40
233.6184666748007
 40
233.6184666748007
 40
233.6184666748007
 40
238.1663083612905
 40
238.1663083612905
 40
242.7141500477803
 40
242.7141500477803
 40
242.7141500477803
 10
43.3505017356602
 20
289.0834405977382
 30
0.0
 41
1.0
 10
47.13395044065282
 20
292.4379439380406
 30
0.0
 41
0.883229524038646
 10
52.03214903487144
 20
291.1830227074428
 30
0.0
 41
1.0
 10
56.93034762909003
 20
289.9281014768447
 30
0.0
 41
0.883229524038646
 10
58.63473075528528
 20
285.1676125395032
 30
0.0
 41
1.0
  0
SPLINE
  5
F9
330
1F
100
AcDbEntity
  8
WHITE
100
AcDbSpline
210
0.0
220
0.0
230
1.0
 70
    12
 71
     2
 72
     8
 73
     5
 74
     0
 42
0.0000000001
 43
0.0000000001
 40
209.863031272473
 40
209.863031272473
 40
209.863031272473
 40
213.6767892928803
 40
213.6767892928803
 40
217.4905473132876
 40
217.4905473132876
 40
217.4905473132876
 10
93.27819487895854
 20
31.8322011480208
 30
0.0
 41
1.0
 10
90.4352856219291
 20
28.11205148223926
 30
0.0
 41
0.7693316389658872
 10
93.56973485731505
 20
24.63399533399965
 30
0.0
 41
1.0
 10
96.70418409270101
 20
21.15593918576004
 30
0.0
 41
0.7693316389658872
 10
100.6989554329238
 20
23.59795649095132
 30
0.0
 41
1.0
  0
SPLINE
  5
FA
330
1F
100
AcDbEntity
  8
WHITE
100
AcDbSpline
210
0.0
220
0.0
230
1.0
 70
    12
 71
     2
 72
     8
 73
     5
 74
     0
 42
0.0000000001
 43
0.0000000001
 40
87.20424458000257
 40
87.20424458000257
 40
87.20424458000257
 40
95.08121224079508
 40
95.08121224079508
 40
102.9581799015876
 40
102.9581799015876
 40
102.9581799015876
 10
100.6989554329238
 20
23.59795649095132
 30
0.0
 41
1.0
 10
108.0994002850598
 20
28.36646781772725
 30
0.0
 41
0.8796056085254408
 10
116.1410847250792
 20
24.78364830646976
 30
0.0
 41
1.0
 10
124.1827691650986
 20
21.20082879521242
 30
0.0
 41
0.8796056085254408
 10
125.5865542923304
 20
12.50976029935631
 30
0.0
 41
1.0
  0
LINE
  5
FB
330
1F
100
AcDbEntity
  8
WHITE
100
AcDbLine
 10
125.5865542923304
 20
12.50976029935631
 30
0.0
 11
125.6356116800046
 21
11.74801809165489
 31
0.0
  0
LINE
  5
FC
330
1F
100
AcDbEntity
  8
WHITE
100
AcDbLine
 10
125.6356116800046
 20
11.74801809165489
 30
0.0
 11
134.6545752674133
 21
11.74801809165489
 31
0.0
  0
LINE
  5
FD
330
1F
100
AcDbEntity
  8
WHITE
100
AcDbLine
 10
134.6545752674133
 20
11.74801809165489
 30
0.0
 11
134.6545752674133
 21
8.703057036759008
 31
0.0
  0
LINE
  5
FE
330
1F
100
AcDbEntity
  8
WHITE
100
AcDbLine
 10
134.6545752674133
 20
8.703057036759008
 30
0.0
 11
125.7922226705037
 21
8.703056975677624
 31
0.0
  0
SPLINE
  5
FF
330
1F
100
AcDbEntity
  8
WHITE
100
AcDbSpline
210
0.0
220
0.0
230
1.0
 70
    12
 71
     2
 72
     8
 73
     5
 74
     0
 42
0.0000000001
 43
0.0000000001
 40
113.5431240241075
 40
113.5431240241075
 40
113.5431240241075
 40
121.9147133786962
 40
121.9147133786962
 40
130.286302733285
 40
130.286302733285
 40
130.286302733285
 10
125.7922226705037
 20
8.703056975677624
 30
0.0
 41
1.0
 10
125.10840282941
 20
-0.7384253233696407
 30
0.0
 41
0.8648889970389865
 10
116.5712871099359
 20
-4.828272847496543
 30
0.0
 41
1.0
 10
108.0341713904619
 20
-8.91812037162339
 30
0.0
 41
0.8648889970389865
 10
100.2480463171779
 20
-3.534306303374358
 30
0.0
 41
1.0
  0
SPLINE
  5
100
330
1F
100
AcDbEntity
  8
WHITE
100
AcDbSpline
210
0.0
220
0.0
230
1.0
 70
    12
 71
     2
 72
    12
 73
     9
 74
     0
 42
0.0000000001
 43
0.0000000001
 40
130.286302733285
 40
130.286302733285
 40
130.286302733285
 40
132.2796197100429
 40
132.2796197100429
 40
134.2729366868007
 40
134.2729366868007
 40
136.2662536635585
 40
136.2662536635585
 40
138.2595706403163
 40
138.2595706403163
 40
138.2595706403163
 10
100.2480463171779
 20
-3.534306303374428
 30
0.0
 41
1.0
 10
98.59970322630998
 20
-2.14748266290522
 30
0.0
 41
0.9238795084193323
 10
96.45351627183341
 20
-2.332405109922121
 30
0.0
 41
1.0
 10
94.30732931735683
 20
-2.517327556938987
 30
0.0
 41
0.9238795084193323
 10
92.92050609197553
 20
-4.16567099703849
 30
0.0
 41
1.0
 10
91.53368286659423
 20
-5.814014437137983
 30
0.0
 41
0.9238795084193323
 10
91.7186058540665
 20
-7.960201345047077
 30
0.0
 41
1.0
 10
91.90352884153879
 20
-10.10638825295619
 30
0.0
 41
0.9238795084193323
 10
93.55187263086974
 20
-11.49321106324954
 30
0.0
 41
1.0
  0
SPLINE
  5
101
330
1F
100
AcDbEntity
  8
WHITE
100
AcDbSpline
210
0.0
220
0.0
230
1.0
 70
    12
 71
     2
 72
    12
 73
     9
 74
     0
 42
0.0000000001
 43
0.0000000001
 40
138.2595706403163
 40
138.2595706403163
 40
138.2595706403163
 40
156.1604357983555
 40
156.1604357983555
 40
174.0613009563947
 40
174.0613009563947
 40
191.9621661144338
 40
191.9621661144338
 40
209.863031272473
 40
209.863031272473
 40
209.863031272473
 10
93.55187263086974
 20
-11.49321106324961
 30
0.0
 41
1.0
 10
108.2089316357972
 20
-26.29605526260341
 30
0.0
 41
0.8299016550362917
 10
127.4493186308205
 20
-18.31100151538275
 30
0.0
 41
1.0
 10
146.6897056258439
 20
-10.32594776816227
 30
0.0
 41
0.8299016550362917
 10
146.5581196028401
 20
10.50518902709737
 30
0.0
 41
1.0
 10
146.4265335798363
 20
31.33632582235692
 30
0.0
 41
0.8299016550362917
 10
127.0868061078031
 20
39.07767689124329
 30
0.0
 41
1.0
 10
107.7470786357699
 20
46.8190279601296
 30
0.0
 41
0.8299016550362917
 10
93.27819487895857
 20
31.83220114802073
 30
0.0
 41
1.0
  0
SPLINE
  5
102
330
1F
100
AcDbEntity
  8
WHITE
100
AcDbSpline
210
0.0
220
0.0
230
1.0
 70
    12
 71
     2
 72
     6
 73
     3
 74
     0
 42
0.0000000001
 43
0.0000000001
 40
28.46814478169328
 40
28.46814478169328
 40
28.46814478169328
 40
31.98465585821325
 40
31.98465585821325
 40
31.98465585821325
 10
24.6454563478249
 20
43.94105522402126
 30
0.0
 41
1.0
 10
22.63311096879803
 20
40.93333933026487
 30
0.0
 41
0.9933876528234634
 10
19.98775939181384
 20
38.46392566378598
 30
0.0
 41
1.0
  0
SPLINE
  5
103
330
1F
100
AcDbEntity
  8
WHITE
100
AcDbSpline
210
0.0
220
0.0
230
1.0
 70
    12
 71
     2
 72
     6
 73
     3
 74
     0
 42
0.0000000001
 43
0.0000000001
 40
3.516511076519968
 40
3.516511076519968
 40
3.516511076519968
 40
7.032788598532725
 40
7.032788598532725
 40
7.032788598532725
 10
19.98775939181384
 20
38.46392566378598
 30
0.0
 41
1.0
 10
17.34911014810648
 20
35.98540474857197
 30
0.0
 41
0.99295648625688
 10
14.20136890551034
 20
34.1973161522966
 30
0.0
 41
1.0
  0
SPLINE
  5
104
330
1F
100
AcDbEntity
  8
WHITE
100
AcDbSpline
210
0.0
220
0.0
230
1.0
 70
    12
 71
     2
 72
     8
 73
     5
 74
     0
 42
0.0000000001
 43
0.0000000001
 40
7.032788598532725
 40
7.032788598532725
 40
7.032788598532725
 40
7.584596955329669
 40
7.584596955329669
 40
8.136405312126614
 40
8.136405312126614
 40
8.136405312126614
 10
14.20136890551034
 20
34.1973161522966
 30
0.0
 41
1.0
 10
13.65207074384334
 20
33.88240960546308
 30
0.0
 41
0.8487871690845337
 10
13.12724701255281
 20
34.23660539132691
 30
0.0
 41
1.0
 10
12.60242328126229
 20
34.59080117719064
 30
0.0
 41
0.8487871690845337
 10
12.68895358674038
 20
35.21802291619781
 30
0.0
 41
1.0
  0
SPLINE
  5
105
330
1F
100
AcDbEntity
  8
WHITE
100
AcDbSpline
210
0.0
220
0.0
230
1.0
 70
    12
 71
     2
 72
     6
 73
     3
 74
     0
 42
0.0000000001
 43
0.0000000001
 40
8.136405312126614
 40
8.136405312126614
 40
8.136405312126614
 40
19.69498770254905
 40
19.69498770254905
 40
19.69498770254905
 10
12.68895358674043
 20
35.21802291619781
 30
0.0
 41
1.0
 10
14.35801800539019
 20
47.22427907485689
 30
0.0
 41
0.9656532332412958
 10
21.82668662668416
 20
56.77178932655293
 30
0.0
 41
1.0
  0
SPLINE
  5
106
330
1F
100
AcDbEntity
  8
WHITE
100
AcDbSpline
210
0.0
220
0.0
230
1.0
 70
    12
 71
     2
 72
     8
 73
     5
 74
     0
 42
0.0000000001
 43
0.0000000001
 40
19.69498770254905
 40
19.69498770254905
 40
19.69498770254905
 40
20.47656705782543
 40
20.47656705782543
 40
21.25814641310181
 40
21.25814641310181
 40
21.25814641310181
 10
21.82668662668418
 20
56.77178932655293
 30
0.0
 41
1.0
 10
22.3473646040641
 20
57.43695098059874
 30
0.0
 41
0.9236335100996833
 10
23.18601041669426
 20
57.53803897741016
 30
0.0
 41
1.0
 10
24.02465622932442
 20
57.63912697422127
 30
0.0
 41
0.9236335100996833
 10
24.6884777767628
 20
57.11674154630634
 30
0.0
 41
1.0
  0
SPLINE
  5
107
330
1F
100
AcDbEntity
  8
WHITE
100
AcDbSpline
210
0.0
220
0.0
230
1.0
 70
    12
 71
     2
 72
     6
 73
     3
 74
     0
 42
0.0000000001
 43
0.0000000001
 40
21.25814641310181
 40
21.25814641310181
 40
21.25814641310181
 40
26.30603099747267
 40
26.30603099747267
 40
26.30603099747267
 10
24.68847777676284
 20
57.11674154630641
 30
0.0
 41
1.0
 10
29.46185654253877
 20
53.30421236406423
 30
0.0
 41
0.7831347810545836
 10
26.8301478237418
 20
47.79107960433343
 30
0.0
 41
1.0
  0
SPLINE
  5
108
330
1F
100
AcDbEntity
  8
WHITE
100
AcDbSpline
210
0.0
220
0.0
230
1.0
 70
    12
 71
     2
 72
     6
 73
     3
 74
     0
 42
0.0000000001
 43
0.0000000001
 40
26.30603099747267
 40
26.30603099747267
 40
26.30603099747267
 40
28.46814478169328
 40
28.46814478169328
 40
28.46814478169328
 10
26.83014782374178
 20
47.79107960433343
 30
0.0
 41
1.0
 10
25.87957986943677
 20
45.78561578976539
 30
0.0
 41
0.9972987987074367
 10
24.64545634782492
 20
43.94105522402126
 30
0.0
 41
1.0
  0
LINE
  5
109
330
1F
100
AcDbEntity
  8
WHITE
100
AcDbLine
 10
-12.46328724918318
 20
-206.7735087221292
 30
0.0
 11
-5.275047805015168
 21
-196.0731145033958
 31
0.0
  0
SPLINE
  5
10A
330
1F
100
AcDbEntity
  8
WHITE
100
AcDbSpline
210
0.0
220
0.0
230
1.0
 70
    12
 71
     2
 72
     6
 73
     3
 74
     0
 42
0.0000000001
 43
0.0000000001
 40
265.499147598912
 40
265.499147598912
 40
265.499147598912
 40
270.7895360823095
 40
270.7895360823095
 40
270.7895360823095
 10
-5.275047805015168
 20
-196.0731145033958
 30
0.0
 41
1.0
 10
-10.7675528975189
 20
-192.7523310104739
 30
0.0
 41
0.7822633986848931
 10
-15.23366844244681
 20
-197.3619977161475
 30
0.0
 41
1.0
  0
LINE
  5
10B
330
1F
100
AcDbEntity
  8
WHITE
100
AcDbLine
 10
-15.23366844244681
 20
-197.3619977161475
 30
0.0
 11
-19.67816452277352
 21
-201.6692033469111
 31
0.0
  0
SPLINE
  5
10C
330
1F
100
AcDbEntity
  8
WHITE
100
AcDbSpline
210
0.0
220
0.0
230
1.0
 70
    12
 71
     2
 72
     8
 73
     5
 74
     0
 42
0.0000000001
 43
0.0000000001
 40
273.8099607213296
 40
273.8099607213296
 40
273.8099607213296
 40
279.1313341100694
 40
279.1313341100694
 40
284.4527074988092
 40
284.4527074988092
 40
284.4527074988092
 10
-19.67816452277352
 20
-201.6692033469111
 30
0.0
 41
1.0
 10
-23.76559538875113
 20
-205.7140280006258
 30
0.0
 41
0.9235487828585192
 10
-29.51590781694535
 20
-205.6739712708647
 30
0.0
 41
1.0
 10
-35.26622024513956
 20
-205.6339145411037
 30
0.0
 41
0.9235487828585192
 10
-39.29690460507903
 20
-201.5325390213563
 30
0.0
 41
1.0
  0
LINE
  5
10D
330
1F
100
AcDbEntity
  8
WHITE
100
AcDbLine
 10
-39.29690460507903
 20
-201.5325390213563
 30
0.0
 11
-50.35317588584246
 21
-190.282360063833
 31
0.0
  0
SPLINE
  5
10E
330
1F
100
AcDbEntity
  8
WHITE
100
AcDbSpline
210
0.0
220
0.0
230
1.0
 70
    12
 71
     2
 72
     8
 73
     5
 74
     0
 42
0.0000000001
 43
0.0000000001
 40
292.1505486051616
 40
292.1505486051616
 40
292.1505486051616
 40
293.1564576465228
 40
293.1564576465228
 40
294.162366687884
 40
294.162366687884
 40
294.162366687884
 10
-50.35317588584246
 20
-190.282360063833
 30
0.0
 41
1.0
 10
-51.11239063488907
 20
-189.497423550923
 30
0.0
 41
0.9177203969594444
 10
-52.20430019236053
 20
-189.5137294630901
 30
0.0
 41
1.0
 10
-53.29620974983201
 20
-189.5300353752572
 30
0.0
 41
0.9177203969594444
 10
-54.03164765468757
 20
-190.3372921203952
 30
0.0
 41
1.0
  0
LINE
  5
10F
330
1F
100
AcDbEntity
  8
WHITE
100
AcDbLine
 10
-54.03164765468757
 20
-190.3372921203952
 30
0.0
 11
-57.3221616864511
 21
-193.8232032935007
 31
0.0
  0
LINE
  5
110
330
1F
100
AcDbEntity
  8
WHITE
100
AcDbLine
 10
-57.3221616864511
 20
-193.8232032935007
 30
0.0
 11
-48.21391680824646
 21
-202.3556513638819
 31
0.0
  0
LINE
  5
111
330
1F
100
AcDbEntity
  8
WHITE
100
AcDbLine
 10
-48.21391680824646
 20
-202.3556513638819
 30
0.0
 11
-50.29989954975652
 21
-204.60556202221
 31
0.0
  0
LINE
  5
112
330
1F
100
AcDbEntity
  8
WHITE
100
AcDbLine
 10
-50.29989954975652
 20
-204.60556202221
 30
0.0
 11
-59.40815729537636
 21
-196.073117644453
 31
0.0
  0
SPLINE
  5
113
330
1F
100
AcDbEntity
  8
WHITE
100
AcDbSpline
210
0.0
220
0.0
230
1.0
 70
    12
 71
     2
 72
     6
 73
     3
 74
     0
 42
0.0000000001
 43
0.0000000001
 40
310.1805181100542
 40
310.1805181100542
 40
310.1805181100542
 40
315.2963193459527
 40
315.2963193459527
 40
315.2963193459527
 10
-59.40815729537636
 20
-196.073117644453
 30
0.0
 41
1.0
 10
-64.3526840602161
 20
-198.219775572111
 30
0.0
 41
0.9590444890332196
 10
-69.6700748265652
 20
-197.3355580510571
 30
0.0
 41
1.0
  0
LINE
  5
114
330
1F
100
AcDbEntity
  8
WHITE
100
AcDbLine
 10
-69.6700748265652
 20
-197.3355580510571
 30
0.0
 11
-84.18379999115658
 21
-192.3683431185934
 31
0.0
  0
SPLINE
  5
115
330
1F
100
AcDbEntity
  8
WHITE
100
AcDbSpline
210
0.0
220
0.0
230
1.0
 70
    12
 71
     2
 72
     8
 73
     5
 74
     0
 42
0.0000000001
 43
0.0000000001
 40
322.7826293702471
 40
322.7826293702471
 40
322.7826293702471
 40
325.2689066013672
 40
325.2689066013672
 40
327.7551838324873
 40
327.7551838324873
 40
327.7551838324873
 10
-84.18379999115658
 20
-192.3683431185934
 30
0.0
 41
1.0
 10
-86.77813021698152
 20
-191.4995904133383
 30
0.0
 41
0.8997289787002518
 10
-89.0663778985693
 20
-192.9993247668907
 30
0.0
 41
1.0
 10
-91.35462558015706
 20
-194.4990591204431
 30
0.0
 41
0.8997289787002518
 10
-91.59325797201357
 20
-197.2245563530731
 30
0.0
 41
1.0
  0
LINE
  5
116
330
1F
100
AcDbEntity
  8
WHITE
100
AcDbLine
 10
-91.59325797201357
 20
-197.2245563530731
 30
0.0
 11
-78.06519046081905
 21
-201.8351802279845
 31
0.0
  0
LINE
  5
117
330
1F
100
AcDbEntity
  8
WHITE
100
AcDbLine
 10
-78.06519046081905
 20
-201.8351802279845
 30
0.0
 11
-79.05285615964797
 21
-204.7428516525451
 31
0.0
  0
LINE
  5
118
330
1F
100
AcDbEntity
  8
WHITE
100
AcDbLine
 10
-79.05285615964797
 20
-204.7428516525451
 30
0.0
 11
-92.58100759953709
 21
-200.1323786507865
 31
0.0
  0
SPLINE
  5
119
330
1F
100
AcDbEntity
  8
WHITE
100
AcDbSpline
210
0.0
220
0.0
230
1.0
 70
    12
 71
     2
 72
     8
 73
     5
 74
     0
 42
0.0000000001
 43
0.0000000001
 40
343.2035498613021
 40
343.2035498613021
 40
343.2035498613021
 40
345.6934404880166
 40
345.6934404880166
 40
348.1833311147312
 40
348.1833311147312
 40
348.1833311147312
 10
-92.58100759953709
 20
-200.1323786507865
 30
0.0
 41
1.0
 10
-94.08273139814597
 20
-202.4281968228453
 30
0.0
 41
0.8980801735461036
 10
-93.18971656600745
 20
-205.0221281935726
 30
0.0
 41
1.0
 10
-92.29670173386894
 20
-207.6160595643001
 30
0.0
 41
0.8980801735461036
 10
-89.69997029893811
 20
-208.5008992680347
 30
0.0
 41
1.0
  0
SPLINE
  5
11A
330
1F
100
AcDbEntity
  8
WHITE
100
AcDbSpline
210
0.0
220
0.0
230
1.0
 70
    12
 71
     2
 72
     6
 73
     3
 74
     0
 42
0.0000000001
 43
0.0000000001
 40
348.1833311147312
 40
348.1833311147312
 40
348.1833311147312
 40
353.5512756408837
 40
353.5512756408837
 40
353.5512756408837
 10
-89.6999702989381
 20
-208.5008992680347
 30
0.0
 41
1.0
 10
-84.81994813225477
 20
-211.0857177700008
 30
0.0
 41
0.9938765991077794
 10
-79.49136435664234
 20
-212.5355791363758
 30
0.0
 41
1.0
  0
SPLINE
  5
11B
330
1F
100
AcDbEntity
  8
WHITE
100
AcDbSpline
210
0.0
220
0.0
230
1.0
 70
    12
 71
     2
 72
     6
 73
     3
 74
     0
 42
0.0000000001
 43
0.0000000001
 40
353.5512756408837
 40
353.5512756408837
 40
353.5512756408837
 40
363.1902141972254
 40
363.1902141972254
 40
363.1902141972254
 10
-79.49136435664234
 20
-212.5355791363758
 30
0.0
 41
1.0
 10
-71.30219963406385
 20
-219.0982332322675
 30
0.0
 41
0.9139844538507105
 10
-70.67693930660708
 20
-229.5739144587442
 30
0.0
 41
1.0
  0
LINE
  5
11C
330
1F
100
AcDbEntity
  8
WHITE
100
AcDbLine
 10
-70.67693930660708
 20
-229.5739144587442
 30
0.0
 11
-70.6310800796232
 21
-230.3422450597434
 31
0.0
  0
SPLINE
  5
11D
330
1F
100
AcDbEntity
  8
WHITE
100
AcDbSpline
210
0.0
220
0.0
230
1.0
 70
    12
 71
     2
 72
     6
 73
     3
 74
     0
 42
0.0000000001
 43
0.0000000001
 40
363.5658414938905
 40
363.5658414938905
 40
363.5658414938905
 40
373.5708744429424
 40
373.5708744429424
 40
373.5708744429424
 10
-70.6310800796232
 20
-230.3422450597434
 30
0.0
 41
1.0
 10
-70.9451758994855
 20
-241.2833995529636
 30
0.0
 41
0.9074209200666319
 10
-79.49248207664178
 20
-248.120875325682
 30
0.0
 41
1.0
  0
SPLINE
  5
11E
330
1F
100
AcDbEntity
  8
WHITE
100
AcDbSpline
210
0.0
220
0.0
230
1.0
 70
    12
 71
     2
 72
     6
 73
     3
 74
     0
 42
0.0000000001
 43
0.0000000001
 40
373.5708744429424
 40
373.5708744429424
 40
373.5708744429424
 40
378.937829076035
 40
378.937829076035
 40
378.937829076035
 10
-79.49248207664178
 20
-248.120875325682
 30
0.0
 41
1.0
 10
-84.8203134245501
 20
-249.5695831727053
 30
0.0
 41
0.9938795146027466
 10
-89.69999123892586
 20
-252.1528535274437
 30
0.0
 41
1.0
  0
SPLINE
  5
11F
330
1F
100
AcDbEntity
  8
WHITE
100
AcDbSpline
210
0.0
220
0.0
230
1.0
 70
    12
 71
     2
 72
     8
 73
     5
 74
     0
 42
0.0000000001
 43
0.0000000001
 40
378.937829076035
 40
378.937829076035
 40
378.937829076035
 40
381.4274938143236
 40
381.4274938143236
 40
383.9171585526121
 40
383.9171585526121
 40
383.9171585526121
 10
-89.69999123892586
 20
-252.1528535274437
 30
0.0
 41
1.0
 10
-92.29056673083919
 20
-253.0476581541078
 30
0.0
 41
0.8991990667692945
 10
-93.18516177273413
 20
-255.6383060287172
 30
0.0
 41
1.0
 10
-94.07975681462906
 20
-258.2289539033267
 30
0.0
 41
0.8991990667692945
 10
-92.59332259171606
 20
-260.5316197497218
 30
0.0
 41
1.0
  0
LINE
  5
120
330
1F
100
AcDbEntity
  8
WHITE
100
AcDbLine
 10
-92.59332259171606
 20
-260.5316197497218
 30
0.0
 11
-79.05287665063759
 21
-255.9129508873092
 31
0.0
  0
LINE
  5
121
330
1F
100
AcDbEntity
  8
WHITE
100
AcDbLine
 10
-79.05287665063759
 20
-255.9129508873092
 30
0.0
 11
-78.06521095180865
 21
-258.8224665009341
 31
0.0
  0
LINE
  5
122
330
1F
100
AcDbEntity
  8
WHITE
100
AcDbLine
 10
-78.06521095180865
 20
-258.8224665009341
 30
0.0
 11
-91.5913126256241
 21
-263.4310946826408
 31
0.0
  0
SPLINE
  5
123
330
1F
100
AcDbEntity
  8
WHITE
100
AcDbSpline
210
0.0
220
0.0
230
1.0
 70
    12
 71
     2
 72
     8
 73
     5
 74
     0
 42
0.0000000001
 43
0.0000000001
 40
399.3721247084904
 40
399.3721247084904
 40
399.3721247084904
 40
401.8522525338155
 40
401.8522525338155
 40
404.3323803591406
 40
404.3323803591406
 40
404.3323803591406
 10
-91.5913126256241
 20
-263.4310946826408
 30
0.0
 41
1.0
 10
-91.35177576159559
 20
-266.1504780173216
 30
0.0
 41
0.8994615868838517
 10
-89.0659406145064
 20
-267.642919409973
 30
0.0
 41
1.0
 10
-86.78010546741724
 20
-269.1353608026246
 30
0.0
 41
0.8994615868838517
 10
-84.19406530860093
 20
-268.2608209652489
 30
0.0
 41
1.0
  0
LINE
  5
124
330
1F
100
AcDbEntity
  8
WHITE
100
AcDbLine
 10
-84.19406530860093
 20
-268.2608209652489
 30
0.0
 11
-69.67005252449071
 21
-263.3491308915446
 31
0.0
  0
SPLINE
  5
125
330
1F
100
AcDbEntity
  8
WHITE
100
AcDbSpline
210
0.0
220
0.0
230
1.0
 70
    12
 71
     2
 72
     6
 73
     3
 74
     0
 42
0.0000000001
 43
0.0000000001
 40
411.8147164248356
 40
411.8147164248356
 40
411.8147164248356
 40
416.9223796478349
 40
416.9223796478349
 40
416.9223796478349
 10
-69.67005252449071
 20
-263.3491308915446
 30
0.0
 41
1.0
 10
-64.35970682011876
 20
-262.4739006318549
 30
0.0
 41
0.9590030377603342
 10
-59.42660689902152
 20
-264.6257195545081
 30
0.0
 41
1.0
  0
LINE
  5
126
330
1F
100
AcDbEntity
  8
WHITE
100
AcDbLine
 10
-59.42660689902152
 20
-264.6257195545081
 30
0.0
 11
-50.29992004074613
 21
-256.0789279030875
 31
0.0
  0
LINE
  5
127
330
1F
100
AcDbEntity
  8
WHITE
100
AcDbLine
 10
-50.29992004074613
 20
-256.0789279030875
 30
0.0
 11
-48.21393729923609
 21
-258.2999462660765
 31
0.0
  0
LINE
  5
128
330
1F
100
AcDbEntity
  8
WHITE
100
AcDbLine
 10
-48.21393729923609
 20
-258.2999462660765
 30
0.0
 11
-57.32218217744072
 21
-266.8323943364576
 31
0.0
  0
LINE
  5
129
330
1F
100
AcDbEntity
  8
WHITE
100
AcDbLine
 10
-57.32218217744072
 20
-266.8323943364576
 30
0.0
 11
-54.03132908444364
 21
-270.344549811433
 31
0.0
  0
SPLINE
  5
12A
330
1F
100
AcDbEntity
  8
WHITE
100
AcDbSpline
210
0.0
220
0.0
230
1.0
 70
    12
 71
     2
 72
     8
 73
     5
 74
     0
 42
0.0000000001
 43
0.0000000001
 40
432.9510162742095
 40
432.9510162742095
 40
432.9510162742095
 40
433.9512203334155
 40
433.9512203334155
 40
434.9514243926216
 40
434.9514243926216
 40
434.9514243926216
 10
-54.03132908444364
 20
-270.344549811433
 30
0.0
 41
1.0
 10
-53.28050939986193
 20
-271.1178736099708
 30
0.0
 41
0.9217564951078666
 10
-52.20266728215363
 20
-271.1219066528123
 30
0.0
 41
1.0
 10
-51.12482516444537
 20
-271.1259396956537
 30
0.0
 41
0.9217564951078666
 10
-50.36823937733873
 20
-270.3582562694364
 30
0.0
 41
1.0
  0
LINE
  5
12B
330
1F
100
AcDbEntity
  8
WHITE
100
AcDbLine
 10
-50.36823937733873
 20
-270.3582562694364
 30
0.0
 11
-39.29628443647196
 21
-259.123897325908
 31
0.0
  0
SPLINE
  5
12C
330
1F
100
AcDbEntity
  8
WHITE
100
AcDbSpline
210
0.0
220
0.0
230
1.0
 70
    12
 71
     2
 72
     6
 73
     3
 74
     0
 42
0.0000000001
 43
0.0000000001
 40
442.6491313081783
 40
442.6491313081783
 40
442.6491313081783
 40
453.2856686582203
 40
453.2856686582203
 40
453.2856686582203
 10
-39.29628443647196
 20
-259.123897325908
 30
0.0
 41
1.0
 10
-29.54125199218273
 20
-249.5409430004304
 30
0.0
 41
0.7168050884710881
 10
-19.69252844395653
 20
-259.0275818184702
 30
0.0
 41
1.0
  0
LINE
  5
12D
330
1F
100
AcDbEntity
  8
WHITE
100
AcDbLine
 10
-19.69252844395653
 20
-259.0275818184702
 30
0.0
 11
-15.23368928841993
 21
-263.3224933782456
 31
0.0
  0
SPLINE
  5
12E
330
1F
100
AcDbEntity
  8
WHITE
100
AcDbSpline
210
0.0
220
0.0
230
1.0
 70
    12
 71
     2
 72
     6
 73
     3
 74
     0
 42
0.0000000001
 43
0.0000000001
 40
456.3069584490215
 40
456.3069584490215
 40
456.3069584490215
 40
461.5914721056134
 40
461.5914721056134
 40
461.5914721056134
 10
-15.23368928841993
 20
-263.3224933782456
 30
0.0
 41
1.0
 10
-10.75351452719097
 20
-267.8916029758253
 30
0.0
 41
0.7843498461391619
 10
-5.275068138485544
 20
-264.584738362339
 30
0.0
 41
1.0
  0
LINE
  5
12F
330
1F
100
AcDbEntity
  8
WHITE
100
AcDbLine
 10
-5.275068138485544
 20
-264.5847383623389
 30
0.0
 11
-12.46332823116242
 21
-253.8822938177252
 31
0.0
  0
LINE
  5
130
330
1F
100
AcDbEntity
  8
WHITE
100
AcDbLine
 10
-12.46332823116242
 20
-253.8822938177252
 30
0.0
 11
-9.910130435731165
 21
-252.2102290661808
 31
0.0
  0
LINE
  5
131
330
1F
100
AcDbEntity
  8
WHITE
100
AcDbLine
 10
-9.910130435731165
 20
-252.2102290661808
 30
0.0
 11
-2.721891073715494
 21
-262.9106243621345
 31
0.0
  0
SPLINE
  5
132
330
1F
100
AcDbEntity
  8
WHITE
100
AcDbSpline
210
0.0
220
0.0
230
1.0
 70
    12
 71
     2
 72
     6
 73
     3
 74
     0
 42
0.0000000001
 43
0.0000000001
 40
475.663524289845
 40
475.663524289845
 40
475.663524289845
 40
480.9581912849226
 40
480.9581912849226
 40
480.9581912849226
 10
-2.721891073715494
 20
-262.9106243621345
 30
0.0
 41
1.0
 10
2.437118186443606
 20
-259.0813945011802
 30
0.0
 41
0.7820430303213901
 10
-0.1441245730060708
 20
-253.1978952285348
 30
0.0
 41
1.0
  0
LINE
  5
133
330
1F
100
AcDbEntity
  8
WHITE
100
AcDbLine
 10
-0.1441245730060708
 20
-253.1978952285348
 30
0.0
 11
-2.447311508508168
 21
-247.4358283672827
 31
0.0
  0
SPLINE
  5
134
330
1F
100
AcDbEntity
  8
WHITE
100
AcDbSpline
210
0.0
220
0.0
230
1.0
 70
    12
 71
     2
 72
     6
 73
     3
 74
     0
 42
0.0000000001
 43
0.0000000001
 40
483.9865109510081
 40
483.9865109510081
 40
483.9865109510081
 40
491.8636349720678
 40
491.8636349720678
 40
491.8636349720678
 10
-2.447311508508168
 20
-247.4358283672827
 30
0.0
 41
1.0
 10
-3.677330700444608
 20
-239.1410345640068
 30
0.0
 41
0.9445947815193234
 10
0.5013418224910043
 20
-231.8708731216825
 30
0.0
 41
1.0
  0
LINE
  5
135
330
1F
100
AcDbEntity
  8
WHITE
100
AcDbLine
 10
0.5013418224910043
 20
-231.8708731216825
 30
0.0
 11
-36.4152049952651
 21
-231.8790691828183
 31
0.0
  0
LINE
  5
136
330
1F
100
AcDbEntity
  8
WHITE
100
AcDbLine
 10
-36.4152049952651
 20
-231.8790691828183
 30
0.0
 11
-36.4152049952651
 21
-228.8054207424793
 31
0.0
  0
LINE
  5
137
330
1F
100
AcDbEntity
  8
WHITE
100
AcDbLine
 10
-36.4152049952651
 20
-228.8054207424793
 30
0.0
 11
0.5157059338450747
 21
-228.8054211459873
 31
0.0
  0
SPLINE
  5
138
330
1F
100
AcDbEntity
  8
WHITE
100
AcDbSpline
210
0.0
220
0.0
230
1.0
 70
    12
 71
     2
 72
     6
 73
     3
 74
     0
 42
0.0000000001
 43
0.0000000001
 40
529.4026254161178
 40
529.4026254161178
 40
529.4026254161178
 40
537.2915456900749
 40
537.2915456900749
 40
537.2915456900749
 10
0.5157059338450747
 20
-228.8054211459873
 30
0.0
 41
1.0
 10
-3.678189605105096
 20
-221.5283599542255
 30
0.0
 41
0.9444259068563892
 10
-2.447291134813978
 20
-213.2199745312863
 30
0.0
 41
1.0
  0
LINE
  5
139
330
1F
100
AcDbEntity
  8
WHITE
100
AcDbLine
 10
-2.447291134813978
 20
-213.2199745312863
 30
0.0
 11
-0.1441040578293437
 21
-207.4599569661326
 31
0.0
  0
SPLINE
  5
13A
330
1F
100
AcDbEntity
  8
WHITE
100
AcDbSpline
210
0.0
220
0.0
230
1.0
 70
    12
 71
     2
 72
     6
 73
     3
 74
     0
 42
0.0000000001
 43
0.0000000001
 40
540.3189368111559
 40
540.3189368111559
 40
540.3189368111559
 40
545.6025199059072
 40
545.6025199059072
 40
545.6025199059072
 10
-0.1441040578293437
 20
-207.4599569661326
 30
0.0
 41
1.0
 10
2.402144008240491
 20
-201.5851589719859
 30
0.0
 41
0.7835091600503316
 10
-2.738263199020149
 20
-197.7677194597555
 30
0.0
 41
1.0
  0
LINE
  5
13B
330
1F
100
AcDbEntity
  8
WHITE
100
AcDbLine
 10
-2.738263199020149
 20
-197.7677194597555
 30
0.0
 11
-9.910109944741595
 21
-208.4476225726338
 31
0.0
  0
LINE
  5
13C
330
1F
100
AcDbEntity
  8
WHITE
100
AcDbLine
 10
-9.910109944741595
 20
-208.4476225726338
 30
0.0
 11
-12.46328724918318
 21
-206.7735087221292
 31
0.0
  0
SPLINE
  5
13D
330
1F
100
AcDbEntity
  8
WHITE
100
AcDbSpline
210
0.0
220
0.0
230
1.0
 70
    12
 71
     2
 72
     6
 73
     3
 74
     0
 42
0.0000000001
 43
0.0000000001
 40
57.91852752118379
 40
57.91852752118379
 40
57.91852752118379
 40
64.83440502978533
 40
64.83440502978533
 40
64.83440502978533
 10
48.57411888499341
 20
91.1628135117842
 30
0.0
 41
1.0
 10
49.64770132269449
 20
84.0704436499553
 30
0.0
 41
0.9818015129666362
 10
47.99904485885781
 20
77.08931040586317
 30
0.0
 41
1.0
  0
SPLINE
  5
13E
330
1F
100
AcDbEntity
  8
WHITE
100
AcDbSpline
210
0.0
220
0.0
230
1.0
 70
    12
 71
     2
 72
     6
 73
     3
 74
     0
 42
0.0000000001
 43
0.0000000001
 40
24.09838866413828
 40
24.09838866413828
 40
24.09838866413828
 40
25.41021758058589
 40
25.41021758058589
 40
25.41021758058589
 10
47.99904485885778
 20
77.08931040586317
 30
0.0
 41
1.0
 10
47.70039330045363
 20
75.77583798728185
 30
0.0
 41
0.9968511165043669
 10
47.19784727713366
 20
74.52609799746153
 30
0.0
 41
1.0
  0
SPLINE
  5
13F
330
1F
100
AcDbEntity
  8
WHITE
100
AcDbSpline
210
0.0
220
0.0
230
1.0
 70
    12
 71
     2
 72
     6
 73
     3
 74
     0
 42
0.0000000001
 43
0.0000000001
 40
25.41021758058589
 40
25.41021758058589
 40
25.41021758058589
 40
30.72451973041956
 40
30.72451973041956
 40
30.72451973041956
 10
47.19784727713368
 20
74.52609799746153
 30
0.0
 41
1.0
 10
45.10048327942319
 20
69.31094730708271
 30
0.0
 41
0.9535971512633508
 10
40.3886934146374
 20
66.2456954850701
 30
0.0
 41
1.0
  0
SPLINE
  5
140
330
1F
100
AcDbEntity
  8
WHITE
100
AcDbSpline
210
0.0
220
0.0
230
1.0
 70
    12
 71
     2
 72
     6
 73
     3
 74
     0
 42
0.0000000001
 43
0.0000000001
 40
30.72451973041956
 40
30.72451973041956
 40
30.72451973041956
 40
34.04055761209317
 40
34.04055761209317
 40
34.04055761209317
 10
40.38869341463742
 20
66.24569548507003
 30
0.0
 41
1.0
 10
37.54039258731145
 20
64.3917656071474
 30
0.0
 41
0.9995261469775504
 10
34.8115674293925
 20
62.36608378299318
 30
0.0
 41
1.0
  0
SPLINE
  5
141
330
1F
100
AcDbEntity
  8
WHITE
100
AcDbSpline
210
0.0
220
0.0
230
1.0
 70
    12
 71
     2
 72
     8
 73
     5
 74
     0
 42
0.0000000001
 43
0.0000000001
 40
34.04055761209317
 40
34.04055761209317
 40
34.04055761209317
 40
37.38828698887011
 40
37.38828698887011
 40
40.73601636564705
 40
40.73601636564705
 40
40.73601636564705
 10
34.81156742939248
 20
62.36608378299318
 30
0.0
 41
1.0
 10
31.58292031501857
 20
59.96937039986739
 30
0.0
 41
0.7934093479417353
 10
28.43177791897287
 20
62.46710914318155
 30
0.0
 41
1.0
 10
25.28063552292716
 20
64.96484788649579
 30
0.0
 41
0.7934093479417353
 10
26.87701112663415
 20
68.65537388720325
 30
0.0
 41
1.0
  0
SPLINE
  5
142
330
1F
100
AcDbEntity
  8
WHITE
100
AcDbSpline
210
0.0
220
0.0
230
1.0
 70
    12
 71
     2
 72
     6
 73
     3
 74
     0
 42
0.0000000001
 43
0.0000000001
 40
40.73601636564705
 40
40.73601636564705
 40
40.73601636564705
 40
47.4187413605632
 40
47.4187413605632
 40
47.4187413605632
 10
26.87701112663412
 20
68.65537388720325
 30
0.0
 41
1.0
 10
30.04195649461367
 20
74.72966341858509
 30
0.0
 41
0.9994800290740686
 10
33.59183519333329
 20
80.58732794617003
 30
0.0
 41
1.0
  0
SPLINE
  5
143
330
1F
100
AcDbEntity
  8
WHITE
100
AcDbSpline
210
0.0
220
0.0
230
1.0
 70
    12
 71
     2
 72
     6
 73
     3
 74
     0
 42
0.0000000001
 43
0.0000000001
 40
47.4187413605632
 40
47.4187413605632
 40
47.4187413605632
 40
55.55358743051811
 40
55.55358743051811
 40
55.55358743051811
 10
33.59183519333329
 20
80.58732794616996
 30
0.0
 41
1.0
 10
37.97263255543077
 20
87.81609362758674
 30
0.0
 41
0.9791822658512248
 10
44.86597429759976
 20
92.70774758409875
 30
0.0
 41
1.0
  0
SPLINE
  5
144
330
1F
100
AcDbEntity
  8
WHITE
100
AcDbSpline
210
0.0
220
0.0
230
1.0
 70
    12
 71
     2
 72
     8
 73
     5
 74
     0
 42
0.0000000001
 43
0.0000000001
 40
55.55358743051811
 40
55.55358743051811
 40
55.55358743051811
 40
56.73605747585095
 40
56.73605747585095
 40
57.91852752118379
 40
57.91852752118379
 40
57.91852752118379
 10
44.86597429759968
 20
92.70774758409875
 30
0.0
 41
1.0
 10
45.93402030913283
 20
93.48818002878346
 30
0.0
 41
0.8713243323039758
 10
47.15508025127183
 20
92.9794466003832
 30
0.0
 41
1.0
 10
48.37614019341084
 20
92.47071317198282
 30
0.0
 41
0.8713243323039758
 10
48.57411888499341
 20
91.1628135117842
 30
0.0
 41
1.0
  0
SPLINE
  5
145
330
1F
100
AcDbEntity
  8
WHITE
100
AcDbSpline
210
0.0
220
0.0
230
1.0
 70
    12
 71
     2
 72
     6
 73
     3
 74
     0
 42
0.0000000001
 43
0.0000000001
 40
212.1818359000577
 40
212.1818359000577
 40
212.1818359000577
 40
221.6673254608921
 40
221.6673254608921
 40
221.6673254608921
 10
-14.56574713389003
 20
321.0750536743249
 30
0.0
 41
1.0
 10
-12.3966473252635
 20
309.1255535993089
 30
0.0
 41
0.7255746167859587
 10
-0.3491071971913547
 20
310.6592820254273
 30
0.0
 41
1.0
  0
SPLINE
  5
146
330
1F
100
AcDbEntity
  8
WHITE
100
AcDbSpline
210
0.0
220
0.0
230
1.0
 70
    12
 71
     2
 72
     6
 73
     3
 74
     0
 42
0.0000000001
 43
0.0000000001
 40
21.53318736312329
 40
21.53318736312329
 40
21.53318736312329
 40
35.58977660136041
 40
35.58977660136041
 40
35.58977660136041
 10
-0.3491071971913547
 20
310.6592820254272
 30
0.0
 41
1.0
 10
13.91366162280764
 20
313.1126620860599
 30
0.0
 41
0.9927020926024009
 10
27.17419598309762
 20
318.9095471646357
 30
0.0
 41
1.0
  0
SPLINE
  5
147
330
1F
100
AcDbEntity
  8
WHITE
100
AcDbSpline
210
0.0
220
0.0
230
1.0
 70
    12
 71
     2
 72
     6
 73
     3
 74
     0
 42
0.0000000001
 43
0.0000000001
 40
35.58977660136041
 40
35.58977660136041
 40
35.58977660136041
 40
47.16587586570932
 40
47.16587586570932
 40
47.16587586570932
 10
27.17419598309762
 20
318.9095471646357
 30
0.0
 41
1.0
 10
39.84734187733665
 20
322.0233118834689
 30
0.0
 41
0.8686910790169389
 10
48.98088784157622
 20
312.7022338503205
 30
0.0
 41
1.0
  0
SPLINE
  5
148
330
1F
100
AcDbEntity
  8
WHITE
100
AcDbSpline
210
0.0
220
0.0
230
1.0
 70
    12
 71
     2
 72
     6
 73
     3
 74
     0
 42
0.0000000001
 43
0.0000000001
 40
47.16587586570932
 40
47.16587586570932
 40
47.16587586570932
 40
49.69373322746058
 40
49.69373322746058
 40
49.69373322746058
 10
48.98088784157634
 20
312.7022338503206
 30
0.0
 41
1.0
 10
49.88789153591392
 20
310.2239731852333
 30
0.0
 41
0.9723206196022209
 10
49.56982487293132
 20
307.6041897545734
 30
0.0
 41
1.0
  0
LINE
  5
149
330
1F
100
AcDbEntity
  8
WHITE
100
AcDbLine
 10
49.56982487293132
 20
307.6041897545734
 30
0.0
 11
49.45518970310921
 21
306.8134261344466
 31
0.0
  0
LINE
  5
14A
330
1F
100
AcDbEntity
  8
WHITE
100
AcDbLine
 10
49.45518970310921
 20
306.8134261344466
 30
0.0
 11
39.5202194566098
 21
309.9933244540712
 31
0.0
  0
LINE
  5
14B
330
1F
100
AcDbEntity
  8
WHITE
100
AcDbLine
 10
39.5202194566098
 20
309.9933244540712
 30
0.0
 11
38.58787942970689
 21
307.0569656440672
 31
0.0
  0
LINE
  5
14C
330
1F
100
AcDbEntity
  8
WHITE
100
AcDbLine
 10
38.58787942970689
 20
307.0569656440672
 30
0.0
 11
48.41126032681484
 21
303.9279912485337
 31
0.0
  0
SPLINE
  5
14D
330
1F
100
AcDbEntity
  8
WHITE
100
AcDbSpline
210
0.0
220
0.0
230
1.0
 70
    12
 71
     2
 72
     6
 73
     3
 74
     0
 42
0.0000000001
 43
0.0000000001
 40
61.70924947204546
 40
61.70924947204546
 40
61.70924947204546
 40
64.23834594288778
 40
64.23834594288778
 40
64.23834594288778
 10
48.41126032681484
 20
303.9279912485337
 30
0.0
 41
1.0
 10
47.20121202057478
 20
301.5809627271904
 30
0.0
 41
0.9721654029457798
 10
45.05482901831812
 20
300.0428470647457
 30
0.0
 41
1.0
  0
SPLINE
  5
14E
330
1F
100
AcDbEntity
  8
WHITE
100
AcDbSpline
210
0.0
220
0.0
230
1.0
 70
    12
 71
     2
 72
     6
 73
     3
 74
     0
 42
0.0000000001
 43
0.0000000001
 40
64.23834594288778
 40
64.23834594288778
 40
64.23834594288778
 40
94.12684973738436
 40
94.12684973738436
 40
94.12684973738436
 10
45.05482901831812
 20
300.0428470647457
 30
0.0
 41
1.0
 10
14.46648666447169
 20
302.5594520173011
 30
0.0
 41
0.9966189590358674
 10
-16.12101539104602
 20
300.0326543508785
 30
0.0
 41
1.0
  0
SPLINE
  5
14F
330
1F
100
AcDbEntity
  8
WHITE
100
AcDbSpline
210
0.0
220
0.0
230
1.0
 70
    12
 71
     2
 72
     8
 73
     5
 74
     0
 42
0.0000000001
 43
0.0000000001
 40
94.12684973738436
 40
94.12684973738436
 40
94.12684973738436
 40
97.88106235199955
 40
97.88106235199955
 40
101.6352749666147
 40
101.6352749666147
 40
101.6352749666147
 10
-16.12101539104602
 20
300.0326543508785
 30
0.0
 41
1.0
 10
-20.23258483166281
 20
299.6858107810627
 30
0.0
 41
0.9020392992210566
 10
-23.08207720193621
 20
302.670052218797
 30
0.0
 41
1.0
 10
-25.93156957220962
 20
305.6542936565313
 30
0.0
 41
0.9020392992210566
 10
-25.39525703845037
 20
309.7454637328136
 30
0.0
 41
1.0
  0
SPLINE
  5
150
330
1F
100
AcDbEntity
  8
WHITE
100
AcDbSpline
210
0.0
220
0.0
230
1.0
 70
    12
 71
     2
 72
     6
 73
     3
 74
     0
 42
0.0000000001
 43
0.0000000001
 40
101.6352749666147
 40
101.6352749666147
 40
101.6352749666147
 40
126.9883371044209
 40
126.9883371044209
 40
126.9883371044209
 10
-25.3952570384504
 20
309.7454637328136
 30
0.0
 41
1.0
 10
-21.94671425041184
 20
335.6744267857628
 30
0.0
 41
0.989738167682761
 10
-25.97308272785626
 20
361.5199666185072
 30
0.0
 41
1.0
  0
SPLINE
  5
151
330
1F
100
AcDbEntity
  8
WHITE
100
AcDbSpline
210
0.0
220
0.0
230
1.0
 70
    12
 71
     2
 72
     6
 73
     3
 74
     0
 42
0.0000000001
 43
0.0000000001
 40
126.9883371044209
 40
126.9883371044209
 40
126.9883371044209
 40
149.246758552893
 40
149.246758552893
 40
149.246758552893
 10
-25.97308272785619
 20
361.5199666185072
 30
0.0
 41
1.0
 10
-29.63667493003227
 20
385.036820260372
 30
0.0
 41
0.9384150908526931
 10
-47.67538972519917
 20
400.5632197649365
 30
0.0
 41
1.0
  0
LINE
  5
152
330
1F
100
AcDbEntity
  8
WHITE
100
AcDbLine
 10
-47.67538972519917
 20
400.5632197649365
 30
0.0
 11
-58.40212170548396
 21
404.2397868301472
 31
0.0
  0
SPLINE
  5
153
330
1F
100
AcDbEntity
  8
WHITE
100
AcDbSpline
210
0.0
220
0.0
230
1.0
 70
    12
 71
     2
 72
    12
 73
     9
 74
     0
 42
0.0000000001
 43
0.0000000001
 40
154.780560930581
 40
154.780560930581
 40
154.780560930581
 40
155.9341650957484
 40
155.9341650957484
 40
157.0877692609157
 40
157.0877692609157
 40
158.2413734260831
 40
158.2413734260831
 40
159.3949775912505
 40
159.3949775912505
 40
159.3949775912505
 10
-58.40212170548396
 20
404.2397868301472
 30
0.0
 41
1.0
 10
-59.58582409720053
 20
404.638633133302
 30
0.0
 41
0.9236553015274277
 10
-60.1394903271366
 20
405.7583131909631
 30
0.0
 41
1.0
 10
-60.69315655707265
 20
406.8779932486242
 30
0.0
 41
0.9236553015274277
 10
-60.29153897743873
 20
408.0607582487086
 30
0.0
 41
1.0
 10
-59.88992139780481
 20
409.2435232487929
 30
0.0
 41
0.9236553015274277
 10
-58.76894765963702
 20
409.794565537582
 30
0.0
 41
1.0
 10
-57.64797392146922
 20
410.345607826371
 30
0.0
 41
0.9236553015274277
 10
-56.46615280110186
 20
409.9412211733404
 30
0.0
 41
1.0
  0
LINE
  5
154
330
1F
100
AcDbEntity
  8
WHITE
100
AcDbLine
 10
-56.46615280110186
 20
409.9412211733404
 30
0.0
 11
-38.92338668288171
 21
403.9385695425747
 31
0.0
  0
SPLINE
  5
155
330
1F
100
AcDbEntity
  8
WHITE
100
AcDbSpline
210
0.0
220
0.0
230
1.0
 70
    12
 71
     2
 72
     6
 73
     3
 74
     0
 42
0.0000000001
 43
0.0000000001
 40
168.4435001011523
 40
168.4435001011523
 40
168.4435001011523
 40
200.1341380977688
 40
200.1341380977688
 40
200.1341380977688
 10
-38.92338668288171
 20
403.9385695425747
 30
0.0
 41
1.0
 10
-13.0375298731877
 20
380.4840523089067
 30
0.0
 41
0.897422527477887
 10
-15.80026715565781
 20
345.6622309300003
 30
0.0
 41
1.0
  0
SPLINE
  5
156
330
1F
100
AcDbEntity
  8
WHITE
100
AcDbSpline
210
0.0
220
0.0
230
1.0
 70
    12
 71
     2
 72
     6
 73
     3
 74
     0
 42
0.0000000001
 43
0.0000000001
 40
200.1341380977688
 40
200.1341380977688
 40
200.1341380977688
 40
212.1818359000577
 40
212.1818359000577
 40
212.1818359000577
 10
-15.80026715565777
 20
345.6622309300003
 30
0.0
 41
1.0
 10
-16.78272647549019
 20
333.2883205343386
 30
0.0
 41
0.9916395972226566
 10
-14.56574713389008
 20
321.0750536743249
 30
0.0
 41
1.0
  0
SPLINE
  5
157
330
1F
100
AcDbEntity
  8
WHITE
100
AcDbSpline
210
0.0
220
0.0
230
1.0
 70
    12
 71
     2
 72
     8
 73
     5
 74
     0
 42
0.0000000001
 43
0.0000000001
 40
229.6522927948179
 40
229.6522927948179
 40
229.6522927948179
 40
231.8501108179106
 40
231.8501108179106
 40
234.0479288410034
 40
234.0479288410034
 40
234.0479288410034
 10
-56.88593530580226
 20
-40.42176925190441
 30
0.0
 41
1.0
 10
-57.54558987809767
 20
-38.06895247038489
 30
0.0
 41
0.8863333485562569
 10
-55.99110625519407
 20
-36.18362182875343
 30
0.0
 41
1.0
 10
-54.43662263229046
 20
-34.2982911871219
 30
0.0
 41
0.8863333485562569
 10
-52.00120801630957
 20
-34.49740575318054
 30
0.0
 41
1.0
  0
SPLINE
  5
158
330
1F
100
AcDbEntity
  8
WHITE
100
AcDbSpline
210
0.0
220
0.0
230
1.0
 70
    12
 71
     2
 72
     6
 73
     3
 74
     0
 42
0.0000000001
 43
0.0000000001
 40
14.55953909541772
 40
14.55953909541772
 40
14.55953909541772
 40
16.0003812232633
 40
16.0003812232633
 40
16.0003812232633
 10
-52.00120801630957
 20
-34.49740575318061
 30
0.0
 41
1.0
 10
-50.58712256796235
 20
-34.93299295615873
 30
0.0
 41
0.9964877947901478
 10
-49.12017416494076
 20
-35.12647745036432
 30
0.0
 41
1.0
  0
LINE
  5
159
330
1F
100
AcDbEntity
  8
WHITE
100
AcDbLine
 10
-49.12017416494076
 20
-35.12647745036432
 30
0.0
 11
-48.3537048669567
 21
-35.22757161573445
 31
0.0
  0
SPLINE
  5
15A
330
1F
100
AcDbEntity
  8
WHITE
100
AcDbSpline
210
0.0
220
0.0
230
1.0
 70
    12
 71
     2
 72
     6
 73
     3
 74
     0
 42
0.0000000001
 43
0.0000000001
 40
16.37767280758503
 40
16.37767280758503
 40
16.37767280758503
 40
18.86962234897313
 40
18.86962234897313
 40
18.86962234897313
 10
-48.3537048669567
 20
-35.22757161573445
 30
0.0
 41
1.0
 10
-45.79227718070612
 20
-35.45423487064854
 30
0.0
 41
0.9893523750650106
 10
-43.27408657235817
 20
-34.93365434561189
 30
0.0
 41
1.0
  0
SPLINE
  5
15B
330
1F
100
AcDbEntity
  8
WHITE
100
AcDbSpline
210
0.0
220
0.0
230
1.0
 70
    12
 71
     2
 72
     6
 73
     3
 74
     0
 42
0.0000000001
 43
0.0000000001
 40
18.86962234897313
 40
18.86962234897313
 40
18.86962234897313
 40
26.06358331742491
 40
26.06358331742491
 40
26.06358331742491
 10
-43.27408657235817
 20
-34.93365434561189
 30
0.0
 41
1.0
 10
-34.91692001869105
 20
-32.47200001295855
 30
0.0
 41
0.7842396661782631
 10
-30.59861743426915
 20
-40.0386530146878
 30
0.0
 41
1.0
  0
SPLINE
  5
15C
330
1F
100
AcDbEntity
  8
WHITE
100
AcDbSpline
210
0.0
220
0.0
230
1.0
 70
    12
 71
     2
 72
     6
 73
     3
 74
     0
 42
0.0000000001
 43
0.0000000001
 40
26.06358331742491
 40
26.06358331742491
 40
26.06358331742491
 40
43.22016638580868
 40
43.22016638580868
 40
43.22016638580868
 10
-30.59861743426912
 20
-40.0386530146878
 30
0.0
 41
1.0
 10
-16.90222714194389
 20
-51.17716649618512
 30
0.0
 41
0.993550040620425
 10
-1.048262353635255
 20
-58.94307855519445
 30
0.0
 41
1.0
  0
SPLINE
  5
15D
330
1F
100
AcDbEntity
  8
WHITE
100
AcDbSpline
210
0.0
220
0.0
230
1.0
 70
    12
 71
     2
 72
     8
 73
     5
 74
     0
 42
0.0000000001
 43
0.0000000001
 40
43.22016638580868
 40
43.22016638580868
 40
43.22016638580868
 40
47.22211617847439
 40
47.22211617847439
 40
51.2240659711401
 40
51.2240659711401
 40
51.2240659711401
 10
-1.048262353635237
 20
-58.94307855519445
 30
0.0
 41
1.0
 10
2.662805782677112
 20
-61.25429080913758
 30
0.0
 41
0.9093251109471051
 10
6.837825649983602
 20
-59.95700984391625
 30
0.0
 41
1.0
 10
11.01284551729012
 20
-58.65972887869489
 30
0.0
 41
0.9093251109471051
 10
12.76056838581788
 20
-54.65233651333375
 30
0.0
 41
1.0
  0
SPLINE
  5
15E
330
1F
100
AcDbEntity
  8
WHITE
100
AcDbSpline
210
0.0
220
0.0
230
1.0
 70
    12
 71
     2
 72
     6
 73
     3
 74
     0
 42
0.0000000001
 43
0.0000000001
 40
51.2240659711401
 40
51.2240659711401
 40
51.2240659711401
 40
112.5557937278587
 40
112.5557937278587
 40
112.5557937278587
 10
12.76056838581784
 20
-54.65233651333375
 30
0.0
 41
1.0
 10
41.53340007353086
 20
8.07680875204757
 30
0.0
 41
0.8710189897318341
 10
110.1010070118657
 20
15.90654615535713
 30
0.0
 41
1.0
  0
SPLINE
  5
15F
330
1F
100
AcDbEntity
  8
WHITE
100
AcDbSpline
210
0.0
220
0.0
230
1.0
 70
    12
 71
     2
 72
    12
 73
     9
 74
     0
 42
0.0000000001
 43
0.0000000001
 40
112.5557937278587
 40
112.5557937278587
 40
112.5557937278587
 40
113.1114927735926
 40
113.1114927735926
 40
113.6671918193265
 40
113.6671918193265
 40
114.2228908650604
 40
114.2228908650604
 40
114.7785899107943
 40
114.7785899107943
 40
114.7785899107943
 10
110.1010070118656
 20
15.9065461553572
 30
0.0
 41
1.0
 10
110.6917901141822
 20
16.0143209009957
 30
0.0
 41
0.9238795115826262
 10
111.1857450681652
 20
15.67278236259071
 30
0.0
 41
1.0
 10
111.6797000221484
 20
15.33124382418575
 30
0.0
 41
0.9238795115826262
 10
111.7874746385488
 20
14.74046069829272
 30
0.0
 41
1.0
 10
111.8952492549494
 20
14.14967757239971
 30
0.0
 41
0.9238795115826262
 10
111.5537106084884
 20
13.65572269313056
 30
0.0
 41
1.0
 10
111.2121719620275
 20
13.16176781386142
 30
0.0
 41
0.9238795115826262
 10
110.621388812558
 20
13.05399332669875
 30
0.0
 41
1.0
  0
SPLINE
  5
160
330
1F
100
AcDbEntity
  8
WHITE
100
AcDbSpline
210
0.0
220
0.0
230
1.0
 70
    12
 71
     2
 72
     6
 73
     3
 74
     0
 42
0.0000000001
 43
0.0000000001
 40
114.7785899107943
 40
114.7785899107943
 40
114.7785899107943
 40
174.5007619075874
 40
174.5007619075874
 40
174.5007619075874
 10
110.621388812558
 20
13.05399332669882
 30
0.0
 41
1.0
 10
46.59599743102766
 20
-2.767330724177155
 30
0.0
 41
0.8950052148290704
 10
20.68076143023369
 20
-63.4135637424291
 30
0.0
 41
1.0
  0
SPLINE
  5
161
330
1F
100
AcDbEntity
  8
WHITE
100
AcDbSpline
210
0.0
220
0.0
230
1.0
 70
    12
 71
     2
 72
     8
 73
     5
 74
     0
 42
0.0000000001
 43
0.0000000001
 40
174.5007619075874
 40
174.5007619075874
 40
174.5007619075874
 40
181.8906527890846
 40
181.8906527890846
 40
189.2805436705818
 40
189.2805436705818
 40
189.2805436705818
 10
20.68076143023369
 20
-63.41356374242913
 30
0.0
 41
1.0
 10
17.4958402623334
 20
-70.87602944773874
 30
0.0
 41
0.9028618136000491
 10
9.694941104765306
 20
-73.10719272775968
 30
0.0
 41
1.0
 10
1.894041947197214
 20
-75.33835600778067
 30
0.0
 41
0.9028618136000491
 10
-4.755145376000752
 20
-70.6885791110162
 30
0.0
 41
1.0
  0
SPLINE
  5
162
330
1F
100
AcDbEntity
  8
WHITE
100
AcDbSpline
210
0.0
220
0.0
230
1.0
 70
    12
 71
     2
 72
     6
 73
     3
 74
     0
 42
0.0000000001
 43
0.0000000001
 40
189.2805436705818
 40
189.2805436705818
 40
189.2805436705818
 40
214.1508581476484
 40
214.1508581476484
 40
214.1508581476484
 10
-4.755145376000734
 20
-70.6885791110162
 30
0.0
 41
1.0
 10
-26.0548902641607
 20
-55.79366686476111
 30
0.0
 41
0.9708116373943605
 10
-51.84044906065395
 20
-52.5313822853711
 30
0.0
 41
1.0
  0
SPLINE
  5
163
330
1F
100
AcDbEntity
  8
WHITE
100
AcDbSpline
210
0.0
220
0.0
230
1.0
 70
    12
 71
     2
 72
     6
 73
     3
 74
     0
 42
0.0000000001
 43
0.0000000001
 40
214.1508581476484
 40
214.1508581476484
 40
214.1508581476484
 40
219.4883897455857
 40
219.4883897455857
 40
219.4883897455857
 10
-51.84044906065397
 20
-52.5313822853711
 30
0.0
 41
1.0
 10
-57.03291980056184
 20
-49.48731739511192
 30
0.0
 41
0.8683098729603294
 10
-57.0481375651126
 20
-43.46835968961584
 30
0.0
 41
1.0
  0
LINE
  5
164
330
1F
100
AcDbEntity
  8
WHITE
100
AcDbLine
 10
-57.0481375651126
 20
-43.46835968961584
 30
0.0
 11
-48.32307463641251
 21
-44.48266366061286
 31
0.0
  0
LINE
  5
165
330
1F
100
AcDbEntity
  8
WHITE
100
AcDbLine
 10
-48.32307463641251
 20
-44.48266366061286
 30
0.0
 11
-47.96653141733321
 21
-41.43749769582103
 31
0.0
  0
LINE
  5
166
330
1F
100
AcDbEntity
  8
WHITE
100
AcDbLine
 10
-47.96653141733321
 20
-41.43749769582103
 30
0.0
 11
-56.88593530580226
 21
-40.42176925190441
 31
0.0
  0
SPLINE
  5
167
330
1F
100
AcDbEntity
  8
WHITE
100
AcDbSpline
210
0.0
220
0.0
230
1.0
 70
    12
 71
     2
 72
     6
 73
     3
 74
     0
 42
0.0000000001
 43
0.0000000001
 40
330.2234326824359
 40
330.2234326824359
 40
330.2234326824359
 40
338.4766250519982
 40
338.4766250519982
 40
338.4766250519982
 10
125.238694190891
 20
-49.96594944407355
 30
0.0
 41
1.0
 10
132.547785823369
 20
-55.11781760737176
 30
0.0
 41
0.9203581315480377
 10
133.912529912053
 20
-63.95535344245433
 30
0.0
 41
1.0
  0
LINE
  5
168
330
1F
100
AcDbEntity
  8
WHITE
100
AcDbLine
 10
133.912529912053
 20
-63.95535344245433
 30
0.0
 11
133.9125294802729
 21
-98.9928969260658
 31
0.0
  0
LINE
  5
169
330
1F
100
AcDbEntity
  8
WHITE
100
AcDbLine
 10
133.9125294802729
 20
-98.9928969260658
 30
0.0
 11
133.8920507622896
 21
-99.73248455874851
 31
0.0
  0
SPLINE
  5
16A
330
1F
100
AcDbEntity
  8
WHITE
100
AcDbSpline
210
0.0
220
0.0
230
1.0
 70
    12
 71
     2
 72
     6
 73
     3
 74
     0
 42
0.0000000001
 43
0.0000000001
 40
165.0769634384347
 40
165.0769634384347
 40
165.0769634384347
 40
171.1877283452994
 40
171.1877283452994
 40
171.1877283452994
 10
133.8920507622896
 20
-99.73248455874851
 30
0.0
 41
1.0
 10
133.0994829063247
 20
-106.1437635607917
 30
0.0
 41
0.9543592395474364
 10
136.1031199205755
 20
-111.8631015412725
 30
0.0
 41
1.0
  0
SPLINE
  5
16B
330
1F
100
AcDbEntity
  8
WHITE
100
AcDbSpline
210
0.0
220
0.0
230
1.0
 70
    12
 71
     2
 72
     6
 73
     3
 74
     0
 42
0.0000000001
 43
0.0000000001
 40
171.1877283452994
 40
171.1877283452994
 40
171.1877283452994
 40
186.3830728176941
 40
186.3830728176941
 40
186.3830728176941
 10
136.1031199205755
 20
-111.8631015412725
 30
0.0
 41
1.0
 10
140.1375447551973
 20
-127.7268019563599
 30
0.0
 41
0.9282501935782056
 10
132.1011556497371
 20
-141.9868869754436
 30
0.0
 41
1.0
  0
SPLINE
  5
16C
330
1F
100
AcDbEntity
  8
WHITE
100
AcDbSpline
210
0.0
220
0.0
230
1.0
 70
    12
 71
     2
 72
     6
 73
     3
 74
     0
 42
0.0000000001
 43
0.0000000001
 40
186.3830728176941
 40
186.3830728176941
 40
186.3830728176941
 40
190.8597329507325
 40
190.8597329507325
 40
190.8597329507325
 10
132.101153723254
 20
-141.9868866903032
 30
0.0
 41
1.0
 10
129.4482256181632
 20
-146.0908826697644
 30
0.0
 41
0.9103388768606809
 10
124.6116894752324
 20
-146.7899739859299
 30
0.0
 41
1.0
  0
LINE
  5
16D
330
1F
100
AcDbEntity
  8
WHITE
100
AcDbLine
 10
124.6116894752324
 20
-146.7899739859299
 30
0.0
 11
125.9272113232617
 21
-127.1719009171979
 31
0.0
  0
LINE
  5
16E
330
1F
100
AcDbEntity
  8
WHITE
100
AcDbLine
 10
125.9272113232617
 20
-127.1719009171979
 30
0.0
 11
122.8822502683658
 21
-126.8153576981186
 31
0.0
  0
LINE
  5
16F
330
1F
100
AcDbEntity
  8
WHITE
100
AcDbLine
 10
122.8822502683658
 20
-126.8153576981186
 30
0.0
 11
121.509339342615
 21
-146.7616739629044
 31
0.0
  0
SPLINE
  5
170
330
1F
100
AcDbEntity
  8
WHITE
100
AcDbSpline
210
0.0
220
0.0
230
1.0
 70
    12
 71
     2
 72
     8
 73
     5
 74
     0
 42
0.0000000001
 43
0.0000000001
 40
211.7086065188918
 40
211.7086065188918
 40
211.7086065188918
 40
214.9615719731148
 40
214.9615719731148
 40
218.2145374273379
 40
218.2145374273379
 40
218.2145374273379
 10
121.509339342615
 20
-146.7616739629044
 30
0.0
 41
1.0
 10
117.9575098622928
 20
-146.6618271461155
 30
0.0
 41
0.9107758289442965
 10
115.6918615251429
 20
-143.9246206035838
 30
0.0
 41
1.0
 10
113.426213187993
 20
-141.1874140610521
 30
0.0
 41
0.9107758289442965
 10
113.99180387531
 20
-137.6794845836354
 30
0.0
 41
1.0
  0
SPLINE
  5
171
330
1F
100
AcDbEntity
  8
WHITE
100
AcDbSpline
210
0.0
220
0.0
230
1.0
 70
    12
 71
     2
 72
     8
 73
     5
 74
     0
 42
0.0000000001
 43
0.0000000001
 40
218.2145374273379
 40
218.2145374273379
 40
218.2145374273379
 40
220.8063261580529
 40
220.8063261580529
 40
223.398114888768
 40
223.398114888768
 40
223.398114888768
 10
113.9918038753101
 20
-137.6794845836354
 30
0.0
 41
1.0
 10
114.4576414597042
 20
-134.7902478429521
 30
0.0
 41
0.8666521047177772
 10
112.1930527059169
 20
-132.9365134027022
 30
0.0
 41
1.0
 10
109.9284639521296
 20
-131.0827789624525
 30
0.0
 41
0.8666521047177772
 10
107.1882014124463
 20
-132.1102295998832
 30
0.0
 41
1.0
  0
LINE
  5
172
330
1F
100
AcDbEntity
  8
WHITE
100
AcDbLine
 10
107.1882014124463
 20
-132.1102295998832
 30
0.0
 11
99.17007772970936
 21
-134.8888081167073
 31
0.0
  0
SPLINE
  5
173
330
1F
100
AcDbEntity
  8
WHITE
100
AcDbSpline
210
0.0
220
0.0
230
1.0
 70
    12
 71
     2
 72
     6
 73
     3
 74
     0
 42
0.0000000001
 43
0.0000000001
 40
227.5394075613522
 40
227.5394075613522
 40
227.5394075613522
 40
237.6895680368758
 40
237.6895680368758
 40
237.6895680368758
 10
99.17007772970936
 20
-134.8888081167073
 30
0.0
 41
1.0
 10
86.84998670878662
 20
-138.6338520951583
 30
0.0
 41
0.7348918766787976
 10
82.12975058889648
 20
-126.6534778048101
 30
0.0
 41
1.0
  0
SPLINE
  5
174
330
1F
100
AcDbEntity
  8
WHITE
100
AcDbSpline
210
0.0
220
0.0
230
1.0
 70
    12
 71
     2
 72
     6
 73
     3
 74
     0
 42
0.0000000001
 43
0.0000000001
 40
237.6895680368758
 40
237.6895680368758
 40
237.6895680368758
 40
268.4449186193355
 40
268.4449186193355
 40
268.4449186193355
 10
82.12975058889653
 20
-126.6534778048101
 30
0.0
 41
1.0
 10
72.90556099429337
 20
-95.72125760391954
 30
0.0
 41
0.9646936345910164
 10
80.67932369380696
 20
-64.39305092487042
 30
0.0
 41
1.0
  0
SPLINE
  5
175
330
1F
100
AcDbEntity
  8
WHITE
100
AcDbSpline
210
0.0
220
0.0
230
1.0
 70
    12
 71
     2
 72
     6
 73
     3
 74
     0
 42
0.0000000001
 43
0.0000000001
 40
268.4449186193355
 40
268.4449186193355
 40
268.4449186193355
 40
279.5470499642063
 40
279.5470499642063
 40
279.5470499642063
 10
80.67932369380699
 20
-64.39305092487042
 30
0.0
 41
1.0
 10
85.28184283320887
 20
-53.14775587684895
 30
0.0
 41
0.9068958902711493
 10
96.84431565887628
 20
-49.41291112755612
 30
0.0
 41
1.0
  0
SPLINE
  5
176
330
1F
100
AcDbEntity
  8
WHITE
100
AcDbSpline
210
0.0
220
0.0
230
1.0
 70
    12
 71
     2
 72
     6
 73
     3
 74
     0
 42
0.0000000001
 43
0.0000000001
 40
279.5470499642063
 40
279.5470499642063
 40
279.5470499642063
 40
288.0515928101446
 40
288.0515928101446
 40
288.0515928101446
 10
96.84431565887628
 20
-49.41291112755612
 30
0.0
 41
1.0
 10
105.4398160660597
 20
-47.78310243242269
 30
0.0
 41
0.9939540899160467
 10
114.1838050853259
 20
-48.06868895796867
 30
0.0
 41
1.0
  0
LINE
  5
177
330
1F
100
AcDbEntity
  8
WHITE
100
AcDbLine
 10
114.1838050853259
 20
-48.06868895796867
 30
0.0
 11
108.7516433476576
 21
-85.11025147053458
 31
0.0
  0
LINE
  5
178
330
1F
100
AcDbEntity
  8
WHITE
100
AcDbLine
 10
108.7516433476576
 20
-85.11025147053458
 30
0.0
 11
111.7699661160706
 21
-85.54875864802291
 31
0.0
  0
LINE
  5
179
330
1F
100
AcDbEntity
  8
WHITE
100
AcDbLine
 10
111.7699661160706
 20
-85.54875864802291
 30
0.0
 11
117.2574533938868
 21
-48.24081377625824
 31
0.0
  0
SPLINE
  5
17A
330
1F
100
AcDbEntity
  8
WHITE
100
AcDbSpline
210
0.0
220
0.0
230
1.0
 70
    12
 71
     2
 72
     6
 73
     3
 74
     0
 42
0.0000000001
 43
0.0000000001
 40
326.2133025929735
 40
326.2133025929735
 40
326.2133025929735
 40
330.2234326824359
 40
330.2234326824359
 40
330.2234326824359
 10
117.2574533938868
 20
-48.24081377625824
 30
0.0
 41
1.0
 10
121.4177992582823
 20
-48.31815651862589
 30
0.0
 41
0.9811858401220873
 10
125.238694190891
 20
-49.96594944407359
 30
0.0
 41
1.0
  0
SPLINE
  5
17B
330
1F
100
AcDbEntity
  8
WHITE
100
AcDbSpline
210
0.0
220
0.0
230
1.0
 70
    12
 71
     2
 72
     6
 73
     3
 74
     0
 42
0.0000000001
 43
0.0000000001
 40
54.94749137133389
 40
54.94749137133389
 40
54.94749137133389
 40
64.65926082644616
 40
64.65926082644616
 40
64.65926082644616
 10
51.05422480395082
 20
57.48990414101049
 30
0.0
 41
1.0
 10
50.89004023464019
 20
47.21428143927551
 30
0.0
 41
0.9529840872020905
 10
44.82135051536029
 20
38.92052574162454
 30
0.0
 41
1.0
  0
SPLINE
  5
17C
330
1F
100
AcDbEntity
  8
WHITE
100
AcDbSpline
210
0.0
220
0.0
230
1.0
 70
    12
 71
     2
 72
     6
 73
     3
 74
     0
 42
0.0000000001
 43
0.0000000001
 40
18.34704287811302
 40
18.34704287811302
 40
18.34704287811302
 40
23.20505881782051
 40
23.20505881782051
 40
23.20505881782051
 10
44.82135051536029
 20
38.92052574162454
 30
0.0
 41
1.0
 10
41.86231129755632
 20
34.86898075832425
 30
0.0
 41
0.9881503326113543
 10
37.81369706244357
 20
31.90593289852704
 30
0.0
 41
1.0
  0
SPLINE
  5
17D
330
1F
100
AcDbEntity
  8
WHITE
100
AcDbSpline
210
0.0
220
0.0
230
1.0
 70
    12
 71
     2
 72
     6
 73
     3
 74
     0
 42
0.0000000001
 43
0.0000000001
 40
23.20505881782051
 40
23.20505881782051
 40
23.20505881782051
 40
28.06235113846318
 40
28.06235113846318
 40
28.06235113846318
 10
37.81369706244357
 20
31.90593289852704
 30
0.0
 41
1.0
 10
33.7670295049468
 20
28.94083087404123
 30
0.0
 41
0.9880746545261319
 10
29.01002514231602
 20
27.34763978995289
 30
0.0
 41
1.0
  0
SPLINE
  5
17E
330
1F
100
AcDbEntity
  8
WHITE
100
AcDbSpline
210
0.0
220
0.0
230
1.0
 70
    12
 71
     2
 72
     8
 73
     5
 74
     0
 42
0.0000000001
 43
0.0000000001
 40
28.06235113846318
 40
28.06235113846318
 40
28.06235113846318
 40
29.44181244681748
 40
29.44181244681748
 40
30.82127375517178
 40
30.82127375517178
 40
30.82127375517178
 10
29.01002514231604
 20
27.34763978995282
 30
0.0
 41
1.0
 10
27.55112165792139
 20
26.85903144598295
 30
0.0
 41
0.8822679271027364
 10
26.33295082029895
 20
27.79881721994539
 30
0.0
 41
1.0
 10
25.11477998267651
 20
28.73860299390777
 30
0.0
 41
0.8822679271027364
 10
25.21714452556718
 20
30.27374435252419
 30
0.0
 41
1.0
  0
SPLINE
  5
17F
330
1F
100
AcDbEntity
  8
WHITE
100
AcDbSpline
210
0.0
220
0.0
230
1.0
 70
    12
 71
     2
 72
     6
 73
     3
 74
     0
 42
0.0000000001
 43
0.0000000001
 40
30.82127375517178
 40
30.82127375517178
 40
30.82127375517178
 40
35.93133691130824
 40
35.93133691130824
 40
35.93133691130824
 10
25.21714452556719
 20
30.27374435252426
 30
0.0
 41
1.0
 10
24.71194319147638
 20
35.70304401607287
 30
0.0
 41
0.9412965624223558
 10
27.77235602765274
 20
40.21595842881588
 30
0.0
 41
1.0
  0
SPLINE
  5
180
330
1F
100
AcDbEntity
  8
WHITE
100
AcDbSpline
210
0.0
220
0.0
230
1.0
 70
    12
 71
     2
 72
     6
 73
     3
 74
     0
 42
0.0000000001
 43
0.0000000001
 40
35.93133691130824
 40
35.93133691130824
 40
35.93133691130824
 40
46.31221794833313
 40
46.31221794833313
 40
46.31221794833313
 10
27.77235602765273
 20
40.21595842881588
 30
0.0
 41
1.0
 10
35.6215686095296
 20
47.71488859946206
 30
0.0
 41
0.9697971015588845
 10
38.98913906955153
 20
58.03494485204664
 30
0.0
 41
1.0
  0
SPLINE
  5
181
330
1F
100
AcDbEntity
  8
WHITE
100
AcDbSpline
210
0.0
220
0.0
230
1.0
 70
    12
 71
     2
 72
     6
 73
     3
 74
     0
 42
0.0000000001
 43
0.0000000001
 40
46.31221794833313
 40
46.31221794833313
 40
46.31221794833313
 40
46.51810376083799
 40
46.51810376083799
 40
46.51810376083799
 10
38.98913906955156
 20
58.03494485204656
 30
0.0
 41
1.0
 10
39.05569776214085
 20
58.23826147953379
 30
0.0
 41
0.9790445869774992
 10
39.19780978832605
 20
58.39817358847327
 30
0.0
 41
1.0
  0
SPLINE
  5
182
330
1F
100
AcDbEntity
  8
WHITE
100
AcDbSpline
210
0.0
220
0.0
230
1.0
 70
    12
 71
     2
 72
     6
 73
     3
 74
     0
 42
0.0000000001
 43
0.0000000001
 40
46.51810376083799
 40
46.51810376083799
 40
46.51810376083799
 40
51.34105632020148
 40
51.34105632020148
 40
51.34105632020148
 10
39.19780978832603
 20
58.39817358847327
 30
0.0
 41
1.0
 10
42.61454387794318
 20
62.23850255190821
 30
0.0
 41
0.9428664886363902
 10
47.68551195016826
 20
63.07962156668789
 30
0.0
 41
1.0
  0
SPLINE
  5
183
330
1F
100
AcDbEntity
  8
WHITE
100
AcDbSpline
210
0.0
220
0.0
230
1.0
 70
    12
 71
     2
 72
     6
 73
     3
 74
     0
 42
0.0000000001
 43
0.0000000001
 40
51.34105632020148
 40
51.34105632020148
 40
51.34105632020148
 40
52.88356996744261
 40
52.88356996744261
 40
52.88356996744261
 10
47.68551195016826
 20
63.07962156668796
 30
0.0
 41
1.0
 10
49.55068188274562
 20
63.38961192878386
 30
0.0
 41
0.7711006503438171
 10
50.20794985304739
 20
61.61677473456708
 30
0.0
 41
1.0
  0
SPLINE
  5
184
330
1F
100
AcDbEntity
  8
WHITE
100
AcDbSpline
210
0.0
220
0.0
230
1.0
 70
    12
 71
     2
 72
     6
 73
     3
 74
     0
 42
0.0000000001
 43
0.0000000001
 40
52.88356996744261
 40
52.88356996744261
 40
52.88356996744261
 40
54.94749137133389
 40
54.94749137133389
 40
54.94749137133389
 10
50.20794985304742
 20
61.61677473456708
 30
0.0
 41
1.0
 10
50.94880061077139
 20
59.61849117595481
 30
0.0
 41
0.9883528514461531
 10
51.05422480395082
 20
57.48990414101049
 30
0.0
 41
1.0
  0
SPLINE
  5
185
330
1F
100
AcDbEntity
  8
WHITE
100
AcDbSpline
210
0.0
220
0.0
230
1.0
 70
    12
 71
     2
 72
     6
 73
     3
 74
     0
 42
0.0000000001
 43
0.0000000001
 40
47.76174691735751
 40
47.76174691735751
 40
47.76174691735751
 40
49.53982613181239
 40
49.53982613181239
 40
49.53982613181239
 10
-62.44022659241896
 20
52.97978409266737
 30
0.0
 41
1.0
 10
-61.6498964187923
 20
51.33613496304511
 30
0.0
 41
0.9983080644591981
 10
-60.67408918601777
 20
49.79535448253611
 30
0.0
 41
1.0
  0
SPLINE
  5
186
330
1F
100
AcDbEntity
  8
WHITE
100
AcDbSpline
210
0.0
220
0.0
230
1.0
 70
    12
 71
     2
 72
     6
 73
     3
 74
     0
 42
0.0000000001
 43
0.0000000001
 40
21.0485266489492
 40
21.0485266489492
 40
21.0485266489492
 40
24.77019315416155
 40
24.77019315416155
 40
24.77019315416155
 10
-60.67408918601781
 20
49.79535448253625
 30
0.0
 41
1.0
 10
-58.62659870371469
 20
46.55610757320112
 30
0.0
 41
0.9925680598613701
 10
-55.85723550577636
 20
43.90741633172667
 30
0.0
 41
1.0
  0
SPLINE
  5
187
330
1F
100
AcDbEntity
  8
WHITE
100
AcDbSpline
210
0.0
220
0.0
230
1.0
 70
    12
 71
     2
 72
     6
 73
     3
 74
     0
 42
0.0000000001
 43
0.0000000001
 40
24.77019315416155
 40
24.77019315416155
 40
24.77019315416155
 40
28.49129948286319
 40
28.49129948286319
 40
28.49129948286319
 10
-55.85723550577636
 20
43.90741633172667
 30
0.0
 41
1.0
 10
-53.09330655816026
 20
41.25258193226267
 30
0.0
 41
0.992334716188062
 10
-49.76266323998637
 20
39.35672750664051
 30
0.0
 41
1.0
  0
SPLINE
  5
188
330
1F
100
AcDbEntity
  8
WHITE
100
AcDbSpline
210
0.0
220
0.0
230
1.0
 70
    12
 71
     2
 72
     8
 73
     5
 74
     0
 42
0.0000000001
 43
0.0000000001
 40
28.49129948286319
 40
28.49129948286319
 40
28.49129948286319
 40
29.04180958113992
 40
29.04180958113992
 40
29.59231967941664
 40
29.59231967941664
 40
29.59231967941664
 10
-49.76266323998639
 20
39.35672750664051
 30
0.0
 41
1.0
 10
-49.21477173858777
 20
39.04398914026721
 30
0.0
 41
0.848988945727975
 10
-48.69224422650557
 20
39.39747942616467
 30
0.0
 41
1.0
 10
-48.16971671442337
 20
39.75096971206213
 30
0.0
 41
0.848988945727975
 10
-48.25614905847283
 20
40.37588557280556
 30
0.0
 41
1.0
  0
SPLINE
  5
189
330
1F
100
AcDbEntity
  8
WHITE
100
AcDbSpline
210
0.0
220
0.0
230
1.0
 70
    12
 71
     2
 72
     6
 73
     3
 74
     0
 42
0.0000000001
 43
0.0000000001
 40
29.59231967941664
 40
29.59231967941664
 40
29.59231967941664
 40
41.16300615095908
 40
41.16300615095908
 40
41.16300615095908
 10
-48.25614905847281
 20
40.37588557280556
 30
0.0
 41
1.0
 10
-49.93046812503192
 20
52.39493429591491
 30
0.0
 41
0.9655780412102735
 10
-57.41562789099724
 20
61.94654462208984
 30
0.0
 41
1.0
  0
SPLINE
  5
18A
330
1F
100
AcDbEntity
  8
WHITE
100
AcDbSpline
210
0.0
220
0.0
230
1.0
 70
    12
 71
     2
 72
     6
 73
     3
 74
     0
 42
0.0000000001
 43
0.0000000001
 40
41.16300615095908
 40
41.16300615095908
 40
41.16300615095908
 40
42.7158586791586
 40
42.7158586791586
 40
42.7158586791586
 10
-57.41562789099725
 20
61.94654462208984
 30
0.0
 41
1.0
 10
-58.66495680240762
 20
63.53769042532696
 30
0.0
 41
0.708146599642509
 10
-60.25977275528285
 20
62.29305000637073
 30
0.0
 41
1.0
  0
SPLINE
  5
18B
330
1F
100
AcDbEntity
  8
WHITE
100
AcDbSpline
210
0.0
220
0.0
230
1.0
 70
    12
 71
     2
 72
     6
 73
     3
 74
     0
 42
0.0000000001
 43
0.0000000001
 40
42.7158586791586
 40
42.7158586791586
 40
42.7158586791586
 40
47.76174691735751
 40
47.76174691735751
 40
47.76174691735751
 10
-60.25977275528285
 20
62.29305000637073
 30
0.0
 41
1.0
 10
-65.10166179181486
 20
58.51476908376262
 30
0.0
 41
0.7787142383315272
 10
-62.44022659241897
 20
52.97978409266737
 30
0.0
 41
1.0
  0
SPLINE
  5
18C
330
1F
100
AcDbEntity
  8
WHITE
100
AcDbSpline
210
0.0
220
0.0
230
1.0
 70
    12
 71
     2
 72
     8
 73
     5
 74
     0
 42
0.0000000001
 43
0.0000000001
 40
79.7651632629543
 40
79.7651632629543
 40
79.7651632629543
 40
101.0952171725185
 40
101.0952171725185
 40
122.4252710820826
 40
122.4252710820826
 40
122.4252710820826
 10
-91.15533069111903
 20
-73.15026164428883
 30
0.0
 41
1.0
 10
-89.12261964569613
 20
-98.04635662979491
 30
0.0
 41
0.8224727140922143
 10
-65.11113692693579
 20
-104.930843347641
 30
0.0
 41
1.0
 10
-41.09965420817542
 20
-111.8153300654871
 30
0.0
 41
0.8224727140922143
 10
-26.18396914775677
 20
-91.77861878593994
 30
0.0
 41
1.0
  0
SPLINE
  5
18D
330
1F
100
AcDbEntity
  8
WHITE
100
AcDbSpline
210
0.0
220
0.0
230
1.0
 70
    12
 71
     2
 72
     6
 73
     3
 74
     0
 42
0.0000000001
 43
0.0000000001
 40
0.0
 40
0.0
 40
0.0
 40
10.55995955289676
 40
10.55995955289676
 40
10.55995955289676
 10
-26.18396914775678
 20
-91.77861878593994
 30
0.0
 41
1.0
 10
-19.57710082589406
 20
-82.57425943916977
 30
0.0
 41
0.933715340603587
 10
-20.81767601778016
 20
-71.31229188459989
 30
0.0
 41
1.0
  0
LINE
  5
18E
330
1F
100
AcDbEntity
  8
WHITE
100
AcDbLine
 10
-20.81767601778016
 20
-71.31229188459989
 30
0.0
 11
-20.88129234206678
 21
-70.54380356410546
 31
0.0
  0
LINE
  5
18F
330
1F
100
AcDbEntity
  8
WHITE
100
AcDbLine
 10
-20.88129234206678
 20
-70.54380356410546
 30
0.0
 11
-50.93296787294946
 21
-70.54380356410546
 31
0.0
  0
LINE
  5
190
330
1F
100
AcDbEntity
  8
WHITE
100
AcDbLine
 10
-50.93296787294946
 20
-70.54380356410546
 30
0.0
 11
-50.93296787294946
 21
-67.47015512376645
 31
0.0
  0
LINE
  5
191
330
1F
100
AcDbEntity
  8
WHITE
100
AcDbLine
 10
-50.93296787294946
 20
-67.47015512376645
 30
0.0
 11
-21.491513594534
 21
-67.4701550792264
 31
0.0
  0
SPLINE
  5
192
330
1F
100
AcDbEntity
  8
WHITE
100
AcDbSpline
210
0.0
220
0.0
230
1.0
 70
    12
 71
     2
 72
     6
 73
     3
 74
     0
 42
0.0000000001
 43
0.0000000001
 40
41.47007937098371
 40
41.47007937098371
 40
41.47007937098371
 40
43.59794705847055
 40
43.59794705847055
 40
43.59794705847055
 10
-21.491513594534
 20
-67.4701550792264
 30
0.0
 41
1.0
 10
-22.34133119007278
 20
-65.3329884064974
 30
0.0
 41
0.9236533132880007
 10
-24.45452200065152
 20
-64.42519111040299
 30
0.0
 41
1.0
  0
SPLINE
  5
193
330
1F
100
AcDbEntity
  8
WHITE
100
AcDbSpline
210
0.0
220
0.0
230
1.0
 70
    12
 71
     2
 72
     6
 73
     3
 74
     0
 42
0.0000000001
 43
0.0000000001
 40
43.59794705847055
 40
43.59794705847055
 40
43.59794705847055
 40
73.24132233266985
 40
73.24132233266985
 40
73.24132233266985
 10
-24.45452200065153
 20
-64.42519111040296
 30
0.0
 41
1.0
 10
-54.07758396646486
 20
-53.88816384235727
 30
0.0
 41
0.9502117536289133
 10
-84.18781868076063
 20
-62.93960070773807
 30
0.0
 41
1.0
  0
SPLINE
  5
194
330
1F
100
AcDbEntity
  8
WHITE
100
AcDbSpline
210
0.0
220
0.0
230
1.0
 70
    12
 71
     2
 72
     6
 73
     3
 74
     0
 42
0.0000000001
 43
0.0000000001
 40
73.24132233266985
 40
73.24132233266985
 40
73.24132233266985
 40
79.7651632629543
 40
79.7651632629543
 40
79.7651632629543
 10
-84.18781868076063
 20
-62.9396007077381
 30
0.0
 41
1.0
 10
-91.80231158960022
 20
-65.22621462409481
 30
0.0
 41
0.7774049265384313
 10
-91.15533069111902
 20
-73.15026164428883
 30
0.0
 41
1.0
  0
SPLINE
  5
195
330
1F
100
AcDbEntity
  8
WHITE
100
AcDbSpline
210
0.0
220
0.0
230
1.0
 70
    12
 71
     2
 72
     6
 73
     3
 74
     0
 42
0.0000000001
 43
0.0000000001
 40
40.2412086844149
 40
40.2412086844149
 40
40.2412086844149
 40
49.4629825067509
 40
49.4629825067509
 40
49.4629825067509
 10
-5.720156929397756
 20
21.1243891134871
 30
0.0
 41
1.0
 10
-7.736514293719163
 20
30.37580601100642
 30
0.0
 41
0.9967654592110393
 10
-8.244645469674264
 20
39.83076314154824
 30
0.0
 41
1.0
  0
SPLINE
  5
196
330
1F
100
AcDbEntity
  8
WHITE
100
AcDbSpline
210
0.0
220
0.0
230
1.0
 70
    12
 71
     2
 72
     6
 73
     3
 74
     0
 42
0.0000000001
 43
0.0000000001
 40
9.221773822336
 40
9.221773822336
 40
9.221773822336
 40
13.82523057793586
 40
13.82523057793586
 40
13.82523057793586
 10
-8.244645469674264
 20
39.83076314154824
 30
0.0
 41
1.0
 10
-8.485785809992684
 20
44.54357284485096
 30
0.0
 41
0.999200687547344
 10
-8.349669231247656
 20
49.26058421226001
 30
0.0
 41
1.0
  0
SPLINE
  5
197
330
1F
100
AcDbEntity
  8
WHITE
100
AcDbSpline
210
0.0
220
0.0
230
1.0
 70
    12
 71
     2
 72
     6
 73
     3
 74
     0
 42
0.0000000001
 43
0.0000000001
 40
13.82523057793586
 40
13.82523057793586
 40
13.82523057793586
 40
18.42937281893508
 40
18.42937281893508
 40
18.42937281893508
 10
-8.34966923124762
 20
49.26058421226001
 30
0.0
 41
1.0
 10
-8.213531506525854
 20
53.9783283766074
 30
0.0
 41
0.9991940841122054
 10
-7.699401582016687
 20
58.66995004731479
 30
0.0
 41
1.0
  0
SPLINE
  5
198
330
1F
100
AcDbEntity
  8
WHITE
100
AcDbSpline
210
0.0
220
0.0
230
1.0
 70
    12
 71
     2
 72
     8
 73
     5
 74
     0
 42
0.0000000001
 43
0.0000000001
 40
18.42937281893508
 40
18.42937281893508
 40
18.42937281893508
 40
19.52097320887583
 40
19.52097320887583
 40
20.61257359881658
 40
20.61257359881658
 40
20.61257359881658
 10
-7.69940158201674
 20
58.66995004731471
 30
0.0
 41
1.0
 10
-7.348534409611361
 20
59.97565353681981
 30
0.0
 41
0.7591408923324081
 10
-6.004582467394154
 20
59.82813217501732
 30
0.0
 41
1.0
 10
-4.660630525176928
 20
59.68061081321466
 30
0.0
 41
0.7591408923324081
 10
-4.601351011481313
 20
58.32988681682116
 30
0.0
 41
1.0
  0
SPLINE
  5
199
330
1F
100
AcDbEntity
  8
WHITE
100
AcDbSpline
210
0.0
220
0.0
230
1.0
 70
    12
 71
     2
 72
     6
 73
     3
 74
     0
 42
0.0000000001
 43
0.0000000001
 40
20.61257359881658
 40
20.61257359881658
 40
20.61257359881658
 40
28.86004933678666
 40
28.86004933678666
 40
28.86004933678666
 10
-4.601351011481313
 20
58.32988681682116
 30
0.0
 41
1.0
 10
-4.229825828390283
 20
49.87554644579419
 30
0.0
 41
0.9977745148195167
 10
-2.736668510036268
 20
41.5458175610411
 30
0.0
 41
1.0
  0
SPLINE
  5
19A
330
1F
100
AcDbEntity
  8
WHITE
100
AcDbSpline
210
0.0
220
0.0
230
1.0
 70
    12
 71
     2
 72
     6
 73
     3
 74
     0
 42
0.0000000001
 43
0.0000000001
 40
28.86004933678666
 40
28.86004933678666
 40
28.86004933678666
 40
38.95830308674901
 40
38.95830308674901
 40
38.95830308674901
 10
-2.736668510036233
 20
41.5458175610411
 30
0.0
 41
1.0
 10
-0.8260870443125112
 20
31.17779380690676
 30
0.0
 41
0.9728289482240958
 10
-3.790802625431503
 20
21.06064501752295
 30
0.0
 41
1.0
  0
SPLINE
  5
19B
330
1F
100
AcDbEntity
  8
WHITE
100
AcDbSpline
210
0.0
220
0.0
230
1.0
 70
    12
 71
     2
 72
     8
 73
     5
 74
     0
 42
0.0000000001
 43
0.0000000001
 40
38.95830308674901
 40
38.95830308674901
 40
38.95830308674901
 40
39.59975588558196
 40
39.59975588558196
 40
40.2412086844149
 40
40.2412086844149
 40
40.2412086844149
 10
-3.790802625431555
 20
21.06064501752295
 30
0.0
 41
1.0
 10
-4.00551780845334
 20
20.31577227009021
 30
0.0
 41
0.7890182168705481
 10
-4.780296978570687
 20
20.34137026298838
 30
0.0
 41
1.0
 10
-5.555076148688022
 20
20.36696825588646
 30
0.0
 41
0.7890182168705481
 10
-5.720156929397756
 20
21.1243891134871
 30
0.0
 41
1.0
  0
LINE
  5
19C
330
1F
100
AcDbEntity
  8
WHITE
100
AcDbLine
 10
-9.399208680892059
 20
271.130659715602
 30
0.0
 11
3.331909365647665
 21
273.8470690691109
 31
0.0
  0
SPLINE
  5
19D
330
1F
100
AcDbEntity
  8
WHITE
100
AcDbSpline
210
0.0
220
0.0
230
1.0
 70
    12
 71
     2
 72
     6
 73
     3
 74
     0
 42
0.0000000001
 43
0.0000000001
 40
20.02485751575612
 40
20.02485751575612
 40
20.02485751575612
 40
24.21157797381342
 40
24.21157797381342
 40
24.21157797381342
 10
3.331909365647665
 20
273.8470690691109
 30
0.0
 41
1.0
 10
8.327287538203633
 20
274.9352837719223
 30
0.0
 41
0.7761509866117593
 10
8.285300416319977
 20
280.0476463772015
 30
0.0
 41
1.0
  0
LINE
  5
19E
330
1F
100
AcDbEntity
  8
WHITE
100
AcDbLine
 10
8.285300416319977
 20
280.0476463772015
 30
0.0
 11
8.27898958748895
 21
280.8160544956129
 31
0.0
  0
LINE
  5
19F
330
1F
100
AcDbEntity
  8
WHITE
100
AcDbLine
 10
8.27898958748895
 20
280.8160544956129
 30
0.0
 11
-4.020257677605802
 21
280.8160544956129
 31
0.0
  0
LINE
  5
1A0
330
1F
100
AcDbEntity
  8
WHITE
100
AcDbLine
 10
-4.020257677605802
 20
280.8160544956129
 30
0.0
 11
-4.020257677605802
 21
283.8897029359518
 31
0.0
  0
LINE
  5
1A1
330
1F
100
AcDbEntity
  8
WHITE
100
AcDbLine
 10
-4.020257677605802
 20
283.8897029359518
 30
0.0
 11
8.216960955892894
 21
283.8897029332965
 31
0.0
  0
SPLINE
  5
1A2
330
1F
100
AcDbEntity
  8
WHITE
100
AcDbSpline
210
0.0
220
0.0
230
1.0
 70
    12
 71
     2
 72
     6
 73
     3
 74
     0
 42
0.0000000001
 43
0.0000000001
 40
38.06085962220085
 40
38.06085962220085
 40
38.06085962220085
 40
42.50455306961626
 40
42.50455306961626
 40
42.50455306961626
 10
8.216960955892894
 20
283.8897029332965
 30
0.0
 41
1.0
 10
7.89972928742875
 20
289.1013646268173
 30
0.0
 41
0.8190494897879242
 10
2.893339205077593
 20
290.5839677033435
 30
0.0
 41
1.0
  0
SPLINE
  5
1A3
330
1F
100
AcDbEntity
  8
WHITE
100
AcDbSpline
210
0.0
220
0.0
230
1.0
 70
    12
 71
     2
 72
     6
 73
     3
 74
     0
 42
0.0000000001
 43
0.0000000001
 40
42.50455306961626
 40
42.50455306961626
 40
42.50455306961626
 40
63.32626873020358
 40
63.32626873020358
 40
63.32626873020358
 10
2.893339205077593
 20
290.5839677033435
 30
0.0
 41
1.0
 10
-17.98335512614311
 20
296.8167667627112
 30
0.0
 41
0.9692737548089718
 10
-39.30574623499404
 20
292.3401846161541
 30
0.0
 41
1.0
  0
SPLINE
  5
1A4
330
1F
100
AcDbEntity
  8
WHITE
100
AcDbSpline
210
0.0
220
0.0
230
1.0
 70
    12
 71
     2
 72
     8
 73
     5
 74
     0
 42
0.0000000001
 43
0.0000000001
 40
63.32626873020358
 40
63.32626873020358
 40
63.32626873020358
 40
68.9761277318895
 40
68.9761277318895
 40
74.62598673357543
 40
74.62598673357543
 40
74.62598673357543
 10
-39.30574623499403
 20
292.3401846161541
 30
0.0
 41
1.0
 10
-45.30337926289251
 20
291.0809967137644
 30
0.0
 41
0.9188607755982361
 10
-48.52033382740808
 20
285.8648334263752
 30
0.0
 41
1.0
 10
-51.73728839192363
 20
280.6486701389861
 30
0.0
 41
0.9188607755982361
 10
-50.17011113698234
 20
274.7240510320344
 30
0.0
 41
1.0
  0
SPLINE
  5
1A5
330
1F
100
AcDbEntity
  8
WHITE
100
AcDbSpline
210
0.0
220
0.0
230
1.0
 70
    12
 71
     2
 72
     6
 73
     3
 74
     0
 42
0.0000000001
 43
0.0000000001
 40
74.62598673357543
 40
74.62598673357543
 40
74.62598673357543
 40
85.95797733698618
 40
85.95797733698618
 40
85.95797733698618
 10
-50.17011113698241
 20
274.7240510320344
 30
0.0
 41
1.0
 10
-48.08770696827322
 20
263.2668939301858
 30
0.0
 41
0.9955389256365327
 10
-48.19473910468171
 20
251.6225218947314
 30
0.0
 41
1.0
  0
SPLINE
  5
1A6
330
1F
100
AcDbEntity
  8
WHITE
100
AcDbSpline
210
0.0
220
0.0
230
1.0
 70
    12
 71
     2
 72
     6
 73
     3
 74
     0
 42
0.0000000001
 43
0.0000000001
 40
85.95797733698618
 40
85.95797733698618
 40
85.95797733698618
 40
110.4054402899502
 40
110.4054402899502
 40
110.4054402899502
 10
-48.19473910468169
 20
251.6225218947314
 30
0.0
 41
1.0
 10
-58.59968365568187
 20
226.5247740165742
 30
0.0
 41
0.8868865692070403
 10
-85.12974212716912
 20
220.6668036202338
 30
0.0
 41
1.0
  0
LINE
  5
1A7
330
1F
100
AcDbEntity
  8
WHITE
100
AcDbLine
 10
-85.12974212716912
 20
220.6668036202338
 30
0.0
 11
-94.39986551579354
 21
220.6463129121727
 31
0.0
  0
SPLINE
  5
1A8
330
1F
100
AcDbEntity
  8
WHITE
100
AcDbSpline
210
0.0
220
0.0
230
1.0
 70
    12
 71
     2
 72
     8
 73
     5
 74
     0
 42
0.0000000001
 43
0.0000000001
 40
114.929451342103
 40
114.929451342103
 40
114.929451342103
 40
116.4856481171475
 40
116.4856481171475
 40
118.0418448921921
 40
118.0418448921921
 40
118.0418448921921
 10
-94.39986551579354
 20
220.6463129121727
 30
0.0
 41
1.0
 10
-96.41177971187571
 20
220.6145765724761
 30
0.0
 41
0.7103574570979796
 10
-96.39858538170266
 20
218.6024553441936
 30
0.0
 41
1.0
 10
-96.38539105152962
 20
216.5903341159109
 30
0.0
 41
0.7103574570979796
 10
-94.37323367249734
 20
216.5849853160185
 30
0.0
 41
1.0
  0
LINE
  5
1A9
330
1F
100
AcDbEntity
  8
WHITE
100
AcDbLine
 10
-94.37323367249734
 20
216.5849853160185
 30
0.0
 11
-84.35723147341133
 21
216.5583603650858
 31
0.0
  0
SPLINE
  5
1AA
330
1F
100
AcDbEntity
  8
WHITE
100
AcDbSpline
210
0.0
220
0.0
230
1.0
 70
    12
 71
     2
 72
     8
 73
     5
 74
     0
 42
0.0000000001
 43
0.0000000001
 40
122.9298651634313
 40
122.9298651634313
 40
122.9298651634313
 40
142.5959725498659
 40
142.5959725498659
 40
162.2620799363005
 40
162.2620799363005
 40
162.2620799363005
 10
-84.35723147341133
 20
216.5583603650858
 30
0.0
 41
1.0
 10
-62.8963649634486
 20
217.484795651129
 30
0.0
 41
0.9082865132510475
 10
-49.65152633660139
 20
234.3963693048857
 30
0.0
 41
1.0
 10
-36.40668770975415
 20
251.3079429586426
 30
0.0
 41
0.9082865132510475
 10
-40.65009100439401
 20
272.3654974742246
 30
0.0
 41
1.0
  0
SPLINE
  5
1AB
330
1F
100
AcDbEntity
  8
WHITE
100
AcDbSpline
210
0.0
220
0.0
230
1.0
 70
    12
 71
     2
 72
     8
 73
     5
 74
     0
 42
0.0000000001
 43
0.0000000001
 40
162.2620799363005
 40
162.2620799363005
 40
162.2620799363005
 40
165.621628135104
 40
165.621628135104
 40
168.9811763339075
 40
168.9811763339075
 40
168.9811763339075
 10
-40.65009100439399
 20
272.3654974742246
 30
0.0
 41
1.0
 10
-41.3559932819063
 20
275.9730132900876
 30
0.0
 41
0.9049184761284186
 10
-39.02753519650092
 20
278.8174378947501
 30
0.0
 41
1.0
 10
-36.69907711109555
 20
281.6618624994126
 30
0.0
 41
0.9049184761284186
 10
-33.02320374130226
 20
281.6824381243923
 30
0.0
 41
1.0
  0
LINE
  5
1AC
330
1F
100
AcDbEntity
  8
WHITE
100
AcDbLine
 10
-33.02320374130226
 20
281.6824381243923
 30
0.0
 11
-25.99889313229631
 21
281.721756557399
 31
0.0
  0
SPLINE
  5
1AD
330
1F
100
AcDbEntity
  8
WHITE
100
AcDbSpline
210
0.0
220
0.0
230
1.0
 70
    12
 71
     2
 72
     6
 73
     3
 74
     0
 42
0.0000000001
 43
0.0000000001
 40
172.4092300352582
 40
172.4092300352582
 40
172.4092300352582
 40
178.0272401427874
 40
178.0272401427874
 40
178.0272401427874
 10
-25.99889313229636
 20
281.7217565573989
 30
0.0
 41
1.0
 10
-19.50017788184818
 20
281.6571279249031
 30
0.0
 41
0.834806049599205
 10
-17.00037532027498
 20
275.6580893419554
 30
0.0
 41
1.0
  0
SPLINE
  5
1AE
330
1F
100
AcDbEntity
  8
WHITE
100
AcDbSpline
210
0.0
220
0.0
230
1.0
 70
    12
 71
     2
 72
     6
 73
     3
 74
     0
 42
0.0000000001
 43
0.0000000001
 40
178.0272401427874
 40
178.0272401427874
 40
178.0272401427874
 40
182.6531493812805
 40
182.6531493812805
 40
182.6531493812805
 10
-17.00037532027494
 20
275.6580893419554
 30
0.0
 41
1.0
 10
-14.88094319975452
 20
270.5718656295757
 30
0.0
 41
0.8028228714332988
 10
-9.399208680892059
 20
271.130659715602
 30
0.0
 41
1.0
  0
SPLINE
  5
1AF
330
1F
100
AcDbEntity
  8
WHITE
100
AcDbSpline
210
0.0
220
0.0
230
1.0
 70
    12
 71
     2
 72
     6
 73
     3
 74
     0
 42
0.0000000001
 43
0.0000000001
 40
93.87844292275696
 40
93.87844292275696
 40
93.87844292275696
 40
108.2928062932409
 40
108.2928062932409
 40
108.2928062932409
 10
-80.73905096886203
 20
157.857186258792
 30
0.0
 41
1.0
 10
-86.21421245849723
 20
142.926870128315
 30
0.0
 41
0.896359359617739
 10
-77.67113911680994
 20
129.5139050954777
 30
0.0
 41
1.0
  0
SPLINE
  5
1B0
330
1F
100
AcDbEntity
  8
WHITE
100
AcDbSpline
210
0.0
220
0.0
230
1.0
 70
    12
 71
     2
 72
     6
 73
     3
 74
     0
 42
0.0000000001
 43
0.0000000001
 40
45.93637768322277
 40
45.93637768322277
 40
45.93637768322277
 40
51.06069985621915
 40
51.06069985621915
 40
51.06069985621915
 10
-77.67113911681
 20
129.5139050954777
 30
0.0
 41
1.0
 10
-74.84936765054627
 20
125.0825033137498
 30
0.0
 41
0.999025747991193
 10
-71.64784299132052
 20
120.9171754976839
 30
0.0
 41
1.0
  0
SPLINE
  5
1B1
330
1F
100
AcDbEntity
  8
WHITE
100
AcDbSpline
210
0.0
220
0.0
230
1.0
 70
    12
 71
     2
 72
     6
 73
     3
 74
     0
 42
0.0000000001
 43
0.0000000001
 40
51.06069985621915
 40
51.06069985621915
 40
51.06069985621915
 40
56.1846046332797
 40
56.1846046332797
 40
56.1846046332797
 10
-71.64784299132049
 20
120.9171754976839
 30
0.0
 41
1.0
 10
-68.44613355914825
 20
116.7525946867006
 30
0.0
 41
0.9990359026648329
 10
-64.89146231019615
 20
112.8849094705607
 30
0.0
 41
1.0
  0
SPLINE
  5
1B2
330
1F
100
AcDbEntity
  8
WHITE
100
AcDbSpline
210
0.0
220
0.0
230
1.0
 70
    12
 71
     2
 72
     6
 73
     3
 74
     0
 42
0.0000000001
 43
0.0000000001
 40
56.1846046332797
 40
56.1846046332797
 40
56.1846046332797
 40
62.35642861001813
 40
62.35642861001813
 40
62.35642861001813
 10
-64.89146231019615
 20
112.8849094705608
 30
0.0
 41
1.0
 10
-60.60536431349076
 20
108.2209641497617
 30
0.0
 41
0.997410963319307
 10
-57.03264912725612
 20
102.9904069910248
 30
0.0
 41
1.0
  0
SPLINE
  5
1B3
330
1F
100
AcDbEntity
  8
WHITE
100
AcDbSpline
210
0.0
220
0.0
230
1.0
 70
    12
 71
     2
 72
     8
 73
     5
 74
     0
 42
0.0000000001
 43
0.0000000001
 40
62.35642861001813
 40
62.35642861001813
 40
62.35642861001813
 40
63.03993201605763
 40
63.03993201605763
 40
63.72343542209713
 40
63.72343542209713
 40
63.72343542209713
 10
-57.03264912725613
 20
102.9904069910248
 30
0.0
 41
1.0
 10
-56.55925244020828
 20
102.2973615967727
 30
0.0
 41
0.7690982414066878
 10
-55.79127063254725
 20
102.6359177736525
 30
0.0
 41
1.0
 10
-55.02328882488622
 20
102.9744739505324
 30
0.0
 41
0.7690982414066878
 10
-55.21556698485109
 20
103.7914472983243
 30
0.0
 41
1.0
  0
SPLINE
  5
1B4
330
1F
100
AcDbEntity
  8
WHITE
100
AcDbSpline
210
0.0
220
0.0
230
1.0
 70
    12
 71
     2
 72
     6
 73
     3
 74
     0
 42
0.0000000001
 43
0.0000000001
 40
63.72343542209713
 40
63.72343542209713
 40
63.72343542209713
 40
92.79490778302359
 40
92.79490778302359
 40
92.79490778302359
 10
-55.21556698485114
 20
103.7914472983243
 30
0.0
 41
1.0
 10
-62.14281926905419
 20
133.0933087035498
 30
0.0
 41
0.9838282931141692
 10
-78.95260016348429
 20
158.0736444158914
 30
0.0
 41
1.0
  0
SPLINE
  5
1B5
330
1F
100
AcDbEntity
  8
WHITE
100
AcDbSpline
210
0.0
220
0.0
230
1.0
 70
    12
 71
     2
 72
     8
 73
     5
 74
     0
 42
0.0000000001
 43
0.0000000001
 40
92.79490778302359
 40
92.79490778302359
 40
92.79490778302359
 40
93.33667535289027
 40
93.33667535289027
 40
93.87844292275696
 40
93.87844292275696
 40
93.87844292275696
 10
-78.9526001634843
 20
158.0736444158914
 30
0.0
 41
1.0
 10
-79.29807107089759
 20
158.5866750115829
 30
0.0
 41
0.85285607810596
 10
-79.91208690686922
 20
158.5122768048794
 30
0.0
 41
1.0
 10
-80.52610274284083
 20
158.4378785981758
 30
0.0
 41
0.85285607810596
 10
-80.73905096886203
 20
157.857186258792
 30
0.0
 41
1.0
  0
SPLINE
  5
1B6
330
1F
100
AcDbEntity
  8
WHITE
100
AcDbSpline
210
0.0
220
0.0
230
1.0
 70
    12
 71
     2
 72
     8
 73
     5
 74
     0
 42
0.0000000001
 43
0.0000000001
 40
237.5716857363522
 40
237.5716857363522
 40
237.5716857363522
 40
241.7061525337135
 40
241.7061525337135
 40
245.8406193310747
 40
245.8406193310747
 40
245.8406193310747
 10
-107.8035066074985
 20
338.7759850720342
 30
0.0
 41
1.0
 10
-107.3089793833419
 20
343.2864480781558
 30
0.0
 41
0.9032384825183476
 10
-103.4999520589578
 20
345.7522429899681
 30
0.0
 41
1.0
 10
-99.69092473457363
 20
348.2180379017803
 30
0.0
 41
0.9032384825183476
 10
-95.37328291120498
 20
346.8227591518089
 30
0.0
 41
1.0
  0
SPLINE
  5
1B7
330
1F
100
AcDbEntity
  8
WHITE
100
AcDbSpline
210
0.0
220
0.0
230
1.0
 70
    12
 71
     2
 72
     6
 73
     3
 74
     0
 42
0.0000000001
 43
0.0000000001
 40
118.0651441587596
 40
118.0651441587596
 40
118.0651441587596
 40
127.7754751723152
 40
127.7754751723152
 40
127.7754751723152
 10
-95.373282911205
 20
346.8227591518089
 30
0.0
 41
1.0
 10
-85.8527400420062
 20
343.6825857196122
 30
0.0
 41
0.9893024133029973
 10
-75.8310344529068
 20
343.4240459858399
 30
0.0
 41
1.0
  0
LINE
  5
1B8
330
1F
100
AcDbEntity
  8
WHITE
100
AcDbLine
 10
-75.8310344529068
 20
343.4240459858399
 30
0.0
 11
-75.03698606573066
 21
343.4035611435347
 31
0.0
  0
LINE
  5
1B9
330
1F
100
AcDbEntity
  8
WHITE
100
AcDbLine
 10
-75.03698606573066
 20
343.4035611435347
 30
0.0
 11
-75.63841300334873
 21
321.4895358354653
 31
0.0
  0
LINE
  5
1BA
330
1F
100
AcDbEntity
  8
WHITE
100
AcDbLine
 10
-75.63841300334873
 20
321.4895358354653
 30
0.0
 11
-72.59345194845278
 21
321.4055227780959
 31
0.0
  0
LINE
  5
1BB
330
1F
100
AcDbEntity
  8
WHITE
100
AcDbLine
 10
-72.59345194845278
 20
321.4055227780959
 30
0.0
 11
-71.99105602106387
 21
343.384162893848
 31
0.0
  0
SPLINE
  5
1BC
330
1F
100
AcDbEntity
  8
WHITE
100
AcDbSpline
210
0.0
220
0.0
230
1.0
 70
    12
 71
     2
 72
     6
 73
     3
 74
     0
 42
0.0000000001
 43
0.0000000001
 40
151.0782064856824
 40
151.0782064856824
 40
151.0782064856824
 40
160.6420863889514
 40
160.6420863889514
 40
160.6420863889514
 10
-71.99105602106387
 20
343.384162893848
 30
0.0
 41
1.0
 10
-62.13391197817575
 20
343.5452030870049
 30
0.0
 41
0.9909659888283484
 10
-52.67416225841504
 20
346.3205152974678
 30
0.0
 41
1.0
  0
SPLINE
  5
1BD
330
1F
100
AcDbEntity
  8
WHITE
100
AcDbSpline
210
0.0
220
0.0
230
1.0
 70
    12
 71
     2
 72
     8
 73
     5
 74
     0
 42
0.0000000001
 43
0.0000000001
 40
160.6420863889514
 40
160.6420863889514
 40
160.6420863889514
 40
164.5445962958966
 40
164.5445962958966
 40
168.4471062028417
 40
168.4471062028417
 40
168.4471062028417
 10
-52.67416225841505
 20
346.3205152974678
 30
0.0
 41
1.0
 10
-48.59801667275802
 20
347.5052568592037
 30
0.0
 41
0.9141365149415621
 10
-44.98361320291725
 20
345.2793496372425
 30
0.0
 41
1.0
 10
-41.36920973307646
 20
343.0534424152813
 30
0.0
 41
0.9141365149415621
 10
-40.59272129700003
 20
338.8802372786727
 30
0.0
 41
1.0
  0
SPLINE
  5
1BE
330
1F
100
AcDbEntity
  8
WHITE
100
AcDbSpline
210
0.0
220
0.0
230
1.0
 70
    12
 71
     2
 72
     6
 73
     3
 74
     0
 42
0.0000000001
 43
0.0000000001
 40
168.4471062028417
 40
168.4471062028417
 40
168.4471062028417
 40
190.738499411915
 40
190.738499411915
 40
190.738499411915
 10
-40.59272129700008
 20
338.8802372786727
 30
0.0
 41
1.0
 10
-36.25897635154003
 20
315.2050675127208
 30
0.0
 41
0.9245590913781873
 10
-49.86485165322117
 20
295.3512223946069
 30
0.0
 41
1.0
  0
SPLINE
  5
1BF
330
1F
100
AcDbEntity
  8
WHITE
100
AcDbSpline
210
0.0
220
0.0
230
1.0
 70
    12
 71
     2
 72
     6
 73
     3
 74
     0
 42
0.0000000001
 43
0.0000000001
 40
190.738499411915
 40
190.738499411915
 40
190.738499411915
 40
195.5744620801938
 40
195.5744620801938
 40
195.5744620801938
 10
-49.86485165322117
 20
295.3512223946069
 30
0.0
 41
1.0
 10
-52.92162460756285
 20
290.8115018207198
 30
0.0
 41
0.8656362244368921
 10
-58.38093073839954
 20
291.19737790598
 30
0.0
 41
1.0
  0
LINE
  5
1C0
330
1F
100
AcDbEntity
  8
WHITE
100
AcDbLine
 10
-58.38093073839954
 20
291.19737790598
 30
0.0
 11
-63.42988137957907
 21
291.5542491385872
 31
0.0
  0
SPLINE
  5
1C1
330
1F
100
AcDbEntity
  8
WHITE
100
AcDbSpline
210
0.0
220
0.0
230
1.0
 70
    12
 71
     2
 72
     6
 73
     3
 74
     0
 42
0.0000000001
 43
0.0000000001
 40
198.0445954194684
 40
198.0445954194684
 40
198.0445954194684
 40
199.7743363877402
 40
199.7743363877402
 40
199.7743363877402
 10
-63.42988137957903
 20
291.5542491385871
 30
0.0
 41
1.0
 10
-65.21866359800485
 20
291.6771260890365
 30
0.0
 41
0.9827317926009257
 10
-66.84026835205445
 20
292.4421349723523
 30
0.0
 41
1.0
  0
SPLINE
  5
1C2
330
1F
100
AcDbEntity
  8
WHITE
100
AcDbSpline
210
0.0
220
0.0
230
1.0
 70
    12
 71
     2
 72
     6
 73
     3
 74
     0
 42
0.0000000001
 43
0.0000000001
 40
199.7743363877402
 40
199.7743363877402
 40
199.7743363877402
 40
207.8330183937215
 40
207.8330183937215
 40
207.8330183937215
 10
-66.84026835205445
 20
292.4421349723523
 30
0.0
 41
1.0
 10
-74.67039891958305
 20
296.1492704032766
 30
0.0
 41
0.9312605870794706
 10
-82.93729573275724
 20
293.5584761451211
 30
0.0
 41
1.0
  0
SPLINE
  5
1C3
330
1F
100
AcDbEntity
  8
WHITE
100
AcDbSpline
210
0.0
220
0.0
230
1.0
 70
    12
 71
     2
 72
     6
 73
     3
 74
     0
 42
0.0000000001
 43
0.0000000001
 40
207.8330183937215
 40
207.8330183937215
 40
207.8330183937215
 40
209.5689232095269
 40
209.5689232095269
 40
209.5689232095269
 10
-82.93729573275724
 20
293.5584761451211
 30
0.0
 41
1.0
 10
-84.65404668269869
 20
293.0178538277314
 30
0.0
 41
0.9824343166749685
 10
-86.4494588889182
 20
293.1443501673734
 30
0.0
 41
1.0
  0
LINE
  5
1C4
330
1F
100
AcDbEntity
  8
WHITE
100
AcDbLine
 10
-86.4494588889182
 20
293.1443501673734
 30
0.0
 11
-92.70535771351928
 21
293.5851115144008
 31
0.0
  0
SPLINE
  5
1C5
330
1F
100
AcDbEntity
  8
WHITE
100
AcDbSpline
210
0.0
220
0.0
230
1.0
 70
    12
 71
     2
 72
     6
 73
     3
 74
     0
 42
0.0000000001
 43
0.0000000001
 40
212.6294912956834
 40
212.6294912956834
 40
212.6294912956834
 40
217.473272771239
 40
217.473272771239
 40
217.473272771239
 10
-92.70535771351928
 20
293.5851115144008
 30
0.0
 41
1.0
 10
-98.17502123474655
 20
293.9026434886834
 30
0.0
 41
0.8660510669564775
 10
-100.6353647984395
 20
298.7980244890481
 30
0.0
 41
1.0
  0
SPLINE
  5
1C6
330
1F
100
AcDbEntity
  8
WHITE
100
AcDbSpline
210
0.0
220
0.0
230
1.0
 70
    12
 71
     2
 72
     6
 73
     3
 74
     0
 42
0.0000000001
 43
0.0000000001
 40
217.473272771239
 40
217.473272771239
 40
217.473272771239
 40
237.5716857363522
 40
237.5716857363522
 40
237.5716857363522
 10
-100.6353647984395
 20
298.7980244890481
 30
0.0
 41
1.0
 10
-110.110917612046
 20
317.7306482987714
 30
0.0
 41
0.9592046586627961
 10
-107.8035066074985
 20
338.7759850720342
 30
0.0
 41
1.0
  0
SPLINE
  5
1C7
330
1F
100
AcDbEntity
  8
WHITE
100
AcDbSpline
210
0.0
220
0.0
230
1.0
 70
    12
 71
     2
 72
     6
 73
     3
 74
     0
 42
0.0000000001
 43
0.0000000001
 40
144.8548652975278
 40
144.8548652975278
 40
144.8548652975278
 40
150.3896169537797
 40
150.3896169537797
 40
150.3896169537797
 10
-57.41470353697004
 20
153.6334022715758
 30
0.0
 41
1.0
 10
-59.54689551113727
 20
158.9605109503391
 30
0.0
 41
0.9824873887565767
 10
-63.48145912492726
 20
163.1370572100011
 30
0.0
 41
1.0
  0
SPLINE
  5
1C8
330
1F
100
AcDbEntity
  8
WHITE
100
AcDbSpline
210
0.0
220
0.0
230
1.0
 70
    12
 71
     2
 72
     6
 73
     3
 74
     0
 42
0.0000000001
 43
0.0000000001
 40
49.73871080260249
 40
49.73871080260249
 40
49.73871080260249
 40
52.43404078907308
 40
52.43404078907308
 40
52.43404078907308
 10
-63.48145912492725
 20
163.1370572100011
 30
0.0
 41
1.0
 10
-65.77915917409507
 20
165.57818898879
 30
0.0
 41
0.7555392250917784
 10
-68.5212023357794
 20
163.6495238605682
 30
0.0
 41
1.0
  0
SPLINE
  5
1C9
330
1F
100
AcDbEntity
  8
WHITE
100
AcDbSpline
210
0.0
220
0.0
230
1.0
 70
    12
 71
     2
 72
     6
 73
     3
 74
     0
 42
0.0000000001
 43
0.0000000001
 40
52.43404078907308
 40
52.43404078907308
 40
52.43404078907308
 40
55.12968326971284
 40
55.12968326971284
 40
55.12968326971284
 10
-68.52120233577939
 20
163.6495238605682
 30
0.0
 41
1.0
 10
-71.26130134018354
 20
161.7209914384767
 30
0.0
 41
0.7559874651848928
 10
-69.74452612958412
 20
158.7332208954953
 30
0.0
 41
1.0
  0
SPLINE
  5
1CA
330
1F
100
AcDbEntity
  8
WHITE
100
AcDbSpline
210
0.0
220
0.0
230
1.0
 70
    12
 71
     2
 72
     6
 73
     3
 74
     0
 42
0.0000000001
 43
0.0000000001
 40
55.12968326971284
 40
55.12968326971284
 40
55.12968326971284
 40
100.6509061511772
 40
100.6509061511772
 40
100.6509061511772
 10
-69.74452612958413
 20
158.7332208954953
 30
0.0
 41
1.0
 10
-48.43654057348486
 20
116.7603753941349
 30
0.0
 41
0.9862585866226623
 10
-41.96972172045948
 20
70.13495033588838
 30
0.0
 41
1.0
  0
SPLINE
  5
1CB
330
1F
100
AcDbEntity
  8
WHITE
100
AcDbSpline
210
0.0
220
0.0
230
1.0
 70
    12
 71
     2
 72
     8
 73
     5
 74
     0
 42
0.0000000001
 43
0.0000000001
 40
100.6509061511772
 40
100.6509061511772
 40
100.6509061511772
 40
101.91236398654
 40
101.91236398654
 40
103.1738218219029
 40
103.1738218219029
 40
103.1738218219029
 10
-41.96972172045959
 20
70.13495033588852
 30
0.0
 41
1.0
 10
-41.77608492542851
 20
68.5008152192554
 30
0.0
 41
0.707106916196255
 10
-40.14194973485242
 20
68.69445139026723
 30
0.0
 41
1.0
 10
-38.50781454427629
 20
68.8880875612791
 30
0.0
 41
0.707106916196255
 10
-38.70145009126879
 20
70.52222282579794
 30
0.0
 41
1.0
  0
SPLINE
  5
1CC
330
1F
100
AcDbEntity
  8
WHITE
100
AcDbSpline
210
0.0
220
0.0
230
1.0
 70
    12
 71
     2
 72
     6
 73
     3
 74
     0
 42
0.0000000001
 43
0.0000000001
 40
103.1738218219029
 40
103.1738218219029
 40
103.1738218219029
 40
144.8548652975278
 40
144.8548652975278
 40
144.8548652975278
 10
-38.7014500912688
 20
70.52222282579794
 30
0.0
 41
1.0
 10
-42.90246947334222
 20
113.2386453930508
 30
0.0
 41
0.9923916192719069
 10
-57.41470353697014
 20
153.6334022715758
 30
0.0
 41
1.0
  0
LINE
  5
1CD
330
1F
100
AcDbEntity
  8
WHITE
100
AcDbLine
 10
-79.57251467876723
 20
5.407458839914826
 30
0.0
 11
-86.48822332910241
 21
0.167707761828861
 31
0.0
  0
SPLINE
  5
1CE
330
1F
100
AcDbEntity
  8
WHITE
100
AcDbSpline
210
0.0
220
0.0
230
1.0
 70
    12
 71
     2
 72
     6
 73
     3
 74
     0
 42
0.0000000001
 43
0.0000000001
 40
77.64009040811243
 40
77.64009040811243
 40
77.64009040811243
 40
80.0483598072579
 40
80.0483598072579
 40
80.0483598072579
 10
-86.48822332910241
 20
0.167707761828861
 30
0.0
 41
1.0
 10
-88.25661895906597
 20
2.070028841535252
 30
0.0
 41
0.9263861356002544
 10
-90.85073080618503
 20
2.198995189883367
 30
0.0
 41
1.0
  0
SPLINE
  5
1CF
330
1F
100
AcDbEntity
  8
WHITE
100
AcDbSpline
210
0.0
220
0.0
230
1.0
 70
    12
 71
     2
 72
     6
 73
     3
 74
     0
 42
0.0000000001
 43
0.0000000001
 40
80.0483598072579
 40
80.0483598072579
 40
80.0483598072579
 40
80.42406177052004
 40
80.42406177052004
 40
80.42406177052004
 10
-90.85073080618503
 20
2.198995189883367
 30
0.0
 41
1.0
 10
-91.23611289903556
 20
2.218154472197501
 30
0.0
 41
0.9963773397959793
 10
-91.6191675682512
 20
2.171726506694559
 30
0.0
 41
1.0
  0
SPLINE
  5
1D0
330
1F
100
AcDbEntity
  8
WHITE
100
AcDbSpline
210
0.0
220
0.0
230
1.0
 70
    12
 71
     2
 72
     6
 73
     3
 74
     0
 42
0.0000000001
 43
0.0000000001
 40
80.42406177052004
 40
80.42406177052004
 40
80.42406177052004
 40
82.433116053404
 40
82.433116053404
 40
82.433116053404
 10
-91.61916756825121
 20
2.171726506694699
 30
0.0
 41
1.0
 10
-93.74301591989398
 20
2.006405497160277
 30
0.0
 41
0.9494175772945221
 10
-95.34943959263033
 20
0.6073108468090231
 30
0.0
 41
1.0
  0
LINE
  5
1D1
330
1F
100
AcDbEntity
  8
WHITE
100
AcDbLine
 10
-95.34943959263033
 20
0.6073108468090231
 30
0.0
 11
-98.41397944179386
 21
-2.061711890791224
 31
0.0
  0
SPLINE
  5
1D2
330
1F
100
AcDbEntity
  8
WHITE
100
AcDbSpline
210
0.0
220
0.0
230
1.0
 70
    12
 71
     2
 72
     8
 73
     5
 74
     0
 42
0.0000000001
 43
0.0000000001
 40
84.41636646226567
 40
84.41636646226567
 40
84.41636646226567
 40
87.02804082949517
 40
87.02804082949517
 40
89.63971519672467
 40
89.63971519672467
 40
89.63971519672467
 10
-98.41397944179386
 20
-2.061711890791224
 30
0.0
 41
1.0
 10
-100.7201842043654
 20
-4.085610399876897
 30
0.0
 41
0.81926061491178
 10
-103.41135342734
 20
-2.611719699960029
 30
0.0
 41
1.0
 10
-106.1025226503146
 20
-1.137829000043306
 30
0.0
 41
0.81926061491178
 10
-105.6391009126705
 20
1.895318849149928
 30
0.0
 41
1.0
  0
SPLINE
  5
1D3
330
1F
100
AcDbEntity
  8
WHITE
100
AcDbSpline
210
0.0
220
0.0
230
1.0
 70
    12
 71
     2
 72
    12
 73
     9
 74
     0
 42
0.0000000001
 43
0.0000000001
 40
89.63971519672467
 40
89.63971519672467
 40
89.63971519672467
 40
101.146232573614
 40
101.146232573614
 40
112.6527499505033
 40
112.6527499505033
 40
124.1592673273926
 40
124.1592673273926
 40
135.6657847042819
 40
135.6657847042819
 40
135.6657847042819
 10
-105.6391009126706
 20
1.895318849149928
 30
0.0
 41
1.0
 10
-103.6226871291287
 20
15.09297582943244
 30
0.0
 41
0.8334187980319927
 10
-90.68074059565592
 20
18.37170946307659
 30
0.0
 41
1.0
 10
-77.73879406218316
 20
21.65044309672072
 30
0.0
 41
0.8334187980319927
 10
-69.68187518894177
 20
11.00478047828019
 30
0.0
 41
1.0
 10
-61.62495631570039
 20
0.3591178598395883
 30
0.0
 41
0.8334187980319927
 10
-68.2958196091856
 20
-11.20564142149823
 30
0.0
 41
1.0
 10
-74.96668290267084
 20
-22.77040070283606
 30
0.0
 41
0.8334187980319927
 10
-88.21585202122132
 20
-21.12614038776891
 30
0.0
 41
1.0
  0
SPLINE
  5
1D4
330
1F
100
AcDbEntity
  8
WHITE
100
AcDbSpline
210
0.0
220
0.0
230
1.0
 70
    12
 71
     2
 72
     8
 73
     5
 74
     0
 42
0.0000000001
 43
0.0000000001
 40
135.6657847042819
 40
135.6657847042819
 40
135.6657847042819
 40
138.323164105465
 40
138.323164105465
 40
140.9805435066481
 40
140.9805435066481
 40
140.9805435066481
 10
-88.21585202122134
 20
-21.12614038776891
 30
0.0
 41
1.0
 10
-91.29750513278844
 20
-20.77230931511321
 30
0.0
 41
0.8170143422234845
 10
-91.99655264650595
 20
-17.75020493214205
 30
0.0
 41
1.0
 10
-92.69560016022344
 20
-14.72810054917092
 30
0.0
 41
0.8170143422234845
 10
-90.08234365458569
 20
-13.05697136094218
 30
0.0
 41
1.0
  0
LINE
  5
1D5
330
1F
100
AcDbEntity
  8
WHITE
100
AcDbLine
 10
-90.08234365458569
 20
-13.05697136094218
 30
0.0
 11
-86.68288825646623
 21
-10.88308252621687
 31
0.0
  0
SPLINE
  5
1D6
330
1F
100
AcDbEntity
  8
WHITE
100
AcDbSpline
210
0.0
220
0.0
230
1.0
 70
    12
 71
     2
 72
     6
 73
     3
 74
     0
 42
0.0000000001
 43
0.0000000001
 40
142.949753960104
 40
142.949753960104
 40
142.949753960104
 40
147.7368853825384
 40
147.7368853825384
 40
147.7368853825384
 10
-86.68288825646623
 20
-10.88308252621687
 30
0.0
 41
1.0
 10
-81.49406856970397
 20
-7.547270572056593
 30
0.0
 41
0.7191787654080303
 10
-84.64921885114437
 20
-2.246655717459493
 30
0.0
 41
1.0
  0
LINE
  5
1D7
330
1F
100
AcDbEntity
  8
WHITE
100
AcDbLine
 10
-84.64921885114437
 20
-2.246655717459493
 30
0.0
 11
-77.73447291144443
 21
2.966981978285517
 31
0.0
  0
LINE
  5
1D8
330
1F
100
AcDbEntity
  8
WHITE
100
AcDbLine
 10
-77.73447291144443
 20
2.966981978285517
 30
0.0
 11
-79.57251467876723
 21
5.407458839914826
 31
0.0
  0
LINE
  5
1D9
330
1F
100
AcDbEntity
  8
WHITE
100
AcDbLine
 10
-83.95274183146915
 20
255.5509774424966
 30
0.0
 11
-84.71716624325386
 21
255.7233840047073
 31
0.0
  0
SPLINE
  5
1DA
330
1F
100
AcDbEntity
  8
WHITE
100
AcDbSpline
210
0.0
220
0.0
230
1.0
 70
    12
 71
     2
 72
     8
 73
     5
 74
     0
 42
0.0000000001
 43
0.0000000001
 40
28.85716925577859
 40
28.85716925577859
 40
28.85716925577859
 40
35.40322771832897
 40
35.40322771832897
 40
41.94928618087934
 40
41.94928618087934
 40
41.94928618087934
 10
-84.7171662432538
 20
255.7233840047073
 30
0.0
 41
1.0
 10
-91.76827135440877
 20
257.0683454832875
 30
0.0
 41
0.907239683269665
 10
-95.29799912179968
 20
263.3187875920931
 30
0.0
 41
1.0
 10
-98.82772688919057
 20
269.5692297008987
 30
0.0
 41
0.907239683269665
 10
-96.33821382394287
 20
276.301935647647
 30
0.0
 41
1.0
  0
SPLINE
  5
1DB
330
1F
100
AcDbEntity
  8
WHITE
100
AcDbSpline
210
0.0
220
0.0
230
1.0
 70
    12
 71
     2
 72
     8
 73
     5
 74
     0
 42
0.0000000001
 43
0.0000000001
 40
41.94928618087934
 40
41.94928618087934
 40
41.94928618087934
 40
44.88092194747718
 40
44.88092194747718
 40
47.81255771407503
 40
47.81255771407503
 40
47.81255771407503
 10
-96.33821382394281
 20
276.301935647647
 30
0.0
 41
1.0
 10
-95.08283856636012
 20
279.6848943061181
 30
0.0
 41
0.7672306863985903
 10
-98.18964886078156
 20
281.5201343767226
 30
0.0
 41
1.0
 10
-101.296459155203
 20
283.3553744473269
 30
0.0
 41
0.7672306863985903
 10
-103.653421434768
 20
280.6231399890524
 30
0.0
 41
1.0
  0
SPLINE
  5
1DC
330
1F
100
AcDbEntity
  8
WHITE
100
AcDbSpline
210
0.0
220
0.0
230
1.0
 70
    12
 71
     2
 72
    12
 73
     9
 74
     0
 42
0.0000000001
 43
0.0000000001
 40
47.81255771407503
 40
47.81255771407503
 40
47.81255771407503
 40
63.40355012121269
 40
63.40355012121269
 40
78.99454252835035
 40
78.99454252835035
 40
94.585534935488
 40
94.585534935488
 40
110.1765273426257
 40
110.1765273426257
 40
110.1765273426257
 10
-103.653421434768
 20
280.6231399890525
 30
0.0
 41
1.0
 10
-115.3049826136445
 20
267.0397930298884
 30
0.0
 41
0.842002374983196
 10
-107.8344383464196
 20
250.7776541524354
 30
0.0
 41
1.0
 10
-100.3638940791947
 20
234.5155152749824
 30
0.0
 41
0.842002374983196
 10
-82.4679141382026
 20
234.5057957203702
 30
0.0
 41
1.0
 10
-64.57193419721051
 20
234.4960761657583
 30
0.0
 41
0.842002374983196
 10
-57.08372995661233
 20
250.7500907396787
 30
0.0
 41
1.0
 10
-49.59552571601416
 20
267.0041053135993
 30
0.0
 41
0.842002374983196
 10
-61.23232541766402
 20
280.6001005041622
 30
0.0
 41
1.0
  0
SPLINE
  5
1DD
330
1F
100
AcDbEntity
  8
WHITE
100
AcDbSpline
210
0.0
220
0.0
230
1.0
 70
    12
 71
     2
 72
     8
 73
     5
 74
     0
 42
0.0000000001
 43
0.0000000001
 40
110.1765273426257
 40
110.1765273426257
 40
110.1765273426257
 40
113.1175857435689
 40
113.1175857435689
 40
116.0586441445122
 40
116.0586441445122
 40
116.0586441445122
 10
-61.23232541766404
 20
280.6001005041622
 30
0.0
 41
1.0
 10
-63.58694010880427
 20
283.3451347487834
 30
0.0
 41
0.7669496279562943
 10
-66.70432601686669
 20
281.5117421426868
 30
0.0
 41
1.0
 10
-69.82171192492915
 20
279.6783495365899
 30
0.0
 41
0.7669496279562943
 10
-68.56705727262339
 20
276.2864083443928
 30
0.0
 41
1.0
  0
SPLINE
  5
1DE
330
1F
100
AcDbEntity
  8
WHITE
100
AcDbSpline
210
0.0
220
0.0
230
1.0
 70
    12
 71
     2
 72
     8
 73
     5
 74
     0
 42
0.0000000001
 43
0.0000000001
 40
116.0586441445122
 40
116.0586441445122
 40
116.0586441445122
 40
122.7941846268451
 40
122.7941846268451
 40
129.529725109178
 40
129.529725109178
 40
129.529725109178
 10
-68.56705727262337
 20
276.2864083443928
 30
0.0
 41
1.0
 10
-66.00112316514316
 20
269.3494416024837
 30
0.0
 41
0.902489234683613
 10
-69.78020092545565
 20
262.9914468947324
 30
0.0
 41
1.0
 10
-73.55927868576812
 20
256.6334521869812
 30
0.0
 41
0.902489234683613
 10
-80.87909336339024
 20
255.5723968125776
 30
0.0
 41
1.0
  0
LINE
  5
1DF
330
1F
100
AcDbEntity
  8
WHITE
100
AcDbLine
 10
-80.87909336339024
 20
255.5723968125776
 30
0.0
 11
-80.87909339113007
 21
247.7530350417054
 31
0.0
  0
LINE
  5
1E0
330
1F
100
AcDbEntity
  8
WHITE
100
AcDbLine
 10
-80.87909339113007
 20
247.7530350417054
 30
0.0
 11
-83.95274183146915
 21
247.7530350417054
 31
0.0
  0
LINE
  5
1E1
330
1F
100
AcDbEntity
  8
WHITE
100
AcDbLine
 10
-83.95274183146915
 20
247.7530350417054
 30
0.0
 11
-83.95274183146915
 21
255.5509774424966
 31
0.0
  0
SPLINE
  5
1E2
330
1F
100
AcDbEntity
  8
WHITE
100
AcDbSpline
210
0.0
220
0.0
230
1.0
 70
    12
 71
     2
 72
     6
 73
     3
 74
     0
 42
0.0000000001
 43
0.0000000001
 40
68.36602500875462
 40
68.36602500875462
 40
68.36602500875462
 40
70.44207890491627
 40
70.44207890491627
 40
70.44207890491627
 10
-85.79363365872733
 20
66.77218878111299
 30
0.0
 41
1.0
 10
-86.53954055904269
 20
64.76217972148659
 30
0.0
 41
0.9881982524712303
 10
-86.6419228861794
 20
62.6206775891486
 30
0.0
 41
1.0
  0
SPLINE
  5
1E3
330
1F
100
AcDbEntity
  8
WHITE
100
AcDbSpline
210
0.0
220
0.0
230
1.0
 70
    12
 71
     2
 72
     6
 73
     3
 74
     0
 42
0.0000000001
 43
0.0000000001
 40
24.12823934285161
 40
24.12823934285161
 40
24.12823934285161
 40
33.84024412234404
 40
33.84024412234404
 40
33.84024412234404
 10
-86.6419228861794
 20
62.6206775891486
 30
0.0
 41
1.0
 10
-86.47308634106138
 20
52.3449459762148
 30
0.0
 41
0.9529818611067722
 10
-80.40041422829914
 20
44.05387732549828
 30
0.0
 41
1.0
  0
SPLINE
  5
1E4
330
1F
100
AcDbEntity
  8
WHITE
100
AcDbSpline
210
0.0
220
0.0
230
1.0
 70
    12
 71
     2
 72
     6
 73
     3
 74
     0
 42
0.0000000001
 43
0.0000000001
 40
33.84024412234404
 40
33.84024412234404
 40
33.84024412234404
 40
43.55199872422982
 40
43.55199872422982
 40
43.55199872422982
 10
-80.40041422829911
 20
44.05387732549828
 30
0.0
 41
1.0
 10
-74.32684673739307
 20
35.76408868219163
 30
0.0
 41
0.9530047783565898
 10
-64.58134695624373
 20
32.50309928740568
 30
0.0
 41
1.0
  0
SPLINE
  5
1E5
330
1F
100
AcDbEntity
  8
WHITE
100
AcDbSpline
210
0.0
220
0.0
230
1.0
 70
    12
 71
     2
 72
     8
 73
     5
 74
     0
 42
0.0000000001
 43
0.0000000001
 40
43.55199872422982
 40
43.55199872422982
 40
43.55199872422982
 40
44.93291914314724
 40
44.93291914314724
 40
46.31383956206466
 40
46.31383956206466
 40
46.31383956206466
 10
-64.58134695624372
 20
32.50309928740575
 30
0.0
 41
1.0
 10
-63.12078047438448
 20
32.01437198611985
 30
0.0
 41
0.8822787762471903
 10
-61.90154150070433
 20
32.95541669707269
 30
0.0
 41
1.0
 10
-60.68230252702416
 20
33.89646140802545
 30
0.0
 41
0.8822787762471903
 10
-60.78504724160958
 20
35.43319572031803
 30
0.0
 41
1.0
  0
SPLINE
  5
1E6
330
1F
100
AcDbEntity
  8
WHITE
100
AcDbSpline
210
0.0
220
0.0
230
1.0
 70
    12
 71
     2
 72
     6
 73
     3
 74
     0
 42
0.0000000001
 43
0.0000000001
 40
46.31383956206466
 40
46.31383956206466
 40
46.31383956206466
 40
51.42675553267711
 40
51.42675553267711
 40
51.42675553267711
 10
-60.7850472416096
 20
35.43319572031803
 30
0.0
 41
1.0
 10
-60.29574865113921
 20
40.86648696709501
 30
0.0
 41
0.941428761574823
 10
-63.3674444598111
 20
45.37478506526106
 30
0.0
 41
1.0
  0
SPLINE
  5
1E7
330
1F
100
AcDbEntity
  8
WHITE
100
AcDbSpline
210
0.0
220
0.0
230
1.0
 70
    12
 71
     2
 72
     6
 73
     3
 74
     0
 42
0.0000000001
 43
0.0000000001
 40
51.42675553267711
 40
51.42675553267711
 40
51.42675553267711
 40
61.80236321670318
 40
61.80236321670318
 40
61.80236321670318
 10
-63.36744445981108
 20
45.37478506526106
 30
0.0
 41
1.0
 10
-71.22234484922248
 20
52.86033144576511
 30
0.0
 41
0.9697747956323323
 10
-74.59937251548531
 20
63.17190498638205
 30
0.0
 41
1.0
  0
SPLINE
  5
1E8
330
1F
100
AcDbEntity
  8
WHITE
100
AcDbSpline
210
0.0
220
0.0
230
1.0
 70
    12
 71
     2
 72
     6
 73
     3
 74
     0
 42
0.0000000001
 43
0.0000000001
 40
61.80236321670318
 40
61.80236321670318
 40
61.80236321670318
 40
62.00670547097916
 40
62.00670547097916
 40
62.00670547097916
 10
-74.59937251548533
 20
63.17190498638205
 30
0.0
 41
1.0
 10
-74.66564313772581
 20
63.37357850140813
 30
0.0
 41
0.9793675008232886
 10
-74.80633041974774
 20
63.53254733707234
 30
0.0
 41
1.0
  0
SPLINE
  5
1E9
330
1F
100
AcDbEntity
  8
WHITE
100
AcDbSpline
210
0.0
220
0.0
230
1.0
 70
    12
 71
     2
 72
     6
 73
     3
 74
     0
 42
0.0000000001
 43
0.0000000001
 40
62.00670547097916
 40
62.00670547097916
 40
62.00670547097916
 40
66.82183220544495
 40
66.82183220544495
 40
66.82183220544495
 10
-74.80633041974774
 20
63.53254733707234
 30
0.0
 41
1.0
 10
-78.20815237256733
 20
67.37416548238289
 30
0.0
 41
0.9430713511024887
 10
-83.26727695404121
 20
68.23188399226336
 30
0.0
 41
1.0
  0
SPLINE
  5
1EA
330
1F
100
AcDbEntity
  8
WHITE
100
AcDbSpline
210
0.0
220
0.0
230
1.0
 70
    12
 71
     2
 72
     6
 73
     3
 74
     0
 42
0.0000000001
 43
0.0000000001
 40
66.82183220544495
 40
66.82183220544495
 40
66.82183220544495
 40
68.36602500875462
 40
68.36602500875462
 40
68.36602500875462
 10
-83.26727695404121
 20
68.23188399226336
 30
0.0
 41
1.0
 10
-85.13470023006876
 20
68.54782882511087
 30
0.0
 41
0.7702734655125008
 10
-85.7936336587273
 20
66.77218878111299
 30
0.0
 41
1.0
  0
SPLINE
  5
1EB
330
1F
100
AcDbEntity
  8
WHITE
100
AcDbSpline
210
0.0
220
0.0
230
1.0
 70
    12
 71
     2
 72
     8
 73
     5
 74
     0
 42
0.0000000001
 43
0.0000000001
 40
50.53908448575118
 40
50.53908448575118
 40
50.53908448575118
 40
51.17938711806475
 40
51.17938711806475
 40
51.81968975037833
 40
51.81968975037833
 40
51.81968975037833
 10
-31.77158818229381
 20
26.24088557611865
 30
0.0
 41
1.0
 10
-31.55738277332238
 20
25.499172366725
 30
0.0
 41
0.7891282085471316
 10
-30.78578249654147
 20
25.5247742239494
 30
0.0
 41
1.0
 10
-30.01418221976055
 20
25.5503760811739
 30
0.0
 41
0.7891282085471316
 10
-29.84961420861673
 20
26.30465707121011
 30
0.0
 41
1.0
  0
SPLINE
  5
1EC
330
1F
100
AcDbEntity
  8
WHITE
100
AcDbSpline
210
0.0
220
0.0
230
1.0
 70
    12
 71
     2
 72
     6
 73
     3
 74
     0
 42
0.0000000001
 43
0.0000000001
 40
11.3586296421846
 40
11.3586296421846
 40
11.3586296421846
 40
20.58309568051122
 40
20.58309568051122
 40
20.58309568051122
 10
-29.84961420861671
 20
26.30465707121011
 30
0.0
 41
1.0
 10
-27.80688999118703
 20
35.55541133967614
 30
0.0
 41
0.9965288965433311
 10
-27.32733804139827
 20
45.01687035462045
 30
0.0
 41
1.0
  0
SPLINE
  5
1ED
330
1F
100
AcDbEntity
  8
WHITE
100
AcDbSpline
210
0.0
220
0.0
230
1.0
 70
    12
 71
     2
 72
     6
 73
     3
 74
     0
 42
0.0000000001
 43
0.0000000001
 40
20.58309568051122
 40
20.58309568051122
 40
20.58309568051122
 40
29.79499970623344
 40
29.79499970623344
 40
29.79499970623344
 10
-27.32733804139829
 20
45.01687035462045
 30
0.0
 41
1.0
 10
-26.8420629478401
 20
54.46334690284798
 30
0.0
 41
0.9967197001027006
 10
-27.88715620031591
 20
63.86436765520626
 30
0.0
 41
1.0
  0
SPLINE
  5
1EE
330
1F
100
AcDbEntity
  8
WHITE
100
AcDbSpline
210
0.0
220
0.0
230
1.0
 70
    12
 71
     2
 72
    12
 73
     9
 74
     0
 42
0.0000000001
 43
0.0000000001
 40
29.79499970623344
 40
29.79499970623344
 40
29.79499970623344
 40
30.39539141427147
 40
30.39539141427147
 40
30.99578312230949
 40
30.99578312230949
 40
31.59617483034751
 40
31.59617483034751
 40
32.19656653838553
 40
32.19656653838553
 40
32.19656653838553
 10
-27.8871562003159
 20
63.86436765520626
 30
0.0
 41
1.0
 10
-27.95887469851937
 20
64.50950347283938
 30
0.0
 41
0.923479261839969
 10
-28.46661327457264
 20
64.91391082263064
 30
0.0
 41
1.0
 10
-28.97435185062592
 20
65.31831817242187
 30
0.0
 41
0.923479261839969
 10
-29.61918235676698
 20
65.24390456796966
 30
0.0
 41
1.0
 10
-30.26401286290809
 20
65.16949096351757
 30
0.0
 41
0.923479261839969
 10
-30.66629507105046
 20
64.66006698372283
 30
0.0
 41
1.0
 10
-31.06857727919285
 20
64.1506430039282
 30
0.0
 41
0.923479261839969
 10
-30.99146986778017
 20
63.50612906825036
 30
0.0
 41
1.0
  0
SPLINE
  5
1EF
330
1F
100
AcDbEntity
  8
WHITE
100
AcDbSpline
210
0.0
220
0.0
230
1.0
 70
    12
 71
     2
 72
     6
 73
     3
 74
     0
 42
0.0000000001
 43
0.0000000001
 40
32.19656653838553
 40
32.19656653838553
 40
32.19656653838553
 40
40.46106010819373
 40
40.46106010819373
 40
40.46106010819373
 10
-30.99146986778019
 20
63.50612906825043
 30
0.0
 41
1.0
 10
-31.35233888769065
 20
55.03368200248167
 30
0.0
 41
0.9977681664272862
 10
-32.83893273754521
 20
46.68487223956568
 30
0.0
 41
1.0
  0
SPLINE
  5
1F0
330
1F
100
AcDbEntity
  8
WHITE
100
AcDbSpline
210
0.0
220
0.0
230
1.0
 70
    12
 71
     2
 72
     6
 73
     3
 74
     0
 42
0.0000000001
 43
0.0000000001
 40
40.46106010819373
 40
40.46106010819373
 40
40.46106010819373
 40
50.53908448575118
 40
50.53908448575118
 40
50.53908448575118
 10
-32.83893273754524
 20
46.68487223956568
 30
0.0
 41
1.0
 10
-34.68775857504608
 20
36.33849287526743
 30
0.0
 41
0.973896705910624
 10
-31.7715881822938
 20
26.24088557611865
 30
0.0
 41
1.0
  0
SPLINE
  5
1F1
330
1F
100
AcDbEntity
  8
WHITE
100
AcDbSpline
210
0.0
220
0.0
230
1.0
 70
    12
 71
     2
 72
     8
 73
     5
 74
     0
 42
0.0000000001
 43
0.0000000001
 40
54.41390343076829
 40
54.41390343076829
 40
54.41390343076829
 40
57.03678232074683
 40
57.03678232074683
 40
59.65966121072537
 40
59.65966121072537
 40
59.65966121072537
 10
-33.98817570488323
 20
220.427690011847
 30
0.0
 41
1.0
 10
-35.00838789435094
 20
223.1095402621238
 30
0.0
 41
0.9074777782409035
 10
-33.62368611378432
 20
225.6226567845604
 30
0.0
 41
1.0
 10
-32.23898433321769
 20
228.135773306997
 30
0.0
 41
0.9074777782409035
 10
-29.42687987295922
 20
228.7060558519189
 30
0.0
 41
1.0
  0
SPLINE
  5
1F2
330
1F
100
AcDbEntity
  8
WHITE
100
AcDbSpline
210
0.0
220
0.0
230
1.0
 70
    12
 71
     2
 72
     6
 73
     3
 74
     0
 42
0.0000000001
 43
0.0000000001
 40
5.245757779957079
 40
5.245757779957079
 40
5.245757779957079
 40
13.53649354372057
 40
13.53649354372057
 40
13.53649354372057
 10
-29.42687987295922
 20
228.7060558519189
 30
0.0
 41
1.0
 10
-21.08322299037038
 20
230.443714777237
 30
0.0
 41
0.9950858369984731
 10
-12.56075028340468
 20
230.5031090036809
 30
0.0
 41
1.0
  0
SPLINE
  5
1F3
330
1F
100
AcDbEntity
  8
WHITE
100
AcDbSpline
210
0.0
220
0.0
230
1.0
 70
    12
 71
     2
 72
     6
 73
     3
 74
     0
 42
0.0000000001
 43
0.0000000001
 40
13.53649354372057
 40
13.53649354372057
 40
13.53649354372057
 40
21.81840063805526
 40
21.81840063805526
 40
21.81840063805526
 10
-12.56075028340468
 20
230.5031090036809
 30
0.0
 41
1.0
 10
-4.050826145986278
 20
230.5398863343624
 30
0.0
 41
0.9955113093056482
 10
4.31357740522897
 20
228.9724315091487
 30
0.0
 41
1.0
  0
SPLINE
  5
1F4
330
1F
100
AcDbEntity
  8
WHITE
100
AcDbSpline
210
0.0
220
0.0
230
1.0
 70
    12
 71
     2
 72
     8
 73
     5
 74
     0
 42
0.0000000001
 43
0.0000000001
 40
21.81840063805526
 40
21.81840063805526
 40
21.81840063805526
 40
24.46018705690203
 40
24.46018705690203
 40
27.1019734757488
 40
27.1019734757488
 40
27.1019734757488
 10
4.31357740522897
 20
228.9724315091487
 30
0.0
 41
1.0
 10
7.164544376248101
 20
228.4590749328003
 30
0.0
 41
0.9072246095636277
 10
8.61477596832413
 20
225.9514114837573
 30
0.0
 41
1.0
 10
10.06500756040019
 20
223.4437480347141
 30
0.0
 41
0.9072246095636277
 10
9.088067513423598
 20
220.7166367812198
 30
0.0
 41
1.0
  0
SPLINE
  5
1F5
330
1F
100
AcDbEntity
  8
WHITE
100
AcDbSpline
210
0.0
220
0.0
230
1.0
 70
    12
 71
     2
 72
     8
 73
     5
 74
     0
 42
0.0000000001
 43
0.0000000001
 40
27.1019734757488
 40
27.1019734757488
 40
27.1019734757488
 40
40.75793845325855
 40
40.75793845325855
 40
54.41390343076829
 40
54.41390343076829
 40
54.41390343076829
 10
9.088067513423528
 20
220.7166367812198
 30
0.0
 41
1.0
 10
3.612976170147071
 20
205.7218840269118
 30
0.0
 41
0.8213641581000056
 10
-12.34972317600297
 20
205.6148094525771
 30
0.0
 41
1.0
 10
-28.31242252215301
 20
205.5077348782423
 30
0.0
 41
0.8213641581000056
 10
-33.98817570488325
 20
220.427690011847
 30
0.0
 41
1.0
  0
SPLINE
  5
1F6
330
1F
100
AcDbEntity
  8
WHITE
100
AcDbSpline
210
0.0
220
0.0
230
1.0
 70
    12
 71
     2
 72
     8
 73
     5
 74
     0
 42
0.0000000001
 43
0.0000000001
 40
336.5697626132751
 40
336.5697626132751
 40
336.5697626132751
 40
338.7739501812813
 40
338.7739501812813
 40
340.9781377492875
 40
340.9781377492875
 40
340.9781377492875
 10
-62.66355205559148
 20
-11.04758298884921
 30
0.0
 41
1.0
 10
-63.3286598700244
 20
-8.68695800177213
 30
0.0
 41
0.8853300331727313
 10
-61.76270447044455
 20
-6.799445771094084
 30
0.0
 41
1.0
 10
-60.1967490708647
 20
-4.911933540415957
 30
0.0
 41
0.8853300331727313
 10
-57.75391063599998
 20
-5.129784672109832
 30
0.0
 41
1.0
  0
SPLINE
  5
1F7
330
1F
100
AcDbEntity
  8
WHITE
100
AcDbSpline
210
0.0
220
0.0
230
1.0
 70
    12
 71
     2
 72
     6
 73
     3
 74
     0
 42
0.0000000001
 43
0.0000000001
 40
121.4964528790397
 40
121.4964528790397
 40
121.4964528790397
 40
122.9246639826259
 40
122.9246639826259
 40
122.9246639826259
 10
-57.75391063599996
 20
-5.129784672109832
 30
0.0
 41
1.0
 10
-56.35051191303922
 20
-5.554379837677018
 30
0.0
 41
0.9968208544061663
 10
-54.89748669876455
 20
-5.750662177465591
 30
0.0
 41
1.0
  0
LINE
  5
1F8
330
1F
100
AcDbEntity
  8
WHITE
100
AcDbLine
 10
-54.89748669876455
 20
-5.750662177465591
 30
0.0
 11
-54.1312128834744
 21
-5.854174501894886
 31
0.0
  0
SPLINE
  5
1F9
330
1F
100
AcDbEntity
  8
WHITE
100
AcDbSpline
210
0.0
220
0.0
230
1.0
 70
    12
 71
     2
 72
     6
 73
     3
 74
     0
 42
0.0000000001
 43
0.0000000001
 40
123.3020175358157
 40
123.3020175358157
 40
123.3020175358157
 40
125.7930322108787
 40
125.7930322108787
 40
125.7930322108787
 10
-54.1312128834744
 20
-5.854174501894886
 30
0.0
 41
1.0
 10
-51.57072385139975
 20
-6.080341962815504
 30
0.0
 41
0.9893603477940369
 10
-49.05351785828134
 20
-5.559832796745575
 30
0.0
 41
1.0
  0
SPLINE
  5
1FA
330
1F
100
AcDbEntity
  8
WHITE
100
AcDbSpline
210
0.0
220
0.0
230
1.0
 70
    12
 71
     2
 72
     6
 73
     3
 74
     0
 42
0.0000000001
 43
0.0000000001
 40
125.7930322108787
 40
125.7930322108787
 40
125.7930322108787
 40
132.9712515492768
 40
132.9712515492768
 40
132.9712515492768
 10
-49.05351785828129
 20
-5.559832796745504
 30
0.0
 41
1.0
 10
-40.71639190894337
 20
-3.122482061510761
 30
0.0
 41
0.7851322536546684
 10
-36.40461896239393
 20
-10.66283760744345
 30
0.0
 41
1.0
  0
SPLINE
  5
1FB
330
1F
100
AcDbEntity
  8
WHITE
100
AcDbSpline
210
0.0
220
0.0
230
1.0
 70
    12
 71
     2
 72
     6
 73
     3
 74
     0
 42
0.0000000001
 43
0.0000000001
 40
132.9712515492768
 40
132.9712515492768
 40
132.9712515492768
 40
150.1278820476986
 40
150.1278820476986
 40
150.1278820476986
 10
-36.40461896239391
 20
-10.66283760744338
 30
0.0
 41
1.0
 10
-22.70822060571017
 20
-21.80141982711723
 30
0.0
 41
0.9935500072879098
 10
-6.854227906278806
 20
-29.56738771887313
 30
0.0
 41
1.0
  0
SPLINE
  5
1FC
330
1F
100
AcDbEntity
  8
WHITE
100
AcDbSpline
210
0.0
220
0.0
230
1.0
 70
    12
 71
     2
 72
     8
 73
     5
 74
     0
 42
0.0000000001
 43
0.0000000001
 40
150.1278820476986
 40
150.1278820476986
 40
150.1278820476986
 40
154.1353602332368
 40
154.1353602332368
 40
158.1428384187751
 40
158.1428384187751
 40
158.1428384187751
 10
-6.854227906278806
 20
-29.56738771887313
 30
0.0
 41
1.0
 10
-3.142608032732916
 20
-31.89072131850999
 30
0.0
 41
0.9090674780078943
 10
1.040345606732525
 20
-30.5957696008828
 30
0.0
 41
1.0
 10
5.223299246197956
 20
-29.30081788325568
 30
0.0
 41
0.9090674780078943
 10
6.973005210248366
 20
-25.28677626161426
 30
0.0
 41
1.0
  0
SPLINE
  5
1FD
330
1F
100
AcDbEntity
  8
WHITE
100
AcDbSpline
210
0.0
220
0.0
230
1.0
 70
    12
 71
     2
 72
     6
 73
     3
 74
     0
 42
0.0000000001
 43
0.0000000001
 40
158.1428384187751
 40
158.1428384187751
 40
158.1428384187751
 40
219.4816848702478
 40
219.4816848702478
 40
219.4816848702478
 10
6.973005210248384
 20
-25.28677626161433
 30
0.0
 41
1.0
 10
35.74423709034869
 20
37.45366442786472
 30
0.0
 41
0.8709899582084288
 10
104.321608471046
 20
45.28250957401914
 30
0.0
 41
1.0
  0
SPLINE
  5
1FE
330
1F
100
AcDbEntity
  8
WHITE
100
AcDbSpline
210
0.0
220
0.0
230
1.0
 70
    12
 71
     2
 72
     8
 73
     5
 74
     0
 42
0.0000000001
 43
0.0000000001
 40
219.4816848702478
 40
219.4816848702478
 40
219.4816848702478
 40
220.5894243665
 40
220.5894243665
 40
221.6971638627522
 40
221.6971638627522
 40
221.6971638627522
 10
104.321608471046
 20
45.28250957401922
 30
0.0
 41
1.0
 10
105.7430482668539
 20
45.54056799185933
 30
0.0
 41
0.7073547487785515
 10
106.0021037345512
 20
44.11930956891833
 30
0.0
 41
1.0
 10
106.2611592022485
 20
42.69805114597742
 30
0.0
 41
0.7073547487785515
 10
104.8400828515415
 20
42.43799875589788
 30
0.0
 41
1.0
  0
SPLINE
  5
1FF
330
1F
100
AcDbEntity
  8
WHITE
100
AcDbSpline
210
0.0
220
0.0
230
1.0
 70
    12
 71
     2
 72
     6
 73
     3
 74
     0
 42
0.0000000001
 43
0.0000000001
 40
221.6971638627522
 40
221.6971638627522
 40
221.6971638627522
 40
281.4120825709027
 40
281.4120825709027
 40
281.4120825709027
 10
104.8400828515416
 20
42.43799875589782
 30
0.0
 41
1.0
 10
40.75234080680811
 20
26.71341329850653
 30
0.0
 41
0.8943927695041987
 10
14.88870830726507
 20
-33.99551341023764
 30
0.0
 41
1.0
  0
SPLINE
  5
200
330
1F
100
AcDbEntity
  8
WHITE
100
AcDbSpline
210
0.0
220
0.0
230
1.0
 70
    12
 71
     2
 72
     8
 73
     5
 74
     0
 42
0.0000000001
 43
0.0000000001
 40
281.4120825709027
 40
281.4120825709027
 40
281.4120825709027
 40
288.8078882889415
 40
288.8078882889415
 40
296.2036940069802
 40
296.2036940069802
 40
296.2036940069802
 10
14.88870830726509
 20
-33.99551341023764
 30
0.0
 41
1.0
 10
11.70168761817874
 20
-41.4601260077123
 30
0.0
 41
0.902955611328766
 10
3.898772770729323
 20
-43.69441828637591
 30
0.0
 41
1.0
 10
-3.904142076720087
 20
-45.92871056503955
 30
0.0
 41
0.902955611328766
 10
-10.55905761358676
 20
-41.28224510189306
 30
0.0
 41
1.0
  0
SPLINE
  5
201
330
1F
100
AcDbEntity
  8
WHITE
100
AcDbSpline
210
0.0
220
0.0
230
1.0
 70
    12
 71
     2
 72
     6
 73
     3
 74
     0
 42
0.0000000001
 43
0.0000000001
 40
296.2036940069802
 40
296.2036940069802
 40
296.2036940069802
 40
321.04513132184
 40
321.04513132184
 40
321.04513132184
 10
-10.55905761358676
 20
-41.28224510189306
 30
0.0
 41
1.0
 10
-31.84409197827006
 20
-26.42102312101237
 30
0.0
 41
0.9708771451702393
 10
-57.59916931215647
 20
-23.16762517481997
 30
0.0
 41
1.0
  0
SPLINE
  5
202
330
1F
100
AcDbEntity
  8
WHITE
100
AcDbSpline
210
0.0
220
0.0
230
1.0
 70
    12
 71
     2
 72
     6
 73
     3
 74
     0
 42
0.0000000001
 43
0.0000000001
 40
321.04513132184
 40
321.04513132184
 40
321.04513132184
 40
326.394320809487
 40
326.394320809487
 40
326.394320809487
 10
-57.59916931215645
 20
-23.16762517481997
 30
0.0
 41
1.0
 10
-62.8122214889199
 20
-20.12735412156624
 30
0.0
 41
0.8677470392957141
 10
-62.82747936921812
 20
-14.09254440857614
 30
0.0
 41
1.0
  0
LINE
  5
203
330
1F
100
AcDbEntity
  8
WHITE
100
AcDbLine
 10
-62.82747936921812
 20
-14.09254440857614
 30
0.0
 11
-54.0757781540351
 21
-15.08021009309026
 31
0.0
  0
LINE
  5
204
330
1F
100
AcDbEntity
  8
WHITE
100
AcDbLine
 10
-54.0757781540351
 20
-15.08021009309026
 30
0.0
 11
-53.71718583599552
 21
-12.06188732467731
 31
0.0
  0
LINE
  5
205
330
1F
100
AcDbEntity
  8
WHITE
100
AcDbLine
 10
-53.71718583599552
 20
-12.06188732467731
 30
0.0
 11
-62.66355205559148
 21
-11.04758298884921
 31
0.0
  0
SPLINE
  5
206
330
1F
100
AcDbEntity
  8
WHITE
100
AcDbSpline
210
0.0
220
0.0
230
1.0
 70
    12
 71
     2
 72
     6
 73
     3
 74
     0
 42
0.0000000001
 43
0.0000000001
 40
47.70843803745967
 40
47.70843803745967
 40
47.70843803745967
 40
91.19011453648025
 40
91.19011453648025
 40
91.19011453648025
 10
44.23690018912507
 20
115.1779625285957
 30
0.0
 41
1.0
 10
13.13807574456334
 20
81.79987241111398
 30
0.0
 41
0.9651414827334021
 10
3.162870257630963
 20
37.28325689266002
 30
0.0
 41
1.0
  0
SPLINE
  5
207
330
1F
100
AcDbEntity
  8
WHITE
100
AcDbSpline
210
0.0
220
0.0
230
1.0
 70
    12
 71
     2
 72
     8
 73
     5
 74
     0
 42
0.0000000001
 43
0.0000000001
 40
0.0
 40
0.0
 40
0.0
 40
0.9741057802766506
 40
0.9741057802766506
 40
1.948211560553301
 40
1.948211560553301
 40
1.948211560553301
 10
3.162870257630998
 20
37.28325689266002
 30
0.0
 41
1.0
 10
2.889903729202787
 20
36.06448620624097
 30
0.0
 41
0.7243309557058251
 10
4.093731606295468
 20
35.73175334935599
 30
0.0
 41
1.0
 10
5.297559483388158
 20
35.39902049247081
 30
0.0
 41
0.7243309557058251
 10
5.689249122449803
 20
36.58497662081965
 30
0.0
 41
1.0
  0
SPLINE
  5
208
330
1F
100
AcDbEntity
  8
WHITE
100
AcDbSpline
210
0.0
220
0.0
230
1.0
 70
    12
 71
     2
 72
     6
 73
     3
 74
     0
 42
0.0000000001
 43
0.0000000001
 40
1.948211560553301
 40
1.948211560553301
 40
1.948211560553301
 40
12.55552521968883
 40
12.55552521968883
 40
12.55552521968883
 10
5.689249122449786
 20
36.58497662081965
 30
0.0
 41
1.0
 10
9.099814307028227
 20
46.91230756784644
 30
0.0
 41
0.9988691624079754
 10
13.47584807740165
 20
56.86901625135356
 30
0.0
 41
1.0
  0
SPLINE
  5
209
330
1F
100
AcDbEntity
  8
WHITE
100
AcDbSpline
210
0.0
220
0.0
230
1.0
 70
    12
 71
     2
 72
     6
 73
     3
 74
     0
 42
0.0000000001
 43
0.0000000001
 40
12.55552521968883
 40
12.55552521968883
 40
12.55552521968883
 40
23.16199183344594
 40
23.16199183344594
 40
23.16199183344594
 10
13.47584807740169
 20
56.86901625135349
 30
0.0
 41
1.0
 10
17.85429109013988
 20
66.82354257446673
 30
0.0
 41
0.998883925514379
 10
23.15250195865797
 20
76.3205062537731
 30
0.0
 41
1.0
  0
SPLINE
  5
20A
330
1F
100
AcDbEntity
  8
WHITE
100
AcDbSpline
210
0.0
220
0.0
230
1.0
 70
    12
 71
     2
 72
     6
 73
     3
 74
     0
 42
0.0000000001
 43
0.0000000001
 40
23.16199183344594
 40
23.16199183344594
 40
23.16199183344594
 40
44.35937724384407
 40
44.35937724384407
 40
44.35937724384407
 10
23.15250195865793
 20
76.32050625377317
 30
0.0
 41
1.0
 10
33.7652704596215
 20
95.34373494205087
 30
0.0
 41
0.9954906679741513
 10
47.77983905797993
 20
112.0202439287502
 30
0.0
 41
1.0
  0
SPLINE
  5
20B
330
1F
100
AcDbEntity
  8
WHITE
100
AcDbSpline
210
0.0
220
0.0
230
1.0
 70
    12
 71
     2
 72
     8
 73
     5
 74
     0
 42
0.0000000001
 43
0.0000000001
 40
44.35937724384407
 40
44.35937724384407
 40
44.35937724384407
 40
46.03390764065187
 40
46.03390764065187
 40
47.70843803745967
 40
47.70843803745967
 40
47.70843803745967
 10
47.77983905797993
 20
112.0202439287502
 30
0.0
 41
1.0
 10
48.9384804113328
 20
113.7533780530764
 30
0.0
 41
0.7544004686802392
 10
47.38215729368724
 20
115.1404836842689
 30
0.0
 41
1.0
 10
45.82583417604167
 20
116.5275893154614
 30
0.0
 41
0.7544004686802392
 10
44.23690018912507
 20
115.1779625285957
 30
0.0
 41
1.0
  0
SPLINE
  5
20C
330
1F
100
AcDbEntity
  8
WHITE
100
AcDbSpline
210
0.0
220
0.0
230
1.0
 70
    12
 71
     2
 72
     6
 73
     3
 74
     0
 42
0.0000000001
 43
0.0000000001
 40
134.4214860681612
 40
134.4214860681612
 40
134.4214860681612
 40
157.1990240715893
 40
157.1990240715893
 40
157.1990240715893
 10
16.53173142523709
 20
110.4142902494092
 30
0.0
 41
1.0
 10
9.555037973807954
 20
88.08847713867027
 30
0.0
 41
0.9965534725787412
 10
6.365574281947604
 20
64.91643571092465
 30
0.0
 41
1.0
  0
SPLINE
  5
20D
330
1F
100
AcDbEntity
  8
WHITE
100
AcDbSpline
210
0.0
220
0.0
230
1.0
 70
    12
 71
     2
 72
     8
 73
     5
 74
     0
 42
0.0000000001
 43
0.0000000001
 40
56.49323872156266
 40
56.49323872156266
 40
56.49323872156266
 40
57.75718830128696
 40
57.75718830128696
 40
59.02113788101126
 40
59.02113788101126
 40
59.02113788101126
 10
6.365574281947604
 20
64.91643571092457
 30
0.0
 41
1.0
 10
6.141858801538634
 20
63.28737691318351
 30
0.0
 41
0.7097544122920049
 10
4.511167394830887
 20
63.49886383656528
 30
0.0
 41
1.0
 10
2.880475988123121
 20
63.710350759947
 30
0.0
 41
0.7097544122920049
 10
3.079722449757718
 20
65.34258298306915
 30
0.0
 41
1.0
  0
SPLINE
  5
20E
330
1F
100
AcDbEntity
  8
WHITE
100
AcDbSpline
210
0.0
220
0.0
230
1.0
 70
    12
 71
     2
 72
     6
 73
     3
 74
     0
 42
0.0000000001
 43
0.0000000001
 40
59.02113788101126
 40
59.02113788101126
 40
59.02113788101126
 40
100.7057853500266
 40
100.7057853500266
 40
100.7057853500266
 10
3.079722449757718
 20
65.34258298306915
 30
0.0
 41
1.0
 10
7.249674035356759
 20
108.0658231092758
 30
0.0
 41
0.9923900903400068
 10
21.73445175910369
 20
148.4744231518582
 30
0.0
 41
1.0
  0
SPLINE
  5
20F
330
1F
100
AcDbEntity
  8
WHITE
100
AcDbSpline
210
0.0
220
0.0
230
1.0
 70
    12
 71
     2
 72
     6
 73
     3
 74
     0
 42
0.0000000001
 43
0.0000000001
 40
100.7057853500266
 40
100.7057853500266
 40
100.7057853500266
 40
106.2625935034814
 40
106.2625935034814
 40
106.2625935034814
 10
21.73445175910369
 20
148.4744231518582
 30
0.0
 41
1.0
 10
23.87317788050374
 20
153.8238469952621
 30
0.0
 41
0.9823906117517051
 10
27.82634172646571
 20
158.0146679751794
 30
0.0
 41
1.0
  0
SPLINE
  5
210
330
1F
100
AcDbEntity
  8
WHITE
100
AcDbSpline
210
0.0
220
0.0
230
1.0
 70
    12
 71
     2
 72
     6
 73
     3
 74
     0
 42
0.0000000001
 43
0.0000000001
 40
106.2625935034814
 40
106.2625935034814
 40
106.2625935034814
 40
108.9401479981202
 40
108.9401479981202
 40
108.9401479981202
 10
27.82634172646567
 20
158.0146679751794
 30
0.0
 41
1.0
 10
30.11035278453271
 20
160.4166856414518
 30
0.0
 41
0.7593888235069421
 10
32.83419851339325
 20
158.5280194910097
 30
0.0
 41
1.0
  0
SPLINE
  5
211
330
1F
100
AcDbEntity
  8
WHITE
100
AcDbSpline
210
0.0
220
0.0
230
1.0
 70
    12
 71
     2
 72
     6
 73
     3
 74
     0
 42
0.0000000001
 43
0.0000000001
 40
108.9401479981202
 40
108.9401479981202
 40
108.9401479981202
 40
111.6448360328411
 40
111.6448360328411
 40
111.6448360328411
 10
32.83419851339325
 20
158.5280194910097
 30
0.0
 41
1.0
 10
35.60219358149139
 20
156.6083131898939
 30
0.0
 41
0.753978859308807
 10
34.07970708319135
 20
153.6034664646758
 30
0.0
 41
1.0
  0
SPLINE
  5
212
330
1F
100
AcDbEntity
  8
WHITE
100
AcDbSpline
210
0.0
220
0.0
230
1.0
 70
    12
 71
     2
 72
     6
 73
     3
 74
     0
 42
0.0000000001
 43
0.0000000001
 40
111.6448360328411
 40
111.6448360328411
 40
111.6448360328411
 40
134.4214860681612
 40
134.4214860681612
 40
134.4214860681612
 10
34.07970708319142
 20
153.6034664646758
 30
0.0
 41
1.0
 10
23.50815440500256
 20
132.7392378355456
 30
0.0
 41
0.9965533319372728
 10
16.53173142523709
 20
110.4142902494092
 30
0.0
 41
1.0
  0
SPLINE
  5
213
330
1F
100
AcDbEntity
  8
WHITE
100
AcDbSpline
210
0.0
220
0.0
230
1.0
 70
    12
 71
     2
 72
     6
 73
     3
 74
     0
 42
0.0000000001
 43
0.0000000001
 40
94.52776939232616
 40
94.52776939232616
 40
94.52776939232616
 40
123.5915258118893
 40
123.5915258118893
 40
123.5915258118893
 10
19.59286899890656
 20
98.631694412759
 30
0.0
 41
1.0
 10
26.46989836709371
 20
127.9426929632796
 30
0.0
 41
0.9836547654273582
 10
43.28419280584732
 20
152.916833018273
 30
0.0
 41
1.0
  0
SPLINE
  5
214
330
1F
100
AcDbEntity
  8
WHITE
100
AcDbSpline
210
0.0
220
0.0
230
1.0
 70
    12
 71
     2
 72
     8
 73
     5
 74
     0
 42
0.0000000001
 43
0.0000000001
 40
61.25367525912029
 40
61.25367525912029
 40
61.25367525912029
 40
61.79576290594464
 40
61.79576290594464
 40
62.337850552769
 40
62.337850552769
 40
62.337850552769
 10
43.2841928058473
 20
152.916833018273
 30
0.0
 41
1.0
 10
43.63007381135939
 20
153.42959261919
 30
0.0
 41
0.8529618785990045
 10
44.24406507628937
 20
153.3549547943535
 30
0.0
 41
1.0
 10
44.85805634121935
 20
153.2803169695171
 30
0.0
 41
0.8529618785990045
 10
45.0710153665961
 20
152.6996238217899
 30
0.0
 41
1.0
  0
SPLINE
  5
215
330
1F
100
AcDbEntity
  8
WHITE
100
AcDbSpline
210
0.0
220
0.0
230
1.0
 70
    12
 71
     2
 72
     6
 73
     3
 74
     0
 42
0.0000000001
 43
0.0000000001
 40
62.337850552769
 40
62.337850552769
 40
62.337850552769
 40
76.7389435321226
 40
76.7389435321226
 40
76.7389435321226
 10
45.0710153665961
 20
152.6996238217899
 30
0.0
 41
1.0
 10
50.54032957585407
 20
137.7866761523298
 30
0.0
 41
0.8966650798215735
 10
42.02601050873747
 20
124.3771356331704
 30
0.0
 41
1.0
  0
SPLINE
  5
216
330
1F
100
AcDbEntity
  8
WHITE
100
AcDbSpline
210
0.0
220
0.0
230
1.0
 70
    12
 71
     2
 72
     6
 73
     3
 74
     0
 42
0.0000000001
 43
0.0000000001
 40
76.7389435321226
 40
76.7389435321226
 40
76.7389435321226
 40
87.01948194402269
 40
87.01948194402269
 40
87.01948194402269
 10
42.02601050873744
 20
124.3771356331704
 30
0.0
 41
1.0
 10
36.36600127950916
 20
115.4615404182043
 30
0.0
 41
0.9960945141660466
 10
29.22601257408385
 20
107.6805312421094
 30
0.0
 41
1.0
  0
SPLINE
  5
217
330
1F
100
AcDbEntity
  8
WHITE
100
AcDbSpline
210
0.0
220
0.0
230
1.0
 70
    12
 71
     2
 72
     6
 73
     3
 74
     0
 42
0.0000000001
 43
0.0000000001
 40
87.01948194402269
 40
87.01948194402269
 40
87.01948194402269
 40
93.16099183457291
 40
93.16099183457291
 40
93.16099183457291
 10
29.22601257408381
 20
107.6805312421093
 30
0.0
 41
1.0
 10
24.9651480472544
 20
103.0358536285454
 30
0.0
 41
0.9974425077025326
 10
21.4100598708529
 20
97.83111110773366
 30
0.0
 41
1.0
  0
SPLINE
  5
218
330
1F
100
AcDbEntity
  8
WHITE
100
AcDbSpline
210
0.0
220
0.0
230
1.0
 70
    12
 71
     2
 72
     8
 73
     5
 74
     0
 42
0.0000000001
 43
0.0000000001
 40
93.16099183457291
 40
93.16099183457291
 40
93.16099183457291
 40
93.84438061344954
 40
93.84438061344954
 40
94.52776939232616
 40
94.52776939232616
 40
94.52776939232616
 10
21.41005987085292
 20
97.83111110773366
 30
0.0
 41
1.0
 10
20.9367066670224
 20
97.13846820594947
 30
0.0
 41
0.7692453753872519
 10
20.16897267937305
 20
97.47670180743906
 30
0.0
 41
1.0
 10
19.40123869172369
 20
97.8149354089288
 30
0.0
 41
0.7692453753872519
 10
19.59286899890654
 20
98.631694412759
 30
0.0
 41
1.0
  0
SPLINE
  5
219
330
1F
100
AcDbEntity
  8
WHITE
100
AcDbSpline
210
0.0
220
0.0
230
1.0
 70
    12
 71
     2
 72
     8
 73
     5
 74
     0
 42
0.0000000001
 43
0.0000000001
 40
54.42472654167746
 40
54.42472654167746
 40
54.42472654167746
 40
57.05162644306462
 40
57.05162644306462
 40
59.67852634445178
 40
59.67852634445178
 40
59.67852634445178
 10
7.048661909691222
 20
170.1419591525859
 30
0.0
 41
1.0
 10
8.080086050989085
 20
172.8273720423211
 30
0.0
 41
0.9061258008934503
 10
6.683761515091056
 20
175.3424378343148
 30
0.0
 41
1.0
 10
5.287436979193051
 20
177.8575036263085
 30
0.0
 41
0.9061258008934503
 10
2.462774858785548
 20
178.4020787387979
 30
0.0
 41
1.0
  0
SPLINE
  5
21A
330
1F
100
AcDbEntity
  8
WHITE
100
AcDbSpline
210
0.0
220
0.0
230
1.0
 70
    12
 71
     2
 72
     6
 73
     3
 74
     0
 42
0.0000000001
 43
0.0000000001
 40
5.253799802774324
 40
5.253799802774324
 40
5.253799802774324
 40
13.50419851329533
 40
13.50419851329533
 40
13.50419851329533
 10
2.462774858785548
 20
178.402078738798
 30
0.0
 41
1.0
 10
-5.832858506520784
 20
180.1655182483376
 30
0.0
 41
0.9951252549015919
 10
-14.31325185550003
 20
180.2664166228403
 30
0.0
 41
1.0
  0
SPLINE
  5
21B
330
1F
100
AcDbEntity
  8
WHITE
100
AcDbSpline
210
0.0
220
0.0
230
1.0
 70
    12
 71
     2
 72
     6
 73
     3
 74
     0
 42
0.0000000001
 43
0.0000000001
 40
13.50419851329533
 40
13.50419851329533
 40
13.50419851329533
 40
21.79578580445248
 40
21.79578580445248
 40
21.79578580445248
 10
-14.31325185550003
 20
180.2664166228402
 30
0.0
 41
1.0
 10
-22.83276847242914
 20
180.343521246103
 30
0.0
 41
0.9955165867786716
 10
-31.21436235138053
 20
178.8147987214488
 30
0.0
 41
1.0
  0
SPLINE
  5
21C
330
1F
100
AcDbEntity
  8
WHITE
100
AcDbSpline
210
0.0
220
0.0
230
1.0
 70
    12
 71
     2
 72
     8
 73
     5
 74
     0
 42
0.0000000001
 43
0.0000000001
 40
21.79578580445248
 40
21.79578580445248
 40
21.79578580445248
 40
24.44537319140752
 40
24.44537319140752
 40
27.09496057836256
 40
27.09496057836256
 40
27.09496057836256
 10
-31.21436235138055
 20
178.8147987214489
 30
0.0
 41
1.0
 10
-34.06340323891006
 20
178.2927089152407
 30
0.0
 41
0.9080965505247618
 10
-35.51614907038746
 20
175.7868874344311
 30
0.0
 41
1.0
 10
-36.96889490186486
 20
173.2810659536216
 30
0.0
 41
0.9080965505247618
 10
-36.00632783550022
 20
170.5492027822106
 30
0.0
 41
1.0
  0
SPLINE
  5
21D
330
1F
100
AcDbEntity
  8
WHITE
100
AcDbSpline
210
0.0
220
0.0
230
1.0
 70
    12
 71
     2
 72
     8
 73
     5
 74
     0
 42
0.0000000001
 43
0.0000000001
 40
27.09496057836256
 40
27.09496057836256
 40
27.09496057836256
 40
40.75984356002001
 40
40.75984356002001
 40
54.42472654167746
 40
54.42472654167746
 40
54.42472654167746
 10
-36.0063278355002
 20
170.5492027822106
 30
0.0
 41
1.0
 10
-30.56999132341004
 20
155.5536786175086
 30
0.0
 41
0.8214929943544167
 10
-14.62017190124817
 20
155.4028142835073
 30
0.0
 41
1.0
 10
1.329647520913691
 20
155.2519499495061
 30
0.0
 41
0.8214929943544167
 10
7.048661909691222
 20
170.1419591525859
 30
0.0
 41
1.0
  0
SPLINE
  5
21E
330
1F
100
AcDbEntity
  8
WHITE
100
AcDbSpline
210
0.0
220
0.0
230
1.0
 70
    12
 71
     2
 72
     8
 73
     5
 74
     0
 42
0.0000000001
 43
0.0000000001
 40
70.24194296933399
 40
70.24194296933399
 40
70.24194296933399
 40
71.06630697110315
 40
71.06630697110315
 40
71.89067097287229
 40
71.89067097287229
 40
71.89067097287229
 10
-32.09720179825311
 20
82.91091408013631
 30
0.0
 41
1.0
 10
-31.88079091447063
 20
81.88965222598482
 30
0.0
 41
0.7367181762405304
 10
-30.84476467106907
 20
82.01794512659733
 30
0.0
 41
1.0
 10
-29.80873842766752
 20
82.14623802720979
 30
0.0
 41
0.7367181762405304
 10
-29.84797360997701
 20
83.18943985132321
 30
0.0
 41
1.0
  0
SPLINE
  5
21F
330
1F
100
AcDbEntity
  8
WHITE
100
AcDbSpline
210
0.0
220
0.0
230
1.0
 70
    12
 71
     2
 72
     6
 73
     3
 74
     0
 42
0.0000000001
 43
0.0000000001
 40
1.648728003538286
 40
1.648728003538286
 40
1.648728003538286
 40
34.8497094597512
 40
34.8497094597512
 40
34.8497094597512
 10
-29.84797360997704
 20
83.18943985132321
 30
0.0
 41
1.0
 10
-31.18402624884204
 20
117.5412020317144
 30
0.0
 41
0.9842930489672659
 10
-44.37536616382277
 20
149.2873380611499
 30
0.0
 41
1.0
  0
SPLINE
  5
220
330
1F
100
AcDbEntity
  8
WHITE
100
AcDbSpline
210
0.0
220
0.0
230
1.0
 70
    12
 71
     2
 72
     8
 73
     5
 74
     0
 42
0.0000000001
 43
0.0000000001
 40
34.8497094597512
 40
34.8497094597512
 40
34.8497094597512
 40
36.18455237115757
 40
36.18455237115757
 40
37.51939528256393
 40
37.51939528256393
 40
37.51939528256393
 10
-44.37536616382278
 20
149.2873380611499
 30
0.0
 41
1.0
 10
-45.14791747120898
 20
150.7499188971288
 30
0.0
 41
0.759361115394313
 10
-46.71161968378522
 20
150.2106475232354
 30
0.0
 41
1.0
 10
-48.27532189636146
 20
149.671376149342
 30
0.0
 41
0.759361115394313
 10
-47.9820722351557
 20
148.0434993540902
 30
0.0
 41
1.0
  0
SPLINE
  5
221
330
1F
100
AcDbEntity
  8
WHITE
100
AcDbSpline
210
0.0
220
0.0
230
1.0
 70
    12
 71
     2
 72
     6
 73
     3
 74
     0
 42
0.0000000001
 43
0.0000000001
 40
37.51939528256393
 40
37.51939528256393
 40
37.51939528256393
 40
53.88597841152872
 40
53.88597841152872
 40
53.88597841152872
 10
-47.98207223515566
 20
148.0434993540901
 30
0.0
 41
1.0
 10
-43.52351743837658
 20
131.8774633564618
 30
0.0
 41
0.999888947735171
 10
-39.54872659868163
 20
115.585733290776
 30
0.0
 41
1.0
  0
SPLINE
  5
222
330
1F
100
AcDbEntity
  8
WHITE
100
AcDbSpline
210
0.0
220
0.0
230
1.0
 70
    12
 71
     2
 72
     6
 73
     3
 74
     0
 42
0.0000000001
 43
0.0000000001
 40
53.88597841152872
 40
53.88597841152872
 40
53.88597841152872
 40
62.06467419795752
 40
62.06467419795752
 40
62.06467419795752
 10
-39.54872659868189
 20
115.5857332907759
 30
0.0
 41
1.0
 10
-37.5628622580049
 20
107.4448133826074
 30
0.0
 41
0.9999717647266938
 10
-35.69957083960302
 20
99.27496765451103
 30
0.0
 41
1.0
  0
SPLINE
  5
223
330
1F
100
AcDbEntity
  8
WHITE
100
AcDbSpline
210
0.0
220
0.0
230
1.0
 70
    12
 71
     2
 72
     6
 73
     3
 74
     0
 42
0.0000000001
 43
0.0000000001
 40
62.06467419795752
 40
62.06467419795752
 40
62.06467419795752
 40
70.24194296933399
 40
70.24194296933399
 40
70.24194296933399
 10
-35.69957083960286
 20
99.27496765451096
 30
0.0
 41
1.0
 10
-33.8340199208593
 20
91.10711043225764
 30
0.0
 41
0.9999690581364442
 10
-32.09720179825299
 20
82.91091408013631
 30
0.0
 41
1.0
  0
SPLINE
  5
224
330
1F
100
AcDbEntity
  8
WHITE
100
AcDbSpline
210
0.0
220
0.0
230
1.0
 70
    12
 71
     2
 72
     6
 73
     3
 74
     0
 42
0.0000000001
 43
0.0000000001
 40
142.516239573171
 40
142.516239573171
 40
142.516239573171
 40
146.7218869773185
 40
146.7218869773185
 40
146.7218869773185
 10
107.3984759633829
 20
176.7535359555225
 30
0.0
 41
1.0
 10
106.2493721372668
 20
180.9910648955212
 30
0.0
 41
0.9723287565410648
 10
107.1508259191022
 20
185.2880955213995
 30
0.0
 41
1.0
  0
LINE
  5
225
330
1F
100
AcDbEntity
  8
WHITE
100
AcDbLine
 10
107.1508259191022
 20
185.2880955213995
 30
0.0
 11
107.3323488469523
 21
186.023937189867
 31
0.0
  0
SPLINE
  5
226
330
1F
100
AcDbEntity
  8
WHITE
100
AcDbSpline
210
0.0
220
0.0
230
1.0
 70
    12
 71
     2
 72
     6
 73
     3
 74
     0
 42
0.0000000001
 43
0.0000000001
 40
10.09141441618707
 40
10.09141441618707
 40
10.09141441618707
 40
19.42815761779503
 40
19.42815761779503
 40
19.42815761779503
 10
107.3323488469523
 20
186.023937189867
 30
0.0
 41
1.0
 10
109.9058163454331
 20
196.251585750614
 30
0.0
 41
0.8662068538981526
 10
120.0478562042343
 20
199.1440859753982
 30
0.0
 41
1.0
  0
LINE
  5
227
330
1F
100
AcDbEntity
  8
WHITE
100
AcDbLine
 10
120.0478562042343
 20
199.1440859753982
 30
0.0
 11
117.8799241892943
 21
208.8834576177206
 31
0.0
  0
LINE
  5
228
330
1F
100
AcDbEntity
  8
WHITE
100
AcDbLine
 10
117.8799241892943
 20
208.8834576177206
 30
0.0
 11
120.8429212857812
 21
209.5432674829133
 31
0.0
  0
LINE
  5
229
330
1F
100
AcDbEntity
  8
WHITE
100
AcDbLine
 10
120.8429212857812
 20
209.5432674829133
 30
0.0
 11
123.0375068256891
 21
199.7465250934789
 31
0.0
  0
SPLINE
  5
22A
330
1F
100
AcDbEntity
  8
WHITE
100
AcDbSpline
210
0.0
220
0.0
230
1.0
 70
    12
 71
     2
 72
     6
 73
     3
 74
     0
 42
0.0000000001
 43
0.0000000001
 40
30.67839609260372
 40
30.67839609260372
 40
30.67839609260372
 40
42.88136132407608
 40
42.88136132407608
 40
42.88136132407608
 10
123.0375068256891
 20
199.7465250934789
 30
0.0
 41
1.0
 10
137.6004642019874
 20
201.3191622472945
 30
0.0
 41
0.7941363262044143
 10
142.9238358069489
 20
187.6731141044463
 30
0.0
 41
1.0
  0
SPLINE
  5
22B
330
1F
100
AcDbEntity
  8
WHITE
100
AcDbSpline
210
0.0
220
0.0
230
1.0
 70
    12
 71
     2
 72
     6
 73
     3
 74
     0
 42
0.0000000001
 43
0.0000000001
 40
42.88136132407608
 40
42.88136132407608
 40
42.88136132407608
 40
49.38487180328055
 40
49.38487180328055
 40
49.38487180328055
 10
142.9238358069489
 20
187.6731141044463
 30
0.0
 41
1.0
 10
143.6794998678501
 20
181.0391926495695
 30
0.0
 41
0.9973013795423058
 10
145.398465681042
 20
174.5874410598466
 30
0.0
 41
1.0
  0
SPLINE
  5
22C
330
1F
100
AcDbEntity
  8
WHITE
100
AcDbSpline
210
0.0
220
0.0
230
1.0
 70
    12
 71
     2
 72
     8
 73
     5
 74
     0
 42
0.0000000001
 43
0.0000000001
 40
49.38487180328055
 40
49.38487180328055
 40
49.38487180328055
 40
52.34780430790993
 40
52.34780430790993
 40
55.31073681253929
 40
55.31073681253929
 40
55.31073681253929
 10
145.3984656810419
 20
174.5874410598466
 30
0.0
 41
1.0
 10
146.2552849419714
 20
171.2028110051967
 30
0.0
 41
0.8217249878751249
 10
149.7255332501032
 20
170.8190968763899
 30
0.0
 41
1.0
 10
153.1957815582351
 20
170.435382747583
 30
0.0
 41
0.8217249878751249
 10
154.7713558884773
 20
173.5510568933532
 30
0.0
 41
1.0
  0
SPLINE
  5
22D
330
1F
100
AcDbEntity
  8
WHITE
100
AcDbSpline
210
0.0
220
0.0
230
1.0
 70
    12
 71
     2
 72
    12
 73
     9
 74
     0
 42
0.0000000001
 43
0.0000000001
 40
55.31073681253929
 40
55.31073681253929
 40
55.31073681253929
 40
74.45899870134903
 40
74.45899870134903
 40
93.60726059015877
 40
93.60726059015877
 40
112.7555224789685
 40
112.7555224789685
 40
131.9037843677783
 40
131.9037843677783
 40
131.9037843677783
 10
154.7713558884773
 20
173.5510568933532
 30
0.0
 41
1.0
 10
164.9773942463452
 20
193.3363239898228
 30
0.0
 41
0.843307370533955
 10
151.353600558923
 20
210.9434889689857
 30
0.0
 41
1.0
 10
137.7298068715009
 20
228.5506539481488
 30
0.0
 41
0.843307370533955
 10
116.0161684435847
 20
223.6376183017657
 30
0.0
 41
1.0
 10
94.30253001566851
 20
218.7245826553826
 30
0.0
 41
0.843307370533955
 10
89.58548026204676
 20
196.9675273706534
 30
0.0
 41
1.0
 10
84.86843050842498
 20
175.2104720859239
 30
0.0
 41
0.843307370533955
 10
102.5977218946421
 20
161.7459914058711
 30
0.0
 41
1.0
  0
SPLINE
  5
22E
330
1F
100
AcDbEntity
  8
WHITE
100
AcDbSpline
210
0.0
220
0.0
230
1.0
 70
    12
 71
     2
 72
     8
 73
     5
 74
     0
 42
0.0000000001
 43
0.0000000001
 40
131.9037843677783
 40
131.9037843677783
 40
131.9037843677783
 40
134.452063627143
 40
134.452063627143
 40
137.0003428865078
 40
137.0003428865078
 40
137.0003428865078
 10
102.5977218946421
 20
161.7459914058712
 30
0.0
 41
1.0
 10
104.9412363983064
 20
159.9662132370415
 30
0.0
 41
0.8391007140342742
 10
107.5225742745121
 20
161.3791411644295
 30
0.0
 41
1.0
 10
110.103912150718
 20
162.7920690918174
 30
0.0
 41
0.8391007140342742
 10
109.8676987212995
 20
165.7253051503184
 30
0.0
 41
1.0
  0
SPLINE
  5
22F
330
1F
100
AcDbEntity
  8
WHITE
100
AcDbSpline
210
0.0
220
0.0
230
1.0
 70
    12
 71
     2
 72
     6
 73
     3
 74
     0
 42
0.0000000001
 43
0.0000000001
 40
137.0003428865078
 40
137.0003428865078
 40
137.0003428865078
 40
142.516239573171
 40
142.516239573171
 40
142.516239573171
 10
109.8676993872489
 20
165.725302899226
 30
0.0
 41
1.0
 10
108.7799612390728
 20
171.2723044455022
 30
0.0
 41
0.9996454525421887
 10
107.3984759633829
 20
176.7535359555225
 30
0.0
 41
1.0
  0
SPLINE
  5
230
330
1F
100
AcDbEntity
  8
WHITE
100
AcDbSpline
210
0.0
220
0.0
230
1.0
 70
    12
 71
     2
 72
     6
 73
     3
 74
     0
 42
0.0000000001
 43
0.0000000001
 40
130.1289957334427
 40
130.1289957334427
 40
130.1289957334427
 40
134.83182265606
 40
134.83182265606
 40
134.83182265606
 10
86.51071389118526
 20
335.7571946519512
 30
0.0
 41
1.0
 10
82.51491961050809
 20
332.4603363832443
 30
0.0
 41
0.8983925604144559
 10
82.66229915726802
 20
327.2821199290363
 30
0.0
 41
1.0
  0
LINE
  5
231
330
1F
100
AcDbEntity
  8
WHITE
100
AcDbLine
 10
82.66229915726802
 20
327.2821199290363
 30
0.0
 11
83.12744386717493
 21
307.8566610942393
 31
0.0
  0
SPLINE
  5
232
330
1F
100
AcDbEntity
  8
WHITE
100
AcDbSpline
210
0.0
220
0.0
230
1.0
 70
    12
 71
     2
 72
     6
 73
     3
 74
     0
 42
0.0000000001
 43
0.0000000001
 40
54.14385656240839
 40
54.14385656240839
 40
54.14385656240839
 40
61.25964887904409
 40
61.25964887904409
 40
61.25964887904409
 10
83.12744386717493
 20
307.8566610942393
 30
0.0
 41
1.0
 10
83.31755118646946
 20
300.4686671829485
 30
0.0
 41
0.9810679763472502
 10
80.68600131165252
 20
293.5626162069953
 30
0.0
 41
1.0
  0
SPLINE
  5
233
330
1F
100
AcDbEntity
  8
WHITE
100
AcDbSpline
210
0.0
220
0.0
230
1.0
 70
    12
 71
     2
 72
     8
 73
     5
 74
     0
 42
0.0000000001
 43
0.0000000001
 40
61.25964887904409
 40
61.25964887904409
 40
61.25964887904409
 40
62.80362597033201
 40
62.80362597033201
 40
64.34760306161994
 40
64.34760306161994
 40
64.34760306161994
 10
80.68600131165252
 20
293.5626162069953
 30
0.0
 41
1.0
 10
80.00648955436336
 20
291.84476031838
 30
0.0
 41
0.804540543004915
 10
81.44795906186845
 20
290.6893682891204
 30
0.0
 41
1.0
 10
82.8894285693735
 20
289.5339762598603
 30
0.0
 41
0.804540543004915
 10
84.41817047071763
 20
290.5711422453318
 30
0.0
 41
1.0
  0
SPLINE
  5
234
330
1F
100
AcDbEntity
  8
WHITE
100
AcDbSpline
210
0.0
220
0.0
230
1.0
 70
    12
 71
     2
 72
     6
 73
     3
 74
     0
 42
0.0000000001
 43
0.0000000001
 40
64.34760306161994
 40
64.34760306161994
 40
64.34760306161994
 40
65.97713875828119
 40
65.97713875828119
 40
65.97713875828119
 10
84.4181704707176
 20
290.5711422453318
 30
0.0
 41
1.0
 10
85.8175694590031
 20
291.5205562893094
 30
0.0
 41
0.9810151584835738
 10
86.75045698366702
 20
292.9310262186746
 30
0.0
 41
1.0
  0
SPLINE
  5
235
330
1F
100
AcDbEntity
  8
WHITE
100
AcDbSpline
210
0.0
220
0.0
230
1.0
 70
    12
 71
     2
 72
     6
 73
     3
 74
     0
 42
0.0000000001
 43
0.0000000001
 40
65.97713875828119
 40
65.97713875828119
 40
65.97713875828119
 40
71.75075137998245
 40
71.75075137998245
 40
71.75075137998245
 10
86.75045698366702
 20
292.9310262186744
 30
0.0
 41
1.0
 10
89.61119459689601
 20
298.3668907088199
 30
0.0
 41
0.9462498747836771
 10
95.2007136996581
 20
300.9143833284022
 30
0.0
 41
1.0
  0
SPLINE
  5
236
330
1F
100
AcDbEntity
  8
WHITE
100
AcDbSpline
210
0.0
220
0.0
230
1.0
 70
    12
 71
     2
 72
     6
 73
     3
 74
     0
 42
0.0000000001
 43
0.0000000001
 40
71.75075137998245
 40
71.75075137998245
 40
71.75075137998245
 40
72.604445547452
 40
72.604445547452
 40
72.604445547452
 10
95.2007136996581
 20
300.9143833284022
 30
0.0
 41
1.0
 10
96.05084577555202
 20
301.2945476062591
 30
0.0
 41
0.9098785211847672
 10
96.89533966971601
 20
300.9020180056659
 30
0.0
 41
1.0
  0
SPLINE
  5
237
330
1F
100
AcDbEntity
  8
WHITE
100
AcDbSpline
210
0.0
220
0.0
230
1.0
 70
    12
 71
     2
 72
     6
 73
     3
 74
     0
 42
0.0000000001
 43
0.0000000001
 40
72.604445547452
 40
72.604445547452
 40
72.604445547452
 40
78.36466997488797
 40
78.36466997488797
 40
78.36466997488797
 10
96.89533966971601
 20
300.9020180056659
 30
0.0
 41
1.0
 10
102.4421349491716
 20
298.3238095062762
 30
0.0
 41
0.9480829869165462
 10
105.3122166808365
 20
292.9222608587046
 30
0.0
 41
1.0
  0
SPLINE
  5
238
330
1F
100
AcDbEntity
  8
WHITE
100
AcDbSpline
210
0.0
220
0.0
230
1.0
 70
    12
 71
     2
 72
     6
 73
     3
 74
     0
 42
0.0000000001
 43
0.0000000001
 40
78.36466997488797
 40
78.36466997488797
 40
78.36466997488797
 40
79.98643656205489
 40
79.98643656205489
 40
79.98643656205489
 10
105.3122166808366
 20
292.9222608587046
 30
0.0
 41
1.0
 10
106.2405100132707
 20
291.5187621831775
 30
0.0
 41
0.9812640706366109
 10
107.6305701849184
 20
290.5704638322101
 30
0.0
 41
1.0
  0
SPLINE
  5
239
330
1F
100
AcDbEntity
  8
WHITE
100
AcDbSpline
210
0.0
220
0.0
230
1.0
 70
    12
 71
     2
 72
     8
 73
     5
 74
     0
 42
0.0000000001
 43
0.0000000001
 40
79.98643656205489
 40
79.98643656205489
 40
79.98643656205489
 40
81.5204849566253
 40
81.5204849566253
 40
83.0545333511957
 40
83.0545333511957
 40
83.0545333511957
 10
107.6305701849183
 20
290.57046383221
 30
0.0
 41
1.0
 10
109.1600344237578
 20
289.5755499319964
 30
0.0
 41
0.8112242564799822
 10
110.5874819949329
 20
290.7119952488829
 30
0.0
 41
1.0
 10
112.0149295661081
 20
291.8484405657694
 30
0.0
 41
0.8112242564799822
 10
111.3880963499302
 20
293.5619733626028
 30
0.0
 41
1.0
  0
SPLINE
  5
23A
330
1F
100
AcDbEntity
  8
WHITE
100
AcDbSpline
210
0.0
220
0.0
230
1.0
 70
    12
 71
     2
 72
     6
 73
     3
 74
     0
 42
0.0000000001
 43
0.0000000001
 40
83.0545333511957
 40
83.0545333511957
 40
83.0545333511957
 40
90.17068347845218
 40
90.17068347845218
 40
90.17068347845218
 10
111.3880963499303
 20
293.5619733626027
 30
0.0
 41
1.0
 10
108.7762685770951
 20
300.471718441125
 30
0.0
 41
0.9815880042475539
 10
108.9460912453507
 20
307.8566613404617
 30
0.0
 41
1.0
  0
LINE
  5
23B
330
1F
100
AcDbEntity
  8
WHITE
100
AcDbLine
 10
108.9460912453507
 20
307.8566613404617
 30
0.0
 11
109.3927951890598
 21
327.2821193849339
 31
0.0
  0
SPLINE
  5
23C
330
1F
100
AcDbEntity
  8
WHITE
100
AcDbSpline
210
0.0
220
0.0
230
1.0
 70
    12
 71
     2
 72
     6
 73
     3
 74
     0
 42
0.0000000001
 43
0.0000000001
 40
99.65318968725585
 40
99.65318968725585
 40
99.65318968725585
 40
104.3437528675367
 40
104.3437528675367
 40
104.3437528675367
 10
109.3927951890598
 20
327.2821193849339
 30
0.0
 41
1.0
 10
109.5270166185051
 20
332.444767763392
 30
0.0
 41
0.8990045837481004
 10
105.5445871679865
 20
335.7328081134121
 30
0.0
 41
1.0
  0
SPLINE
  5
23D
330
1F
100
AcDbEntity
  8
WHITE
100
AcDbSpline
210
0.0
220
0.0
230
1.0
 70
    12
 71
     2
 72
     6
 73
     3
 74
     0
 42
0.0000000001
 43
0.0000000001
 40
104.3437528675367
 40
104.3437528675367
 40
104.3437528675367
 40
108.4766973565449
 40
108.4766973565449
 40
108.4766973565449
 10
105.5445871679865
 20
335.7328081134121
 30
0.0
 41
1.0
 10
101.8084545065418
 20
337.9870969456575
 30
0.0
 41
0.9561939015937821
 10
97.45064606249204
 20
337.7634656239061
 30
0.0
 41
1.0
  0
LINE
  5
23E
330
1F
100
AcDbEntity
  8
WHITE
100
AcDbLine
 10
97.45064606249204
 20
337.7634656239061
 30
0.0
 11
97.45064607848275
 21
321.2190405699916
 31
0.0
  0
LINE
  5
23F
330
1F
100
AcDbEntity
  8
WHITE
100
AcDbLine
 10
97.45064607848275
 20
321.2190405699916
 30
0.0
 11
94.5962512268879
 21
321.2190405699916
 31
0.0
  0
LINE
  5
240
330
1F
100
AcDbEntity
  8
WHITE
100
AcDbLine
 10
94.5962512268879
 20
321.2190405699916
 30
0.0
 11
94.59625175652127
 21
337.7450228332965
 31
0.0
  0
SPLINE
  5
241
330
1F
100
AcDbEntity
  8
WHITE
100
AcDbSpline
210
0.0
220
0.0
230
1.0
 70
    12
 71
     2
 72
     6
 73
     3
 74
     0
 42
0.0000000001
 43
0.0000000001
 40
126.0086973565448
 40
126.0086973565448
 40
126.0086973565448
 40
128.1573110961311
 40
128.1573110961311
 40
128.1573110961311
 10
94.59625175652127
 20
337.7450228332965
 30
0.0
 41
1.0
 10
92.38031705444811
 20
337.8602498402223
 30
0.0
 41
0.9881665911609415
 10
90.23372023172948
 20
337.2983192860867
 30
0.0
 41
1.0
  0
LINE
  5
242
330
1F
100
AcDbEntity
  8
WHITE
100
AcDbLine
 10
90.23372023172948
 20
337.2983192860867
 30
0.0
 11
89.48021450161062
 21
337.0613874397028
 31
0.0
  0
SPLINE
  5
243
330
1F
100
AcDbEntity
  8
WHITE
100
AcDbSpline
210
0.0
220
0.0
230
1.0
 70
    12
 71
     2
 72
     6
 73
     3
 74
     0
 42
0.0000000001
 43
0.0000000001
 40
128.5427867892805
 40
128.5427867892805
 40
128.5427867892805
 40
130.1289957334427
 40
130.1289957334427
 40
130.1289957334427
 10
89.48021450161062
 20
337.0613874397028
 30
0.0
 41
1.0
 10
87.9208811675147
 20
336.5791082322706
 30
0.0
 41
0.9935227468638167
 10
86.51071389118526
 20
335.7571946519512
 30
0.0
 41
1.0
  0
SPLINE
  5
244
330
1F
100
AcDbEntity
  8
WHITE
100
AcDbSpline
210
0.0
220
0.0
230
1.0
 70
    12
 71
     2
 72
     8
 73
     5
 74
     0
 42
0.0000000001
 43
0.0000000001
 40
248.8366264183317
 40
248.8366264183317
 40
248.8366264183317
 40
252.9290201034845
 40
252.9290201034845
 40
257.0214137886373
 40
257.0214137886373
 40
257.0214137886373
 10
73.78713308472675
 20
352.6158171711472
 30
0.0
 41
1.0
 10
73.1282271095108
 20
348.179966697791
 30
0.0
 41
0.9052392487992166
 10
69.29484656997772
 20
345.8527107717533
 30
0.0
 41
1.0
 10
65.46146603044464
 20
343.5254548457152
 30
0.0
 41
0.9052392487992166
 10
61.22195418802885
 20
344.987462316341
 30
0.0
 41
1.0
  0
SPLINE
  5
245
330
1F
100
AcDbEntity
  8
WHITE
100
AcDbSpline
210
0.0
220
0.0
230
1.0
 70
    12
 71
     2
 72
     6
 73
     3
 74
     0
 42
0.0000000001
 43
0.0000000001
 40
98.45874102520861
 40
98.45874102520861
 40
98.45874102520861
 40
108.9131715944663
 40
108.9131715944663
 40
108.9131715944663
 10
61.22195418802885
 20
344.9874623163411
 30
0.0
 41
1.0
 10
51.02047193137579
 20
348.5095016217143
 30
0.0
 41
0.9887417141988403
 10
40.23365328471826
 20
348.8552538241987
 30
0.0
 41
1.0
  0
LINE
  5
246
330
1F
100
AcDbEntity
  8
WHITE
100
AcDbLine
 10
40.23365328471826
 20
348.8552538241987
 30
0.0
 11
39.46315530581748
 21
348.8570861264619
 31
0.0
  0
LINE
  5
247
330
1F
100
AcDbEntity
  8
WHITE
100
AcDbLine
 10
39.46315530581748
 20
348.8570861264619
 30
0.0
 11
39.46315530581748
 21
378.4633408199645
 31
0.0
  0
LINE
  5
248
330
1F
100
AcDbEntity
  8
WHITE
100
AcDbLine
 10
39.46315530581748
 20
378.4633408199645
 30
0.0
 11
36.41819425092165
 21
378.4633408199645
 31
0.0
  0
LINE
  5
249
330
1F
100
AcDbEntity
  8
WHITE
100
AcDbLine
 10
36.41819425092165
 20
378.4633408199645
 30
0.0
 11
36.41819423135158
 21
348.8845979489008
 31
0.0
  0
SPLINE
  5
24A
330
1F
100
AcDbEntity
  8
WHITE
100
AcDbSpline
210
0.0
220
0.0
230
1.0
 70
    12
 71
     2
 72
     6
 73
     3
 74
     0
 42
0.0000000001
 43
0.0000000001
 40
139.6586166572278
 40
139.6586166572278
 40
139.6586166572278
 40
150.1961022700831
 40
150.1961022700831
 40
150.1961022700831
 10
36.41819423135158
 20
348.8845979489008
 30
0.0
 41
1.0
 10
25.55198987866964
 20
348.5561282111997
 30
0.0
 41
0.9895243698490301
 10
15.23256816104014
 20
345.1367971630932
 30
0.0
 41
1.0
  0
SPLINE
  5
24B
330
1F
100
AcDbEntity
  8
WHITE
100
AcDbSpline
210
0.0
220
0.0
230
1.0
 70
    12
 71
     2
 72
     8
 73
     5
 74
     0
 42
0.0000000001
 43
0.0000000001
 40
150.1961022700831
 40
150.1961022700831
 40
150.1961022700831
 40
154.3793875167559
 40
154.3793875167559
 40
158.5626727634288
 40
158.5626727634288
 40
158.5626727634288
 10
15.23256816104012
 20
345.1367971630932
 30
0.0
 41
1.0
 10
10.86690193734399
 20
343.6656280023859
 30
0.0
 41
0.9008191346393098
 10
6.996470216281416
 20
346.1642553392909
 30
0.0
 41
1.0
 10
3.12603849521882
 20
348.6628826761964
 30
0.0
 41
0.9008191346393098
 10
2.669532083063165
 20
353.247092768655
 30
0.0
 41
1.0
  0
SPLINE
  5
24C
330
1F
100
AcDbEntity
  8
WHITE
100
AcDbSpline
210
0.0
220
0.0
230
1.0
 70
    12
 71
     2
 72
     6
 73
     3
 74
     0
 42
0.0000000001
 43
0.0000000001
 40
158.5626727634288
 40
158.5626727634288
 40
158.5626727634288
 40
196.8312525525973
 40
196.8312525525973
 40
196.8312525525973
 10
2.669532083063112
 20
353.247092768655
 30
0.0
 41
1.0
 10
-1.328128040837499
 20
394.340849491082
 30
0.0
 41
0.9257222464034107
 10
24.59267766604882
 20
426.4778991306192
 30
0.0
 41
1.0
  0
SPLINE
  5
24D
330
1F
100
AcDbEntity
  8
WHITE
100
AcDbSpline
210
0.0
220
0.0
230
1.0
 70
    12
 71
     2
 72
     6
 73
     3
 74
     0
 42
0.0000000001
 43
0.0000000001
 40
196.8312525525973
 40
196.8312525525973
 40
196.8312525525973
 40
199.6070365555561
 40
199.6070365555561
 40
199.6070365555561
 10
24.59267766604882
 20
426.4778991306192
 30
0.0
 41
1.0
 10
26.51610433743549
 20
428.8368698321285
 30
0.0
 41
0.9033242276244727
 10
29.55983771548352
 20
428.8371025070902
 30
0.0
 41
1.0
  0
LINE
  5
24E
330
1F
100
AcDbEntity
  8
WHITE
100
AcDbLine
 10
29.55983771548352
 20
428.8371025070902
 30
0.0
 11
43.71708441654084
 21
428.8381847427606
 31
0.0
  0
SPLINE
  5
24F
330
1F
100
AcDbEntity
  8
WHITE
100
AcDbSpline
210
0.0
220
0.0
230
1.0
 70
    12
 71
     2
 72
     6
 73
     3
 74
     0
 42
0.0000000001
 43
0.0000000001
 40
206.5160475757315
 40
206.5160475757315
 40
206.5160475757315
 40
208.8797611714583
 40
208.8797611714583
 40
208.8797611714583
 10
43.71708441654084
 20
428.8381847427606
 30
0.0
 41
1.0
 10
46.26065690045657
 20
428.8324055838877
 30
0.0
 41
0.9292880455756508
 10
48.10625484784063
 20
427.0821020112974
 30
0.0
 41
1.0
  0
SPLINE
  5
250
330
1F
100
AcDbEntity
  8
WHITE
100
AcDbSpline
210
0.0
220
0.0
230
1.0
 70
    12
 71
     2
 72
     6
 73
     3
 74
     0
 42
0.0000000001
 43
0.0000000001
 40
208.8797611714583
 40
208.8797611714583
 40
208.8797611714583
 40
248.8366264183317
 40
248.8366264183317
 40
248.8366264183317
 10
48.10625484784063
 20
427.0821020112973
 30
0.0
 41
1.0
 10
80.3096869321254
 20
396.5265945199
 30
0.0
 41
0.8871996453533648
 10
73.78713308472675
 20
352.6158171711472
 30
0.0
 41
1.0
  0
LINE
  5
251
330
1F
100
AcDbEntity
  8
WHITE
100
AcDbLine
 10
18.90885120858579
 20
182.3870842238154
 30
0.0
 11
5.360206834472494
 21
181.8589146231244
 31
0.0
  0
LINE
  5
252
330
1F
100
AcDbEntity
  8
WHITE
100
AcDbLine
 10
5.360206834472494
 20
181.8589146231244
 30
0.0
 11
5.278242876063421
 21
184.9059247769805
 31
0.0
  0
LINE
  5
253
330
1F
100
AcDbEntity
  8
WHITE
100
AcDbLine
 10
5.278242876063421
 20
184.9059247769805
 30
0.0
 11
16.88433954913551
 21
185.3710702429229
 31
0.0
  0
SPLINE
  5
254
330
1F
100
AcDbEntity
  8
WHITE
100
AcDbSpline
210
0.0
220
0.0
230
1.0
 70
    12
 71
     2
 72
     6
 73
     3
 74
     0
 42
0.0000000001
 43
0.0000000001
 40
72.11783865656636
 40
72.11783865656636
 40
72.11783865656636
 40
72.96995247913584
 40
72.96995247913584
 40
72.96995247913584
 10
16.88433954913555
 20
185.3710702429229
 30
0.0
 41
1.0
 10
16.7110413731029
 20
186.226841098239
 30
0.0
 41
0.9997426996612824
 10
16.49910801845344
 20
187.07387136205
 30
0.0
 41
1.0
  0
SPLINE
  5
255
330
1F
100
AcDbEntity
  8
WHITE
100
AcDbSpline
210
0.0
220
0.0
230
1.0
 70
    12
 71
     2
 72
     6
 73
     3
 74
     0
 42
0.0000000001
 43
0.0000000001
 40
72.96995247913584
 40
72.96995247913584
 40
72.96995247913584
 40
75.58691893378237
 40
75.58691893378237
 40
75.58691893378237
 10
16.49910801845347
 20
187.07387136205
 30
0.0
 41
1.0
 10
15.77671326599846
 20
189.9416995083915
 30
0.0
 41
0.8652667008325197
 10
12.92946710139596
 20
190.7413755262129
 30
0.0
 41
1.0
  0
SPLINE
  5
256
330
1F
100
AcDbEntity
  8
WHITE
100
AcDbSpline
210
0.0
220
0.0
230
1.0
 70
    12
 71
     2
 72
     6
 73
     3
 74
     0
 42
0.0000000001
 43
0.0000000001
 40
75.58691893378237
 40
75.58691893378237
 40
75.58691893378237
 40
97.97145709387065
 40
97.97145709387065
 40
97.97145709387065
 10
12.92946710139596
 20
190.7413755262128
 30
0.0
 41
1.0
 10
-9.518729086136544
 20
196.980001911544
 30
0.0
 41
0.9763804965907537
 10
-32.50324958401244
 20
193.165059089899
 30
0.0
 41
1.0
  0
SPLINE
  5
257
330
1F
100
AcDbEntity
  8
WHITE
100
AcDbSpline
210
0.0
220
0.0
230
1.0
 70
    12
 71
     2
 72
     6
 73
     3
 74
     0
 42
0.0000000001
 43
0.0000000001
 40
97.97145709387065
 40
97.97145709387065
 40
97.97145709387065
 40
107.9208000338939
 40
107.9208000338939
 40
107.9208000338939
 10
-32.50324958401244
 20
193.165059089899
 30
0.0
 41
1.0
 10
-44.71167849803695
 20
191.1316294353316
 30
0.0
 41
0.7551144668895857
 10
-44.41240012645276
 20
178.7586344395689
 30
0.0
 41
1.0
  0
SPLINE
  5
258
330
1F
100
AcDbEntity
  8
WHITE
100
AcDbSpline
210
0.0
220
0.0
230
1.0
 70
    12
 71
     2
 72
     8
 73
     5
 74
     0
 42
0.0000000001
 43
0.0000000001
 40
107.9208000338939
 40
107.9208000338939
 40
107.9208000338939
 40
121.5087587476371
 40
121.5087587476371
 40
135.0967174613804
 40
135.0967174613804
 40
135.0967174613804
 10
-44.41240012645282
 20
178.7586344395689
 30
0.0
 41
1.0
 10
-44.05102437123288
 20
163.8183619859842
 30
0.0
 41
0.900404025503531
 10
-32.12148915283027
 20
154.8167775200861
 30
0.0
 41
1.0
 10
-20.19195393442766
 20
145.8151930541882
 30
0.0
 41
0.900404025503531
 10
-5.725995406871655
 20
149.5673094306928
 30
0.0
 41
1.0
  0
SPLINE
  5
259
330
1F
100
AcDbEntity
  8
WHITE
100
AcDbSpline
210
0.0
220
0.0
230
1.0
 70
    12
 71
     2
 72
     6
 73
     3
 74
     0
 42
0.0000000001
 43
0.0000000001
 40
135.0967174613804
 40
135.0967174613804
 40
135.0967174613804
 40
155.9242716260732
 40
155.9242716260732
 40
155.9242716260732
 10
-5.725995406871672
 20
149.5673094306927
 30
0.0
 41
1.0
 10
17.0021315101034
 20
157.5634408677411
 30
0.0
 41
0.837599636083825
 10
18.84734772290663
 20
181.5863684212407
 30
0.0
 41
1.0
  0
LINE
  5
25A
330
1F
100
AcDbEntity
  8
WHITE
100
AcDbLine
 10
18.84734772290663
 20
181.5863684212407
 30
0.0
 11
18.90885120858579
 21
182.3870842238154
 31
0.0
  0
SPLINE
  5
25B
330
1F
100
AcDbEntity
  8
WHITE
100
AcDbSpline
210
0.0
220
0.0
230
1.0
 70
    12
 71
     2
 72
     6
 73
     3
 74
     0
 42
0.0000000001
 43
0.0000000001
 40
169.9362577684465
 40
169.9362577684465
 40
169.9362577684465
 40
180.5467371310004
 40
180.5467371310004
 40
180.5467371310004
 10
-49.07176901573182
 20
62.03281661026343
 30
0.0
 41
1.0
 10
-44.69472868857694
 20
52.07301174901426
 30
0.0
 41
0.9988694603836983
 10
-41.28332607229236
 20
41.74254578230659
 30
0.0
 41
1.0
  0
SPLINE
  5
25C
330
1F
100
AcDbEntity
  8
WHITE
100
AcDbSpline
210
0.0
220
0.0
230
1.0
 70
    12
 71
     2
 72
     8
 73
     5
 74
     0
 42
0.0000000001
 43
0.0000000001
 40
89.30025819393168
 40
89.30025819393168
 40
89.30025819393168
 40
90.27336856550023
 40
90.27336856550023
 40
91.24647893706877
 40
91.24647893706877
 40
91.24647893706877
 10
-41.28332607229236
 20
41.74254578230659
 30
0.0
 41
1.0
 10
-40.89149416153471
 20
40.55632009634206
 30
0.0
 41
0.724284472122246
 10
-39.68743493233304
 20
40.8893441148515
 30
0.0
 41
1.0
 10
-38.48337570313136
 20
41.22236813336081
 30
0.0
 41
0.724284472122246
 10
-38.75678599715894
 20
42.44134739300783
 30
0.0
 41
1.0
  0
SPLINE
  5
25D
330
1F
100
AcDbEntity
  8
WHITE
100
AcDbSpline
210
0.0
220
0.0
230
1.0
 70
    12
 71
     2
 72
     6
 73
     3
 74
     0
 42
0.0000000001
 43
0.0000000001
 40
91.24647893706877
 40
91.24647893706877
 40
91.24647893706877
 40
134.7262332982156
 40
134.7262332982156
 40
134.7262332982156
 10
-38.75678599715895
 20
42.44134739300783
 30
0.0
 41
1.0
 10
-48.74082884860997
 20
86.95445252912938
 30
0.0
 41
0.9651250091756628
 10
-79.84970646968243
 20
120.3211331203441
 30
0.0
 41
1.0
  0
SPLINE
  5
25E
330
1F
100
AcDbEntity
  8
WHITE
100
AcDbSpline
210
0.0
220
0.0
230
1.0
 70
    12
 71
     2
 72
     8
 73
     5
 74
     0
 42
0.0000000001
 43
0.0000000001
 40
134.7262332982156
 40
134.7262332982156
 40
134.7262332982156
 40
136.4314567798638
 40
136.4314567798638
 40
138.1366802615119
 40
138.1366802615119
 40
138.1366802615119
 10
-79.84970646968242
 20
120.3211331203441
 30
0.0
 41
1.0
 10
-81.44400009425124
 20
121.7498027142958
 30
0.0
 41
0.7456661933132528
 10
-83.04229348304276
 20
120.3256091834272
 30
0.0
 41
1.0
 10
-84.64058687183427
 20
118.9014156525585
 30
0.0
 41
0.7456661933132528
 10
-83.40442650283005
 20
117.1536237564434
 30
0.0
 41
1.0
  0
SPLINE
  5
25F
330
1F
100
AcDbEntity
  8
WHITE
100
AcDbSpline
210
0.0
220
0.0
230
1.0
 70
    12
 71
     2
 72
     6
 73
     3
 74
     0
 42
0.0000000001
 43
0.0000000001
 40
138.1366802615119
 40
138.1366802615119
 40
138.1366802615119
 40
159.3252468528924
 40
159.3252468528924
 40
159.3252468528924
 10
-83.40442650283
 20
117.1536237564435
 30
0.0
 41
1.0
 10
-69.36780628727563
 20
100.505705073128
 30
0.0
 41
0.9954286574896102
 10
-58.75274779279795
 20
81.49254024659763
 30
0.0
 41
1.0
  0
SPLINE
  5
260
330
1F
100
AcDbEntity
  8
WHITE
100
AcDbSpline
210
0.0
220
0.0
230
1.0
 70
    12
 71
     2
 72
     6
 73
     3
 74
     0
 42
0.0000000001
 43
0.0000000001
 40
159.3252468528924
 40
159.3252468528924
 40
159.3252468528924
 40
169.9362577684465
 40
169.9362577684465
 40
169.9362577684465
 10
-58.75274779279788
 20
81.49254024659763
 30
0.0
 41
1.0
 10
-53.44903195693625
 20
71.99312802213349
 30
0.0
 41
0.9988686269153421
 10
-49.07176901573179
 20
62.0328166102635
 30
0.0
 41
1.0
  0
LINE
  5
261
330
1F
100
AcDbEntity
  8
WHITE
100
AcDbLine
 10
105.9646732347657
 20
75.9088347096242
 30
0.0
 11
104.6471036659869
 21
85.81417762425122
 31
0.0
  0
SPLINE
  5
262
330
1F
100
AcDbEntity
  8
WHITE
100
AcDbSpline
210
0.0
220
0.0
230
1.0
 70
    12
 71
     2
 72
     6
 73
     3
 74
     0
 42
0.0000000001
 43
0.0000000001
 40
-9.324330271337141
 40
-9.324330271337141
 40
-9.324330271337141
 40
0.0000000000000008
 40
0.0000000000000008
 40
0.0000000000000008
 10
104.6471036659869
 20
85.81417762425122
 30
0.0
 41
1.0
 10
94.17592415443396
 20
85.13685130529191
 30
0.0
 41
0.8696124590332499
 10
88.22831985601198
 20
93.78152448678998
 30
0.0
 41
1.0
  0
LINE
  5
263
330
1F
100
AcDbEntity
  8
WHITE
100
AcDbLine
 10
88.22831985601198
 20
93.78152448678998
 30
0.0
 11
87.80145988876383
 21
94.40195327222624
 31
0.0
  0
SPLINE
  5
264
330
1F
100
AcDbEntity
  8
WHITE
100
AcDbSpline
210
0.0
220
0.0
230
1.0
 70
    12
 71
     2
 72
     6
 73
     3
 74
     0
 42
0.0000000001
 43
0.0000000001
 40
0.3675212780465972
 40
0.3675212780465972
 40
0.3675212780465972
 40
4.581295779027337
 40
4.581295779027337
 40
4.581295779027337
 10
87.80145988876383
 20
94.40195327222624
 30
0.0
 41
1.0
 10
85.48081834505633
 20
98.13907410147446
 30
0.0
 41
0.9723368716980137
 10
85.1109696865109
 20
102.5225272193435
 30
0.0
 41
1.0
  0
SPLINE
  5
265
330
1F
100
AcDbEntity
  8
WHITE
100
AcDbSpline
210
0.0
220
0.0
230
1.0
 70
    12
 71
     2
 72
     6
 73
     3
 74
     0
 42
0.0000000001
 43
0.0000000001
 40
4.581295779027337
 40
4.581295779027337
 40
4.581295779027337
 40
10.09078845410165
 40
10.09078845410165
 40
10.09078845410165
 10
85.1109696865109
 20
102.5225272193435
 30
0.0
 41
1.0
 10
84.53316648987959
 20
108.1389633649373
 30
0.0
 41
0.9996462262333612
 10
83.65752114709471
 20
113.7167278584624
 30
0.0
 41
1.0
  0
SPLINE
  5
266
330
1F
100
AcDbEntity
  8
WHITE
100
AcDbSpline
210
0.0
220
0.0
230
1.0
 70
    12
 71
     2
 72
     8
 73
     5
 74
     0
 42
0.0000000001
 43
0.0000000001
 40
10.09078845410165
 40
10.09078845410165
 40
10.09078845410165
 40
12.66924523495773
 40
12.66924523495773
 40
15.24770201581381
 40
15.24770201581381
 40
15.24770201581381
 10
83.65752114709478
 20
113.7167278584625
 30
0.0
 41
1.0
 10
82.91694399284701
 20
116.5962642664741
 30
0.0
 41
0.8356442001966484
 10
79.97984231280802
 20
117.0584527210789
 30
0.0
 41
1.0
 10
77.0427406327691
 20
117.5206411756838
 30
0.0
 41
0.8356442001966484
 10
75.45359429183166
 20
115.0077149225791
 30
0.0
 41
1.0
  0
SPLINE
  5
267
330
1F
100
AcDbEntity
  8
WHITE
100
AcDbSpline
210
0.0
220
0.0
230
1.0
 70
    12
 71
     2
 72
    12
 73
     9
 74
     0
 42
0.0000000001
 43
0.0000000001
 40
15.24770201581381
 40
15.24770201581381
 40
15.24770201581381
 40
34.39228760064112
 40
34.39228760064112
 40
53.53687318546844
 40
53.53687318546844
 40
72.68145877029575
 40
72.68145877029575
 40
91.82604435512306
 40
91.82604435512306
 40
91.82604435512306
 10
75.45359429183159
 20
115.0077149225791
 30
0.0
 41
1.0
 10
63.6897706075147
 20
96.40551283980861
 30
0.0
 41
0.8444801397722959
 10
75.50220204241353
 20
77.83413880341224
 30
0.0
 41
1.0
 10
87.31463347731236
 20
59.26276476701585
 30
0.0
 41
0.8444801397722959
 10
109.149580584627
 20
62.03125800787704
 30
0.0
 41
1.0
 10
130.9845276919417
 20
64.79975124873813
 30
0.0
 41
0.8444801397722959
 10
137.7882845045117
 20
85.73150614982876
 30
0.0
 41
1.0
 10
144.5920413170816
 20
106.6632610509193
 30
0.0
 41
0.8444801397722959
 10
128.557887634651
 20
121.7409062812636
 30
0.0
 41
1.0
  0
SPLINE
  5
268
330
1F
100
AcDbEntity
  8
WHITE
100
AcDbSpline
210
0.0
220
0.0
230
1.0
 70
    12
 71
     2
 72
     8
 73
     5
 74
     0
 42
0.0000000001
 43
0.0000000001
 40
91.82604435512306
 40
91.82604435512306
 40
91.82604435512306
 40
94.85025991036186
 40
94.85025991036186
 40
97.87447546560065
 40
97.87447546560065
 40
97.87447546560065
 10
128.557887634651
 20
121.7409062812636
 30
0.0
 41
1.0
 10
126.0296952547705
 20
124.2620605389055
 30
0.0
 41
0.8130156830655122
 10
122.8287589371718
 20
122.6802950091288
 30
0.0
 41
1.0
 10
119.6278226195731
 20
121.0985294793522
 30
0.0
 41
0.8130156830655122
 10
120.0946824198614
 20
117.558753013615
 30
0.0
 41
1.0
  0
SPLINE
  5
269
330
1F
100
AcDbEntity
  8
WHITE
100
AcDbSpline
210
0.0
220
0.0
230
1.0
 70
    12
 71
     2
 72
     6
 73
     3
 74
     0
 42
0.0000000001
 43
0.0000000001
 40
97.87447546560065
 40
97.87447546560065
 40
97.87447546560065
 40
104.3771573963181
 40
104.3771573963181
 40
104.3771573963181
 10
120.0946824198616
 20
117.558753013615
 30
0.0
 41
1.0
 10
120.752073572691
 20
110.9201615100336
 30
0.0
 41
0.9980354032923816
 10
122.2345180177344
 20
104.4158999265333
 30
0.0
 41
1.0
  0
SPLINE
  5
26A
330
1F
100
AcDbEntity
  8
WHITE
100
AcDbSpline
210
0.0
220
0.0
230
1.0
 70
    12
 71
     2
 72
     6
 73
     3
 74
     0
 42
0.0000000001
 43
0.0000000001
 40
104.3771573963181
 40
104.3771573963181
 40
104.3771573963181
 40
116.5896813913682
 40
116.5896813913682
 40
116.5896813913682
 10
122.2345180177344
 20
104.4158999265333
 30
0.0
 41
1.0
 10
121.8989107499629
 20
89.76079993365364
 30
0.0
 41
0.7941482942485125
 10
107.6654256199855
 20
86.25473531727906
 30
0.0
 41
1.0
  0
LINE
  5
26B
330
1F
100
AcDbEntity
  8
WHITE
100
AcDbLine
 10
107.6654256199855
 20
86.25473531727906
 30
0.0
 11
108.9829960031786
 21
76.3207036006297
 31
0.0
  0
LINE
  5
26C
330
1F
100
AcDbEntity
  8
WHITE
100
AcDbLine
 10
108.9829960031786
 20
76.3207036006297
 30
0.0
 11
105.9646732347657
 21
75.9088347096242
 31
0.0
  0
SPLINE
  5
26D
330
1F
100
AcDbEntity
  8
WHITE
100
AcDbSpline
210
0.0
220
0.0
230
1.0
 70
    12
 71
     2
 72
     6
 73
     3
 74
     0
 42
0.0000000001
 43
0.0000000001
 40
174.5728459908538
 40
174.5728459908538
 40
174.5728459908538
 40
181.0783396621615
 40
181.0783396621615
 40
181.0783396621615
 10
139.0115024244629
 20
409.2734730875619
 30
0.0
 41
1.0
 10
137.5240845704376
 20
415.7795666550599
 30
0.0
 41
0.998033680254365
 10
136.8623533567266
 20
422.420634128163
 30
0.0
 41
1.0
  0
SPLINE
  5
26E
330
1F
100
AcDbEntity
  8
WHITE
100
AcDbSpline
210
0.0
220
0.0
230
1.0
 70
    12
 71
     2
 72
     8
 73
     5
 74
     0
 42
0.0000000001
 43
0.0000000001
 40
43.87857780897124
 40
43.87857780897124
 40
43.87857780897124
 40
46.90359369921703
 40
46.90359369921703
 40
49.92860958946282
 40
49.92860958946282
 40
49.92860958946282
 10
136.8623533567265
 20
422.420634128163
 30
0.0
 41
1.0
 10
136.3929010213464
 20
425.9616043036496
 30
0.0
 41
0.8128285637468277
 10
139.5951503304184
 20
427.5441511880811
 30
0.0
 41
1.0
 10
142.7973996394904
 20
429.1266980725129
 30
0.0
 41
0.8128285637468277
 10
145.3251332509822
 20
426.602927467206
 30
0.0
 41
1.0
  0
SPLINE
  5
26F
330
1F
100
AcDbEntity
  8
WHITE
100
AcDbSpline
210
0.0
220
0.0
230
1.0
 70
    12
 71
     2
 72
    12
 73
     9
 74
     0
 42
0.0000000001
 43
0.0000000001
 40
49.92860958946282
 40
49.92860958946282
 40
49.92860958946282
 40
69.07797278996874
 40
69.07797278996874
 40
88.22733599047466
 40
88.22733599047466
 40
107.3766991909806
 40
107.3766991909806
 40
126.5260623914865
 40
126.5260623914865
 40
126.5260623914865
 10
145.3251332509822
 20
426.6029274672061
 30
0.0
 41
1.0
 10
160.9560990499296
 20
411.5937405229579
 30
0.0
 41
0.8459508371977716
 10
154.1555338044899
 20
391.0181458322135
 30
0.0
 41
1.0
 10
147.3549685590503
 20
370.4425511414693
 30
0.0
 41
0.8459508371977716
 10
125.8583025426399
 20
367.7046441463046
 30
0.0
 41
1.0
 10
104.3616365262296
 20
364.96673715114
 30
0.0
 41
0.8459508371977716
 10
92.62065500660596
 20
383.1808014282617
 30
0.0
 41
1.0
 10
80.87967348698231
 20
401.3948657053832
 30
0.0
 41
0.8459508371977716
 10
92.24937573386393
 20
419.8429727994056
 30
0.0
 41
1.0
  0
SPLINE
  5
270
330
1F
100
AcDbEntity
  8
WHITE
100
AcDbSpline
210
0.0
220
0.0
230
1.0
 70
    12
 71
     2
 72
     8
 73
     5
 74
     0
 42
0.0000000001
 43
0.0000000001
 40
126.5260623914865
 40
126.5260623914865
 40
126.5260623914865
 40
129.1012233692294
 40
129.1012233692294
 40
131.6763843469724
 40
131.6763843469724
 40
131.6763843469724
 10
92.249375733864
 20
419.8429727994056
 30
0.0
 41
1.0
 10
93.81706710034337
 20
422.3866575495599
 30
0.0
 41
0.8333947134973022
 10
96.77028360475417
 20
421.9322341712253
 30
0.0
 41
1.0
 10
99.72350010916492
 20
421.4778107928908
 30
0.0
 41
0.8333947134973022
 10
100.4539634167099
 20
418.580499679974
 30
0.0
 41
1.0
  0
SPLINE
  5
271
330
1F
100
AcDbEntity
  8
WHITE
100
AcDbSpline
210
0.0
220
0.0
230
1.0
 70
    12
 71
     2
 72
     6
 73
     3
 74
     0
 42
0.0000000001
 43
0.0000000001
 40
131.6763843469724
 40
131.6763843469724
 40
131.6763843469724
 40
137.1997618531903
 40
137.1997618531903
 40
137.1997618531903
 10
100.453964642239
 20
418.5804973376201
 30
0.0
 41
1.0
 10
101.4232879387611
 20
413.0004917795065
 30
0.0
 41
0.9990695974287359
 10
101.9081552948284
 20
407.3577129136658
 30
0.0
 41
1.0
  0
SPLINE
  5
272
330
1F
100
AcDbEntity
  8
WHITE
100
AcDbSpline
210
0.0
220
0.0
230
1.0
 70
    12
 71
     2
 72
     6
 73
     3
 74
     0
 42
0.0000000001
 43
0.0000000001
 40
137.1997618531903
 40
137.1997618531903
 40
137.1997618531903
 40
141.400595566365
 40
141.400595566365
 40
141.400595566365
 10
101.9081552948284
 20
407.3577129136658
 30
0.0
 41
1.0
 10
102.2835633037305
 20
402.9887976790311
 30
0.0
 41
0.9725032462093676
 10
104.5972419391064
 20
399.2638489984753
 30
0.0
 41
1.0
  0
LINE
  5
273
330
1F
100
AcDbEntity
  8
WHITE
100
AcDbLine
 10
104.5972419391064
 20
399.2638489984753
 30
0.0
 11
105.0323760886088
 21
398.6044082319099
 31
0.0
  0
SPLINE
  5
274
330
1F
100
AcDbEntity
  8
WHITE
100
AcDbSpline
210
0.0
220
0.0
230
1.0
 70
    12
 71
     2
 72
     6
 73
     3
 74
     0
 42
0.0000000001
 43
0.0000000001
 40
141.7861631139049
 40
141.7861631139049
 40
141.7861631139049
 40
151.1034538494943
 40
151.1034538494943
 40
151.1034538494943
 10
105.0323760886088
 20
398.6044082319099
 30
0.0
 41
1.0
 10
110.9501296608955
 20
389.9079994958975
 30
0.0
 41
0.8668697916566935
 10
121.4428845811817
 20
390.6492325421893
 30
0.0
 41
1.0
  0
LINE
  5
275
330
1F
100
AcDbEntity
  8
WHITE
100
AcDbLine
 10
121.4428845811817
 20
390.6492325421893
 30
0.0
 11
122.7338169672866
 21
380.7705260587819
 31
0.0
  0
LINE
  5
276
330
1F
100
AcDbEntity
  8
WHITE
100
AcDbLine
 10
122.7338169672866
 20
380.7705260587819
 30
0.0
 11
125.7787780221826
 21
381.1557566633044
 31
0.0
  0
LINE
  5
277
330
1F
100
AcDbEntity
  8
WHITE
100
AcDbLine
 10
125.7787780221826
 20
381.1557566633044
 30
0.0
 11
124.4612073678778
 21
391.1432695453395
 31
0.0
  0
SPLINE
  5
278
330
1F
100
AcDbEntity
  8
WHITE
100
AcDbSpline
210
0.0
220
0.0
230
1.0
 70
    12
 71
     2
 72
     6
 73
     3
 74
     0
 42
0.0000000001
 43
0.0000000001
 40
162.3796182886112
 40
162.3796182886112
 40
162.3796182886112
 40
174.5728459908538
 40
174.5728459908538
 40
174.5728459908538
 10
124.4612073678778
 20
391.1432695453395
 30
0.0
 41
1.0
 10
138.6710323700581
 20
394.6429840811483
 30
0.0
 41
0.7942504002533449
 10
139.011502424463
 20
409.2734730875619
 30
0.0
 41
1.0
  0
SPLINE
  5
279
330
1F
100
AcDbEntity
  8
WHITE
100
AcDbSpline
210
0.0
220
0.0
230
1.0
 70
    12
 71
     2
 72
     6
 73
     3
 74
     0
 42
0.0000000001
 43
0.0000000001
 40
89.89358789502003
 40
89.89358789502003
 40
89.89358789502003
 40
123.0962697369947
 40
123.0962697369947
 40
123.0962697369947
 10
8.701426625675975
 20
144.1132897453799
 30
0.0
 41
1.0
 10
-4.466517803244704
 20
112.3555947102414
 30
0.0
 41
0.9842953487881915
 10
-5.777511201658396
 20
78.00115903248167
 30
0.0
 41
1.0
  0
SPLINE
  5
27A
330
1F
100
AcDbEntity
  8
WHITE
100
AcDbSpline
210
0.0
220
0.0
230
1.0
 70
    12
 71
     2
 72
    12
 73
     9
 74
     0
 42
0.0000000001
 43
0.0000000001
 40
52.48554674089073
 40
52.48554674089073
 40
52.48554674089073
 40
52.92329233425111
 40
52.92329233425111
 40
53.36103792761149
 40
53.36103792761149
 40
53.79878352097188
 40
53.79878352097188
 40
54.23652911433226
 40
54.23652911433226
 40
54.23652911433226
 10
-5.777511201658344
 20
78.00115903248167
 30
0.0
 41
1.0
 10
-5.838228770782085
 20
77.53200804645682
 30
0.0
 41
0.9238793414141458
 10
-5.549422357833666
 20
77.1573346864105
 30
0.0
 41
1.0
 10
-5.260615944885243
 20
76.78266132636416
 30
0.0
 41
0.9238793414141458
 10
-4.791464837581352
 20
76.72194469434254
 30
0.0
 41
1.0
 10
-4.322313730277445
 20
76.66122806232113
 30
0.0
 41
0.9238793414141458
 10
-3.947640947106055
 20
76.95003522365728
 30
0.0
 41
1.0
 10
-3.572968163934721
 20
77.23884238499365
 30
0.0
 41
0.9238793414141458
 10
-3.512252469015561
 20
77.70799361357454
 30
0.0
 41
1.0
  0
SPLINE
  5
27B
330
1F
100
AcDbEntity
  8
WHITE
100
AcDbSpline
210
0.0
220
0.0
230
1.0
 70
    12
 71
     2
 72
     6
 73
     3
 74
     0
 42
0.0000000001
 43
0.0000000001
 40
54.23652911433226
 40
54.23652911433226
 40
54.23652911433226
 40
62.42312546443866
 40
62.42312546443866
 40
62.42312546443866
 10
-3.512252469015509
 20
77.70799361357462
 30
0.0
 41
1.0
 10
-1.780149951182496
 20
85.91493177203246
 30
0.0
 41
0.9999719390491452
 10
0.0747176583718179
 20
94.0949977387629
 30
0.0
 41
1.0
  0
SPLINE
  5
27C
330
1F
100
AcDbEntity
  8
WHITE
100
AcDbSpline
210
0.0
220
0.0
230
1.0
 70
    12
 71
     2
 72
     6
 73
     3
 74
     0
 42
0.0000000001
 43
0.0000000001
 40
62.42312546443866
 40
62.42312546443866
 40
62.42312546443866
 40
70.61072299610393
 40
70.61072299610393
 40
70.61072299610393
 10
0.0747176583715558
 20
94.09499773876297
 30
0.0
 41
1.0
 10
1.930755684229373
 20
102.2758391349009
 30
0.0
 41
0.9999722860307536
 10
3.908396373677269
 20
110.4281382220069
 30
0.0
 41
1.0
  0
SPLINE
  5
27D
330
1F
100
AcDbEntity
  8
WHITE
100
AcDbSpline
210
0.0
220
0.0
230
1.0
 70
    12
 71
     2
 72
     6
 73
     3
 74
     0
 42
0.0000000001
 43
0.0000000001
 40
70.61072299610393
 40
70.61072299610393
 40
70.61072299610393
 40
86.97685473561091
 40
86.97685473561091
 40
86.97685473561091
 10
3.908396373677252
 20
110.428138222007
 30
0.0
 41
1.0
 10
7.861720279014627
 20
126.7246672307805
 30
0.0
 41
0.9998858043711427
 10
12.30573464136038
 20
142.8942795941481
 30
0.0
 41
1.0
  0
SPLINE
  5
27E
330
1F
100
AcDbEntity
  8
WHITE
100
AcDbSpline
210
0.0
220
0.0
230
1.0
 70
    12
 71
     2
 72
     8
 73
     5
 74
     0
 42
0.0000000001
 43
0.0000000001
 40
86.97685473561091
 40
86.97685473561091
 40
86.97685473561091
 40
88.43522131531547
 40
88.43522131531547
 40
89.89358789502003
 40
89.89358789502003
 40
89.89358789502003
 10
12.3057346413605
 20
142.8942795941483
 30
0.0
 41
1.0
 10
12.91523820446936
 20
144.6964328540032
 30
0.0
 41
0.7071070029227603
 10
11.11308532687399
 20
145.3059375473592
 30
0.0
 41
1.0
 10
9.310932449278612
 20
145.915442240715
 30
0.0
 41
0.7071070029227603
 10
8.701426625675959
 20
144.1132897453799
 30
0.0
 41
1.0
  0
LINE
  5
27F
330
1F
100
AcDbEntity
  8
WHITE
100
AcDbLine
 10
-72.22086909700151
 20
422.3268449260037
 30
0.0
 11
-65.9160601365562
 21
416.1723945124926
 31
0.0
  0
SPLINE
  5
280
330
1F
100
AcDbEntity
  8
WHITE
100
AcDbSpline
210
0.0
220
0.0
230
1.0
 70
    12
 71
     2
 72
     8
 73
     5
 74
     0
 42
0.0000000001
 43
0.0000000001
 40
121.2109952164324
 40
121.2109952164324
 40
121.2109952164324
 40
129.1056706340203
 40
129.1056706340203
 40
137.0003460516083
 40
137.0003460516083
 40
137.0003460516083
 10
-65.9160601365562
 20
416.1723945124926
 30
0.0
 41
1.0
 10
-71.65652743702894
 20
409.6189586899054
 30
0.0
 41
0.8960099706172372
 10
-69.91865864445205
 20
401.0819628501291
 30
0.0
 41
1.0
 10
-68.18078985187516
 20
392.5449670103527
 30
0.0
 41
0.8960099706172372
 10
-60.33518044112681
 20
388.7572369668378
 30
0.0
 41
1.0
  0
LINE
  5
281
330
1F
100
AcDbEntity
  8
WHITE
100
AcDbLine
 10
-60.33518044112681
 20
388.7572369668378
 30
0.0
 11
-59.68227349173655
 21
388.3422204803164
 31
0.0
  0
SPLINE
  5
282
330
1F
100
AcDbEntity
  8
WHITE
100
AcDbSpline
210
0.0
220
0.0
230
1.0
 70
    12
 71
     2
 72
     6
 73
     3
 74
     0
 42
0.0000000001
 43
0.0000000001
 40
137.377899771688
 40
137.377899771688
 40
137.377899771688
 40
142.8654609340923
 40
142.8654609340923
 40
142.8654609340923
 10
-59.68227349173655
 20
388.3422204803164
 30
0.0
 41
1.0
 10
-54.74144442322127
 20
385.6276819819158
 30
0.0
 41
0.9962527624576186
 10
-50.34233303837839
 20
382.1022982911197
 30
0.0
 41
1.0
  0
SPLINE
  5
283
330
1F
100
AcDbEntity
  8
WHITE
100
AcDbSpline
210
0.0
220
0.0
230
1.0
 70
    12
 71
     2
 72
     8
 73
     5
 74
     0
 42
0.0000000001
 43
0.0000000001
 40
142.8654609340923
 40
142.8654609340923
 40
142.8654609340923
 40
145.4415968669256
 40
145.4415968669256
 40
148.017732799759
 40
148.017732799759
 40
148.017732799759
 10
-50.34233303837846
 20
382.1022982911194
 30
0.0
 41
1.0
 10
-47.98919472947976
 20
380.2373363100926
 30
0.0
 41
0.8308464098649154
 10
-48.8181588695906
 20
377.3514808830324
 30
0.0
 41
1.0
 10
-49.64712300970145
 20
374.4656254559723
 30
0.0
 41
0.8308464098649154
 10
-52.6312879107272
 20
374.133807832919
 30
0.0
 41
1.0
  0
SPLINE
  5
284
330
1F
100
AcDbEntity
  8
WHITE
100
AcDbSpline
210
0.0
220
0.0
230
1.0
 70
    12
 71
     2
 72
    12
 73
     9
 74
     0
 42
0.0000000001
 43
0.0000000001
 40
148.017732799759
 40
148.017732799759
 40
148.017732799759
 40
169.0909374916388
 40
169.0909374916388
 40
190.1641421835186
 40
190.1641421835186
 40
211.2373468753985
 40
211.2373468753985
 40
232.3105515672783
 40
232.3105515672783
 40
232.3105515672783
 10
-52.63128791072718
 20
374.1338078329187
 30
0.0
 41
1.0
 10
-77.27327649223494
 20
371.3789276637349
 30
0.0
 41
0.8180527420222595
 10
-88.2049608494455
 20
393.6346065595142
 30
0.0
 41
1.0
 10
-99.13664520665604
 20
415.8902854552935
 30
0.0
 41
0.8180527420222595
 10
-81.8936704907096
 20
433.7087250318377
 30
0.0
 41
1.0
 10
-64.65069577476315
 20
451.5271646083818
 30
0.0
 41
0.8180527420222595
 10
-42.04825649654553
 20
441.3317389344725
 30
0.0
 41
1.0
 10
-19.44581721832795
 20
431.1363132605633
 30
0.0
 41
0.8180527420222595
 10
-21.390530829184
 20
406.4171899959838
 30
0.0
 41
1.0
  0
SPLINE
  5
285
330
1F
100
AcDbEntity
  8
WHITE
100
AcDbSpline
210
0.0
220
0.0
230
1.0
 70
    12
 71
     2
 72
     8
 73
     5
 74
     0
 42
0.0000000001
 43
0.0000000001
 40
232.3105515672783
 40
232.3105515672783
 40
232.3105515672783
 40
235.5655084526078
 40
235.5655084526078
 40
238.8204653379373
 40
238.8204653379373
 40
238.8204653379373
 10
-21.39053082918398
 20
406.4171899959837
 30
0.0
 41
1.0
 10
-21.69369232627354
 20
402.563724697135
 30
0.0
 41
0.8062914906199614
 10
-25.46041970018522
 20
401.6960458433113
 30
0.0
 41
1.0
 10
-29.22714707409691
 20
400.8283669894877
 30
0.0
 41
0.8062914906199614
 10
-31.18561860930188
 20
404.1608571918049
 30
0.0
 41
1.0
  0
SPLINE
  5
286
330
1F
100
AcDbEntity
  8
WHITE
100
AcDbSpline
210
0.0
220
0.0
230
1.0
 70
    12
 71
     2
 72
     6
 73
     3
 74
     0
 42
0.0000000001
 43
0.0000000001
 40
238.8204653379373
 40
238.8204653379373
 40
238.8204653379373
 40
246.2482659269868
 40
246.2482659269868
 40
246.2482659269868
 10
-31.18561860930189
 20
404.1608571918049
 30
0.0
 41
1.0
 10
-34.60302495414367
 20
411.0210111883748
 30
0.0
 41
0.989412449858739
 10
-39.8466291113349
 20
416.6107334019652
 30
0.0
 41
1.0
  0
SPLINE
  5
287
330
1F
100
AcDbEntity
  8
WHITE
100
AcDbSpline
210
0.0
220
0.0
230
1.0
 70
    12
 71
     2
 72
     6
 73
     3
 74
     0
 42
0.0000000001
 43
0.0000000001
 40
246.2482659269868
 40
246.2482659269868
 40
246.2482659269868
 40
259.0798042168939
 40
259.0798042168939
 40
259.0798042168939
 10
-39.84662911133492
 20
416.6107334019652
 30
0.0
 41
1.0
 10
-50.99816316243759
 20
428.4983541552541
 30
0.0
 41
0.7335732466652776
 10
-63.70157677242332
 20
418.2858362717664
 30
0.0
 41
1.0
  0
LINE
  5
288
330
1F
100
AcDbEntity
  8
WHITE
100
AcDbLine
 10
-63.70157677242332
 20
418.2858362717664
 30
0.0
 11
-70.08656845149763
 21
424.5210577049555
 31
0.0
  0
LINE
  5
289
330
1F
100
AcDbEntity
  8
WHITE
100
AcDbLine
 10
-70.08656845149763
 20
424.5210577049555
 30
0.0
 11
-72.22086909700151
 21
422.3268449260037
 31
0.0
  0
SPLINE
  5
28A
330
1F
100
AcDbEntity
  8
WHITE
100
AcDbSpline
210
0.0
220
0.0
230
1.0
 70
    15
 71
     2
 72
    12
 73
     9
 74
     0
 42
0.0000000001
 43
0.0000000001
 40
0.0
 40
0.0
 40
0.0
 40
1.04270003050278
 40
1.04270003050278
 40
2.085400061005561
 40
2.085400061005561
 40
3.128100091508341
 40
3.128100091508341
 40
4.170800122011122
 40
4.170800122011122
 40
4.170800122011122
 10
108.3920408911821
 20
-200.862594585702
 30
0.0
 41
1.0
 10
109.6003308450675
 20
-199.7641491730788
 30
0.0
 41
0.7071067811865476
 10
108.5018854324444
 20
-198.5558592191934
 30
0.0
 41
1.0
 10
107.4034400198212
 20
-197.3475692653079
 30
0.0
 41
0.7071067811865476
 10
106.1951500659358
 20
-198.4460146779311
 30
0.0
 41
1.0
 10
104.9868601120504
 20
-199.5444600905542
 30
0.0
 41
0.7071067811865476
 10
106.0853055246735
 20
-200.7527500444396
 30
0.0
 41
1.0
 10
107.1837509372966
 20
-201.9610399983251
 30
0.0
 41
0.7071067811865476
 10
108.3920408911821
 20
-200.862594585702
 30
0.0
 41
1.0
  0
SPLINE
  5
28B
330
1F
100
AcDbEntity
  8
WHITE
100
AcDbSpline
210
0.0
220
0.0
230
1.0
 70
    12
 71
     2
 72
     8
 73
     5
 74
     0
 42
0.0000000001
 43
0.0000000001
 40
0.0000000000000001
 40
0.0000000000000001
 40
0.0000000000000001
 40
2.232040212048453
 40
2.232040212048453
 40
4.464080424096906
 40
4.464080424096906
 40
4.464080424096906
 10
109.6183342020405
 20
-204.3504884645946
 30
0.0
 41
1.0
 10
112.3317140886966
 20
-203.0072916225123
 30
0.0
 41
0.8658627389164559
 10
112.5231960193749
 20
-199.985712095822
 30
0.0
 41
1.0
 10
112.7146779500531
 20
-196.9641325691318
 30
0.0
 41
0.8658627389164559
 10
110.1925642189422
 20
-195.2891548101057
 30
0.0
 41
1.0
  0
SPLINE
  5
28C
330
1F
100
AcDbEntity
  8
WHITE
100
AcDbSpline
210
0.0
220
0.0
230
1.0
 70
     8
 71
     3
 72
    12
 73
     8
 74
     0
 42
0.0000000001
 43
0.0000000001
 40
-5.0
 40
-5.0
 40
-5.0
 40
-5.0
 40
-4.0
 40
-3.0
 40
-2.0
 40
-1.0
 40
0.0
 40
0.0
 40
0.0
 40
0.0
 10
110.1925642189422
 20
-195.2891548101057
 30
0.0
 10
107.8571369674137
 20
-193.7381586532392
 30
0.0
 10
106.0474842889712
 20
-192.541452849753
 30
0.0
 10
105.4378170396874
 20
-190.8215611900287
 30
0.0
 10
105.1227859720056
 20
-184.3634243025526
 30
0.0
 10
104.0201772351194
 20
-175.3850388736223
 30
0.0
 10
102.2875063628697
 20
-164.9890136401241
 30
0.0
 10
99.41590100503643
 20
-156.4403751920723
 30
0.0
  0
SPLINE
  5
28D
330
1F
100
AcDbEntity
  8
WHITE
100
AcDbSpline
210
0.0
220
0.0
230
1.0
 70
    12
 71
     2
 72
     6
 73
     3
 74
     0
 42
0.0000000001
 43
0.0000000001
 40
364.5326189423599
 40
364.5326189423599
 40
364.5326189423599
 40
371.4285135764887
 40
371.4285135764887
 40
371.4285135764887
 10
99.41590100503643
 20
-156.4403751920723
 30
0.0
 41
1.0
 10
96.40869378945715
 20
-150.067773659234
 30
0.0
 41
0.9948111198471907
 10
92.17378418503868
 20
-144.4358214065804
 30
0.0
 41
1.0
  0
SPLINE
  5
28E
330
1F
100
AcDbEntity
  8
WHITE
100
AcDbSpline
210
0.0
220
0.0
230
1.0
 70
    12
 71
     2
 72
     6
 73
     3
 74
     0
 42
0.0000000001
 43
0.0000000001
 40
371.4285135764887
 40
371.4285135764887
 40
371.4285135764887
 40
375.8611956491016
 40
375.8611956491016
 40
375.8611956491016
 10
92.17378418503868
 20
-144.4358214065804
 30
0.0
 41
1.0
 10
88.72551302688397
 20
-141.1881872171066
 30
0.0
 41
0.9392739663988686
 10
83.99579604680005
 20
-140.928419826724
 30
0.0
 41
1.0
  0
SPLINE
  5
28F
330
1F
100
AcDbEntity
  8
WHITE
100
AcDbSpline
210
0.0
220
0.0
230
1.0
 70
    12
 71
     2
 72
     8
 73
     5
 74
     0
 42
0.0000000001
 43
0.0000000001
 40
375.8611956491016
 40
375.8611956491016
 40
375.8611956491016
 40
376.3218466314208
 40
376.3218466314208
 40
376.7824976137401
 40
376.7824976137401
 40
376.7824976137401
 10
83.99579604680005
 20
-140.928419826724
 30
0.0
 41
1.0
 10
83.48889439869593
 20
-140.8879790171177
 30
0.0
 41
0.889892256544861
 10
83.16012356079621
 20
-141.2759151923824
 30
0.0
 41
1.0
 10
82.83135272289648
 20
-141.6638513676471
 30
0.0
 41
0.889892256544861
 10
82.95437071982313
 20
-142.1572592236491
 30
0.0
 41
1.0
  0
LINE
  5
290
330
1F
100
AcDbEntity
  8
WHITE
100
AcDbLine
 10
82.95437071982313
 20
-142.1572592236491
 30
0.0
 11
87.64732562553337
 21
-160.9800402491022
 31
0.0
  0
LINE
  5
291
330
1F
100
AcDbEntity
  8
WHITE
100
AcDbLine
 10
87.64732562553337
 20
-160.9800402491022
 30
0.0
 11
84.68432852904655
 21
-161.7197649737437
 31
0.0
  0
LINE
  5
292
330
1F
100
AcDbEntity
  8
WHITE
100
AcDbLine
 10
84.68432852904655
 20
-161.7197649737437
 30
0.0
 11
79.58002275410468
 21
-141.2802082778973
 31
0.0
  0
SPLINE
  5
293
330
1F
100
AcDbEntity
  8
WHITE
100
AcDbSpline
210
0.0
220
0.0
230
1.0
 70
    12
 71
     2
 72
     6
 73
     3
 74
     0
 42
0.0000000001
 43
0.0000000001
 40
398.0211945090111
 40
398.0211945090111
 40
398.0211945090111
 40
398.6256642638153
 40
398.6256642638153
 40
398.6256642638153
 10
79.58002275410468
 20
-141.2802082778973
 30
0.0
 41
1.0
 10
79.41537428049621
 20
-140.5835883536421
 30
0.0
 41
0.8128210215673797
 10
78.70279337817497
 20
-140.5156406062329
 30
0.0
 41
1.0
  0
SPLINE
  5
294
330
1F
100
AcDbEntity
  8
WHITE
100
AcDbSpline
210
0.0
220
0.0
230
1.0
 70
    12
 71
     2
 72
     6
 73
     3
 74
     0
 42
0.0000000001
 43
0.0000000001
 40
398.6256642638153
 40
398.6256642638153
 40
398.6256642638153
 40
405.8779100204443
 40
405.8779100204443
 40
405.8779100204443
 10
78.70279337817497
 20
-140.5156406062329
 30
0.0
 41
1.0
 10
71.30508356625252
 20
-139.810236186791
 30
0.0
 41
0.9998020069410851
 10
63.94129925653606
 20
-138.8110432643006
 30
0.0
 41
1.0
  0
LINE
  5
295
330
1F
100
AcDbEntity
  8
WHITE
100
AcDbLine
 10
63.94129925653606
 20
-138.8110432643006
 30
0.0
 11
63.80401012434351
 21
-159.2239624401885
 31
0.0
  0
LINE
  5
296
330
1F
100
AcDbEntity
  8
WHITE
100
AcDbLine
 10
63.80401012434351
 20
-159.2239624401885
 30
0.0
 11
60.75904906944763
 21
-159.2239624401885
 31
0.0
  0
LINE
  5
297
330
1F
100
AcDbEntity
  8
WHITE
100
AcDbLine
 10
60.75904906944763
 20
-159.2239624401885
 30
0.0
 11
61.00494094467478
 21
-116.6682752342146
 31
0.0
  0
LINE
  5
298
330
1F
100
AcDbEntity
  8
WHITE
100
AcDbLine
 10
61.00494094467478
 20
-116.6682752342146
 30
0.0
 11
43.4175245690549
 21
-116.6682752342146
 31
0.0
  0
LINE
  5
299
330
1F
100
AcDbEntity
  8
WHITE
100
AcDbLine
 10
43.4175245690549
 20
-116.6682752342146
 30
0.0
 11
43.4175245690549
 21
-113.7052781377278
 31
0.0
  0
LINE
  5
29A
330
1F
100
AcDbEntity
  8
WHITE
100
AcDbLine
 10
43.4175245690549
 20
-113.7052781377278
 30
0.0
 11
61.00494094467478
 21
-113.7052781377278
 31
0.0
  0
LINE
  5
29B
330
1F
100
AcDbEntity
  8
WHITE
100
AcDbLine
 10
61.00494094467478
 20
-113.7052781377278
 30
0.0
 11
61.17091759312753
 21
-90.73897700237558
 31
0.0
  0
SPLINE
  5
29C
330
1F
100
AcDbEntity
  8
WHITE
100
AcDbSpline
210
0.0
220
0.0
230
1.0
 70
    12
 71
     2
 72
     6
 73
     3
 74
     0
 42
0.0000000001
 43
0.0000000001
 40
467.9146746995368
 40
467.9146746995368
 40
467.9146746995368
 40
473.7187720492337
 40
473.7187720492337
 40
473.7187720492337
 10
61.17091759312753
 20
-90.73897700237558
 30
0.0
 41
1.0
 10
61.19179879395381
 20
-83.72758998861495
 30
0.0
 41
0.7870141772881754
 10
54.38821593700677
 20
-82.03311538274592
 30
0.0
 41
1.0
  0
LINE
  5
29D
330
1F
100
AcDbEntity
  8
WHITE
100
AcDbLine
 10
54.38821593700677
 20
-82.03311538274592
 30
0.0
 11
54.39249860002545
 21
-95.95393384528981
 31
0.0
  0
LINE
  5
29E
330
1F
100
AcDbEntity
  8
WHITE
100
AcDbLine
 10
54.39249860002545
 20
-95.95393384528981
 30
0.0
 11
51.34753754512953
 21
-95.95393384528981
 31
0.0
  0
LINE
  5
29F
330
1F
100
AcDbEntity
  8
WHITE
100
AcDbLine
 10
51.34753754512953
 20
-95.95393384528981
 30
0.0
 11
51.34754348958101
 21
-81.76822481269208
 31
0.0
  0
SPLINE
  5
2A0
330
1F
100
AcDbEntity
  8
WHITE
100
AcDbSpline
210
0.0
220
0.0
230
1.0
 70
    12
 71
     2
 72
     6
 73
     3
 74
     0
 42
0.0000000001
 43
0.0000000001
 40
488.9213023707194
 40
488.9213023707194
 40
488.9213023707194
 40
496.3019646654586
 40
496.3019646654586
 40
496.3019646654586
 10
51.34754348958101
 20
-81.76822481269208
 30
0.0
 41
1.0
 10
43.06176903462318
 20
-82.841800624655
 30
0.0
 41
0.863496344390796
 10
38.05626342132649
 20
-76.15214167238258
 30
0.0
 41
1.0
  0
SPLINE
  5
2A1
330
1F
100
AcDbEntity
  8
WHITE
100
AcDbSpline
210
0.0
220
0.0
230
1.0
 70
    12
 71
     2
 72
     8
 73
     5
 74
     0
 42
0.0000000001
 43
0.0000000001
 40
496.3019646654586
 40
496.3019646654586
 40
496.3019646654586
 40
498.4095207746262
 40
498.4095207746262
 40
500.5170768837937
 40
500.5170768837937
 40
500.5170768837937
 10
38.05626342132649
 20
-76.15214167238258
 30
0.0
 41
1.0
 10
36.33627164803892
 20
-74.54039509269283
 30
0.0
 41
0.8787269836310003
 10
34.04798601887344
 20
-75.10594581249924
 30
0.0
 41
1.0
 10
31.75970038970797
 20
-75.6714965323057
 30
0.0
 41
0.8787269836310003
 10
30.98856271955185
 20
-77.89892676263494
 30
0.0
 41
1.0
  0
LINE
  5
2A2
330
1F
100
AcDbEntity
  8
WHITE
100
AcDbLine
 10
30.98856271955185
 20
-77.89892676263494
 30
0.0
 11
34.33591797733319
 21
-83.05710989952334
 31
0.0
  0
LINE
  5
2A3
330
1F
100
AcDbEntity
  8
WHITE
100
AcDbLine
 10
34.33591797733319
 20
-83.05710989952334
 30
0.0
 11
31.8401154437779
 21
-84.67569316820581
 31
0.0
  0
LINE
  5
2A4
330
1F
100
AcDbEntity
  8
WHITE
100
AcDbLine
 10
31.8401154437779
 20
-84.67569316820581
 30
0.0
 11
25.91412159993843
 21
-75.5123278517612
 31
0.0
  0
SPLINE
  5
2A5
330
1F
100
AcDbEntity
  8
WHITE
100
AcDbSpline
210
0.0
220
0.0
230
1.0
 70
    12
 71
     2
 72
     6
 73
     3
 74
     0
 42
0.0000000001
 43
0.0000000001
 40
510.2952328177979
 40
510.2952328177979
 40
510.2952328177979
 40
518.834118404642
 40
518.834118404642
 40
518.834118404642
 10
25.91412159993843
 20
-75.5123278517612
 30
0.0
 41
1.0
 10
15.87596394228686
 20
-78.05448087117368
 30
0.0
 41
0.7827322045516557
 10
16.09074110672896
 20
-88.40730763025796
 30
0.0
 41
1.0
  0
LINE
  5
2A6
330
1F
100
AcDbEntity
  8
WHITE
100
AcDbLine
 10
16.09074110672896
 20
-88.40730763025796
 30
0.0
 11
30.1662065031693
 21
-93.45628712267032
 31
0.0
  0
LINE
  5
2A7
330
1F
100
AcDbEntity
  8
WHITE
100
AcDbLine
 10
30.1662065031693
 20
-93.45628712267032
 30
0.0
 11
29.17833589444433
 21
-96.2266689168959
 31
0.0
  0
LINE
  5
2A8
330
1F
100
AcDbEntity
  8
WHITE
100
AcDbLine
 10
29.17833589444433
 20
-96.2266689168959
 30
0.0
 11
-0.7569507929000506
 21
-85.69225110589056
 31
0.0
  0
SPLINE
  5
2A9
330
1F
100
AcDbEntity
  8
WHITE
100
AcDbSpline
210
0.0
220
0.0
230
1.0
 70
    12
 71
     2
 72
     6
 73
     3
 74
     0
 42
0.0000000001
 43
0.0000000001
 40
543.0543412622061
 40
543.0543412622061
 40
543.0543412622061
 40
547.2495088629541
 40
547.2495088629541
 40
547.2495088629541
 10
-0.7569507929000506
 20
-85.69225110589056
 30
0.0
 41
1.0
 10
-5.647796113342103
 20
-83.96791441030673
 30
0.0
 41
0.761935604334904
 10
-8.13748673806384
 20
-88.51710616065091
 30
0.0
 41
1.0
  0
SPLINE
  5
2AA
330
1F
100
AcDbEntity
  8
WHITE
100
AcDbSpline
210
0.0
220
0.0
230
1.0
 70
    12
 71
     2
 72
     6
 73
     3
 74
     0
 42
0.0000000001
 43
0.0000000001
 40
547.2495088629541
 40
547.2495088629541
 40
547.2495088629541
 40
554.3291220541532
 40
554.3291220541532
 40
554.3291220541532
 10
-8.13748673806384
 20
-88.51710616065091
 30
0.0
 41
1.0
 10
-11.4256812034102
 20
-95.45666915198322
 30
0.0
 41
0.9188719810863418
 10
-8.658275641632956
 20
-102.6198544636478
 30
0.0
 41
1.0
  0
SPLINE
  5
2AB
330
1F
100
AcDbEntity
  8
WHITE
100
AcDbSpline
210
0.0
220
0.0
230
1.0
 70
    12
 71
     2
 72
     8
 73
     5
 74
     0
 42
0.0000000001
 43
0.0000000001
 40
554.3291220541532
 40
554.3291220541532
 40
554.3291220541532
 40
555.9205161334532
 40
555.9205161334532
 40
557.5119102127533
 40
557.5119102127533
 40
557.5119102127533
 10
-8.658275641632956
 20
-102.6198544636478
 30
0.0
 41
1.0
 10
-7.834493988148286
 20
-104.2188139137604
 30
0.0
 41
0.8595507782388817
 10
-6.036248746624212
 20
-104.2588337470721
 30
0.0
 41
1.0
 10
-4.238003505100144
 20
-104.298853580384
 30
0.0
 41
0.8595507782388817
 10
-3.343903206516128
 20
-102.738125483695
 30
0.0
 41
1.0
  0
LINE
  5
2AC
330
1F
100
AcDbEntity
  8
WHITE
100
AcDbLine
 10
-3.343903206516128
 20
-102.738125483695
 30
0.0
 11
-0.0702975843116468
 21
-97.02376851485714
 31
0.0
  0
SPLINE
  5
2AD
330
1F
100
AcDbEntity
  8
WHITE
100
AcDbSpline
210
0.0
220
0.0
230
1.0
 70
    12
 71
     2
 72
     6
 73
     3
 74
     0
 42
0.0000000001
 43
0.0000000001
 40
560.7258196620032
 40
560.7258196620032
 40
560.7258196620032
 40
562.5465968677603
 40
562.5465968677603
 40
562.5465968677603
 10
-0.0702975843116468
 20
-97.02376851485714
 30
0.0
 41
1.0
 10
1.023718154584218
 20
-95.09186256339933
 30
0.0
 41
0.7751283288109021
 10
3.136544985639573
 20
-95.77384044002196
 30
0.0
 41
1.0
  0
SPLINE
  5
2AE
330
1F
100
AcDbEntity
  8
WHITE
100
AcDbSpline
210
0.0
220
0.0
230
1.0
 70
    12
 71
     2
 72
     6
 73
     3
 74
     0
 42
0.0000000001
 43
0.0000000001
 40
562.5465968677603
 40
562.5465968677603
 40
562.5465968677603
 40
570.2134218774986
 40
570.2134218774986
 40
570.2134218774986
 10
3.136544985639573
 20
-95.77384044002196
 30
0.0
 41
1.0
 10
11.38992085518528
 20
-98.4378636660381
 30
0.0
 41
0.8644031017946555
 10
13.15458676765917
 20
-106.9291054603875
 30
0.0
 41
1.0
  0
SPLINE
  5
2AF
330
1F
100
AcDbEntity
  8
WHITE
100
AcDbSpline
210
0.0
220
0.0
230
1.0
 70
    12
 71
     2
 72
     6
 73
     3
 74
     0
 42
0.0000000001
 43
0.0000000001
 40
570.2134218774986
 40
570.2134218774986
 40
570.2134218774986
 40
582.9347767542845
 40
582.9347767542845
 40
582.9347767542845
 10
13.15458676765917
 20
-106.9291054603875
 30
0.0
 41
1.0
 10
14.8055282723958
 20
-121.3685857460826
 30
0.0
 41
0.8521482611976721
 10
28.43025305921675
 20
-126.4273477741313
 30
0.0
 41
1.0
  0
SPLINE
  5
2B0
330
1F
100
AcDbEntity
  8
WHITE
100
AcDbSpline
210
0.0
220
0.0
230
1.0
 70
    12
 71
     2
 72
     6
 73
     3
 74
     0
 42
0.0000000001
 43
0.0000000001
 40
582.9347767542845
 40
582.9347767542845
 40
582.9347767542845
 40
587.9959570196725
 40
587.9959570196725
 40
587.9959570196725
 10
28.43025305921675
 20
-126.4273477741313
 30
0.0
 41
1.0
 10
34.97292500776847
 20
-126.9902822435087
 30
0.0
 41
0.7123688676716873
 10
34.50779307154178
 20
-133.540633663477
 30
0.0
 41
1.0
  0
LINE
  5
2B1
330
1F
100
AcDbEntity
  8
WHITE
100
AcDbLine
 10
34.50779307154178
 20
-133.540633663477
 30
0.0
 11
34.1168693400749
 21
-141.5547870107997
 31
0.0
  0
SPLINE
  5
2B2
330
1F
100
AcDbEntity
  8
WHITE
100
AcDbSpline
210
0.0
220
0.0
230
1.0
 70
    12
 71
     2
 72
     6
 73
     3
 74
     0
 42
0.0000000001
 43
0.0000000001
 40
591.9116692426439
 40
591.9116692426439
 40
591.9116692426439
 40
596.4012999850955
 40
596.4012999850955
 40
596.4012999850955
 10
34.1168693400749
 20
-141.5547870107997
 30
0.0
 41
1.0
 10
33.8535060468955
 20
-146.6929291210713
 30
0.0
 41
0.8484119048441723
 10
29.12269733566059
 20
-148.7151342311541
 30
0.0
 41
1.0
  0
SPLINE
  5
2B3
330
1F
100
AcDbEntity
  8
WHITE
100
AcDbSpline
210
0.0
220
0.0
230
1.0
 70
    12
 71
     2
 72
     6
 73
     3
 74
     0
 42
0.0000000001
 43
0.0000000001
 40
596.4012999850955
 40
596.4012999850955
 40
596.4012999850955
 40
604.0039657849494
 40
604.0039657849494
 40
604.0039657849494
 10
29.12269671553466
 20
-148.715131642269
 30
0.0
 41
1.0
 10
21.47594927382559
 20
-150.4343182703122
 30
0.0
 41
0.9907785714911427
 10
13.64838429585451
 20
-150.0373603191796
 30
0.0
 41
1.0
  0
SPLINE
  5
2B4
330
1F
100
AcDbEntity
  8
WHITE
100
AcDbSpline
210
0.0
220
0.0
230
1.0
 70
    12
 71
     2
 72
     6
 73
     3
 74
     0
 42
0.0000000001
 43
0.0000000001
 40
604.0039657849494
 40
604.0039657849494
 40
604.0039657849494
 40
608.337368198772
 40
608.337368198772
 40
608.337368198772
 10
13.64838429585451
 20
-150.0373603191796
 30
0.0
 41
1.0
 10
8.35466690808307
 20
-150.2357817202598
 30
0.0
 41
0.7739407495386278
 10
7.501171577470547
 20
-155.4640090063123
 30
0.0
 41
1.0
  0
SPLINE
  5
2B5
330
1F
100
AcDbEntity
  8
WHITE
100
AcDbSpline
210
0.0
220
0.0
230
1.0
 70
    12
 71
     2
 72
     6
 73
     3
 74
     0
 42
0.0000000001
 43
0.0000000001
 40
608.337368198772
 40
608.337368198772
 40
608.337368198772
 40
618.5067746570438
 40
618.5067746570438
 40
618.5067746570438
 10
7.501171577470547
 20
-155.4640090063123
 30
0.0
 41
1.0
 10
6.614052191504445
 20
-165.8468654349803
 30
0.0
 41
0.9996319610793916
 10
6.291368831307388
 20
-176.2625537882455
 30
0.0
 41
1.0
  0
LINE
  5
2B6
330
1F
100
AcDbEntity
  8
WHITE
100
AcDbLine
 10
6.291368831307388
 20
-176.2625537882455
 30
0.0
 11
6.267565411515834
 21
-177.0308890446376
 31
0.0
  0
SPLINE
  5
2B7
330
1F
100
AcDbEntity
  8
WHITE
100
AcDbSpline
210
0.0
220
0.0
230
1.0
 70
    12
 71
     2
 72
     6
 73
     3
 74
     0
 42
0.0000000001
 43
0.0000000001
 40
618.8819165717015
 40
618.8819165717015
 40
618.8819165717015
 40
632.8332763237139
 40
632.8332763237139
 40
632.8332763237139
 10
6.267565411515834
 20
-177.0308890446376
 30
0.0
 41
1.0
 10
5.983888639000308
 20
-191.3333616275329
 30
0.0
 41
0.9988022679224242
 10
7.099500036121778
 20
-205.5950798166695
 30
0.0
 41
1.0
  0
SPLINE
  5
2B8
330
1F
100
AcDbEntity
  8
WHITE
100
AcDbSpline
210
0.0
220
0.0
230
1.0
 70
    12
 71
     2
 72
     6
 73
     3
 74
     0
 42
0.0000000001
 43
0.0000000001
 40
632.8332763237139
 40
632.8332763237139
 40
632.8332763237139
 40
639.7934867300605
 40
639.7934867300605
 40
639.7934867300605
 10
7.099500036121778
 20
-205.5950798166695
 30
0.0
 41
1.0
 10
7.415112930942115
 20
-214.1541717493066
 30
0.0
 41
0.7668084684474088
 10
15.89615832770477
 20
-215.3498034604788
 30
0.0
 41
1.0
  0
LINE
  5
2B9
330
1F
100
AcDbEntity
  8
WHITE
100
AcDbLine
 10
15.89615832770477
 20
-215.3498034604788
 30
0.0
 11
15.8983304431156
 21
-186.8255303443289
 31
0.0
  0
LINE
  5
2BA
330
1F
100
AcDbEntity
  8
WHITE
100
AcDbLine
 10
15.8983304431156
 20
-186.8255303443289
 30
0.0
 11
18.86132753960232
 21
-186.8255303443289
 31
0.0
  0
LINE
  5
2BB
330
1F
100
AcDbEntity
  8
WHITE
100
AcDbLine
 10
18.86132753960232
 20
-186.8255303443289
 30
0.0
 11
18.86132753960232
 21
-215.6071743396635
 31
0.0
  0
LINE
  5
2BC
330
1F
100
AcDbEntity
  8
WHITE
100
AcDbLine
 10
18.86132753960232
 20
-215.6071743396635
 30
0.0
 11
50.30454570507872
 21
-217.9677382737351
 31
0.0
  0
SPLINE
  5
2BD
330
1F
100
AcDbEntity
  8
WHITE
100
AcDbSpline
210
0.0
220
0.0
230
1.0
 70
    12
 71
     2
 72
     6
 73
     3
 74
     0
 42
0.0000000001
 43
0.0000000001
 40
684.5939665974041
 40
684.5939665974041
 40
684.5939665974041
 40
691.4969927620702
 40
691.4969927620702
 40
691.4969927620702
 10
50.30454570507872
 20
-217.9677382737351
 30
0.0
 41
1.0
 10
58.97911450328594
 20
-218.650575460308
 30
0.0
 41
0.7404658217142307
 10
59.13725286787788
 20
-227.3505411335645
 30
0.0
 41
1.0
  0
SPLINE
  5
2BE
330
1F
100
AcDbEntity
  8
WHITE
100
AcDbSpline
210
0.0
220
0.0
230
1.0
 70
    12
 71
     2
 72
     6
 73
     3
 74
     0
 42
0.0000000001
 43
0.0000000001
 40
691.4969927620702
 40
691.4969927620702
 40
691.4969927620702
 40
709.3021821928537
 40
709.3021821928537
 40
709.3021821928537
 10
59.13725286787788
 20
-227.3505411335645
 30
0.0
 41
1.0
 10
59.47050070170383
 20
-245.6841360360584
 30
0.0
 41
0.9923016602513854
 10
55.2874614448649
 20
-263.53725729659
 30
0.0
 41
1.0
  0
SPLINE
  5
2BF
330
1F
100
AcDbEntity
  8
WHITE
100
AcDbSpline
210
0.0
220
0.0
230
1.0
 70
    12
 71
     2
 72
     6
 73
     3
 74
     0
 42
0.0000000001
 43
0.0000000001
 40
709.3021821928537
 40
709.3021821928537
 40
709.3021821928537
 40
735.1155008508265
 40
735.1155008508265
 40
735.1155008508265
 10
55.2874614448649
 20
-263.53725729659
 30
0.0
 41
1.0
 10
47.89805593319338
 20
-290.9704800558931
 30
0.0
 41
0.9006061422616122
 10
21.82379371800156
 20
-302.2540023211647
 30
0.0
 41
1.0
  0
SPLINE
  5
2C0
330
1F
100
AcDbEntity
  8
WHITE
100
AcDbSpline
210
0.0
220
0.0
230
1.0
 70
    12
 71
     2
 72
     8
 73
     5
 74
     0
 42
0.0000000001
 43
0.0000000001
 40
735.1155008508265
 40
735.1155008508265
 40
735.1155008508265
 40
740.0142729546271
 40
740.0142729546271
 40
744.9130450584278
 40
744.9130450584278
 40
744.9130450584278
 10
21.82379371800156
 20
-302.2540023211647
 30
0.0
 41
1.0
 10
16.80064781302767
 20
-304.4384845355632
 30
0.0
 41
0.8798432931956758
 10
12.21979952473968
 20
-301.435188631499
 30
0.0
 41
1.0
 10
7.638951236451685
 20
-298.4318927274348
 30
0.0
 41
0.8798432931956758
 10
7.639211274911105
 20
-292.9543059175285
 30
0.0
 41
1.0
  0
LINE
  5
2C1
330
1F
100
AcDbEntity
  8
WHITE
100
AcDbLine
 10
7.639211274911105
 20
-292.9543059175285
 30
0.0
 11
7.640461773761319
 21
-266.6131407518244
 31
0.0
  0
SPLINE
  5
2C2
330
1F
100
AcDbEntity
  8
WHITE
100
AcDbSpline
210
0.0
220
0.0
230
1.0
 70
    12
 71
     2
 72
     6
 73
     3
 74
     0
 42
0.0000000001
 43
0.0000000001
 40
757.7680440729008
 40
757.7680440729008
 40
757.7680440729008
 40
760.1293369115828
 40
760.1293369115828
 40
760.1293369115828
 10
7.640461773761319
 20
-266.6131407518244
 30
0.0
 41
1.0
 10
7.63836782852881
 20
-263.5415882799603
 30
0.0
 41
0.7073509254880126
 10
4.566814643043224
 20
-263.5415608152747
 30
0.0
 41
1.0
  0
LINE
  5
2C3
330
1F
100
AcDbEntity
  8
WHITE
100
AcDbLine
 10
4.566814643043224
 20
-263.5415608152747
 30
0.0
 11
2.398867144041051
 21
-263.5415414302949
 31
0.0
  0
SPLINE
  5
2C4
330
1F
100
AcDbEntity
  8
WHITE
100
AcDbSpline
210
0.0
220
0.0
230
1.0
 70
    12
 71
     2
 72
     6
 73
     3
 74
     0
 42
0.0000000001
 43
0.0000000001
 40
761.18733791163
 40
761.18733791163
 40
761.18733791163
 40
763.0012476655635
 40
763.0012476655635
 40
763.0012476655635
 10
2.398867144041051
 20
-263.5415414302949
 30
0.0
 41
1.0
 10
0.2810533316182159
 20
-263.5581501209815
 30
0.0
 41
0.8240271544618868
 10
-0.4617042792655875
 20
-265.5415114910222
 30
0.0
 41
1.0
  0
SPLINE
  5
2C5
330
1F
100
AcDbEntity
  8
WHITE
100
AcDbSpline
210
0.0
220
0.0
230
1.0
 70
    12
 71
     2
 72
     6
 73
     3
 74
     0
 42
0.0000000001
 43
0.0000000001
 40
763.0012476655635
 40
763.0012476655635
 40
763.0012476655635
 40
783.6345072394723
 40
783.6345072394723
 40
783.6345072394723
 10
-0.4617042792655875
 20
-265.5415114910222
 30
0.0
 41
1.0
 10
-8.080604390327757
 20
-285.8860114208157
 30
0.0
 41
0.9601243197685647
 10
-3.586544289552074
 20
-307.1404166137711
 30
0.0
 41
1.0
  0
SPLINE
  5
2C6
330
1F
100
AcDbEntity
  8
WHITE
100
AcDbSpline
210
0.0
220
0.0
230
1.0
 70
    12
 71
     2
 72
     6
 73
     3
 74
     0
 42
0.0000000001
 43
0.0000000001
 40
783.6345072394723
 40
783.6345072394723
 40
783.6345072394723
 40
795.2476513319282
 40
795.2476513319282
 40
795.2476513319282
 10
-3.586544289552074
 20
-307.1404166137711
 30
0.0
 41
1.0
 10
-1.281039791339542
 20
-320.3836627482731
 30
0.0
 41
0.8362693880696778
 10
11.78332390803088
 20
-323.5493096491219
 30
0.0
 41
1.0
  0
SPLINE
  5
2C7
330
1F
100
AcDbEntity
  8
WHITE
100
AcDbSpline
210
0.0
220
0.0
230
1.0
 70
    12
 71
     2
 72
     6
 73
     3
 74
     0
 42
0.0000000001
 43
0.0000000001
 40
795.2476513319282
 40
795.2476513319282
 40
795.2476513319282
 40
797.2139375684706
 40
797.2139375684706
 40
797.2139375684706
 10
11.78332390803088
 20
-323.5493096491219
 30
0.0
 41
1.0
 10
13.78824485668796
 20
-323.3528367151848
 30
0.0
 41
0.9998650743404389
 10
15.78562992441611
 20
-323.0906106383911
 30
0.0
 41
1.0
  0
SPLINE
  5
2C8
330
1F
100
AcDbEntity
  8
WHITE
100
AcDbSpline
210
0.0
220
0.0
230
1.0
 70
    12
 71
     2
 72
     8
 73
     5
 74
     0
 42
0.0000000001
 43
0.0000000001
 40
797.2139375684706
 40
797.2139375684706
 40
797.2139375684706
 40
798.0525927782755
 40
798.0525927782755
 40
798.8912479880804
 40
798.8912479880804
 40
798.8912479880804
 10
15.78562992441611
 20
-323.0906106383911
 30
0.0
 41
1.0
 10
16.74826972217489
 20
-322.96423077223
 30
0.0
 41
0.836095079502234
 10
17.01557320153983
 20
-322.0308519098598
 30
0.0
 41
1.0
 10
17.28287668090478
 20
-321.0974730474897
 30
0.0
 41
0.836095079502234
 10
16.5330692402057
 20
-320.4806780631778
 30
0.0
 41
1.0
  0
LINE
  5
2C9
330
1F
100
AcDbEntity
  8
WHITE
100
AcDbLine
 10
16.5330692402057
 20
-320.4806780631778
 30
0.0
 11
13.73038374319641
 21
-318.0047475800779
 31
0.0
  0
LINE
  5
2CA
330
1F
100
AcDbEntity
  8
WHITE
100
AcDbLine
 10
13.73038374319641
 20
-318.0047475800779
 30
0.0
 11
15.70571514085425
 21
-315.6441855778975
 31
0.0
  0
LINE
  5
2CB
330
1F
100
AcDbEntity
  8
WHITE
100
AcDbLine
 10
15.70571514085425
 20
-315.6441855778975
 30
0.0
 11
22.81199018714069
 21
-321.6808312432462
 31
0.0
  0
SPLINE
  5
2CC
330
1F
100
AcDbEntity
  8
WHITE
100
AcDbSpline
210
0.0
220
0.0
230
1.0
 70
    12
 71
     2
 72
     6
 73
     3
 74
     0
 42
0.0000000001
 43
0.0000000001
 40
806.7687988584897
 40
806.7687988584897
 40
806.7687988584897
 40
812.9238221204904
 40
812.9238221204904
 40
812.9238221204904
 10
22.81199018714069
 20
-321.6808312432462
 30
0.0
 41
1.0
 10
28.93910182233567
 20
-320.1115559347957
 30
0.0
 41
0.9955579364079392
 10
34.66340237722859
 20
-317.4214806308112
 30
0.0
 41
1.0
  0
LINE
  5
2CD
330
1F
100
AcDbEntity
  8
WHITE
100
AcDbLine
 10
34.66340237722859
 20
-317.4214806308112
 30
0.0
 11
29.37095119670556
 21
-311.804174126434
 31
0.0
  0
LINE
  5
2CE
330
1F
100
AcDbEntity
  8
WHITE
100
AcDbLine
 10
29.37095119670556
 20
-311.804174126434
 30
0.0
 11
31.59217446959055
 21
-309.6628657129978
 31
0.0
  0
LINE
  5
2CF
330
1F
100
AcDbEntity
  8
WHITE
100
AcDbLine
 10
31.59217446959055
 20
-309.6628657129978
 30
0.0
 11
37.5468176604324
 21
-315.9741229686371
 31
0.0
  0
SPLINE
  5
2D0
330
1F
100
AcDbEntity
  8
WHITE
100
AcDbSpline
210
0.0
220
0.0
230
1.0
 70
    12
 71
     2
 72
     6
 73
     3
 74
     0
 42
0.0000000001
 43
0.0000000001
 40
822.4304608166295
 40
822.4304608166295
 40
822.4304608166295
 40
829.0176322197073
 40
829.0176322197073
 40
829.0176322197073
 10
37.5468176604324
 20
-315.9741229686371
 30
0.0
 41
1.0
 10
43.52802550210487
 20
-312.7986617897269
 30
0.0
 41
0.9949131912378238
 10
48.75132968575736
 20
-308.4887320514263
 30
0.0
 41
1.0
  0
LINE
  5
2D1
330
1F
100
AcDbEntity
  8
WHITE
100
AcDbLine
 10
48.75132968575736
 20
-308.4887320514263
 30
0.0
 11
41.90938773432853
 21
-302.0074319975934
 31
0.0
  0
LINE
  5
2D2
330
1F
100
AcDbEntity
  8
WHITE
100
AcDbLine
 10
41.90938773432853
 20
-302.0074319975934
 30
0.0
 11
43.99537047583863
 21
-299.8128470111914
 31
0.0
  0
LINE
  5
2D3
330
1F
100
AcDbEntity
  8
WHITE
100
AcDbLine
 10
43.99537047583863
 20
-299.8128470111914
 30
0.0
 11
51.07292734644925
 21
-306.4806436806273
 31
0.0
  0
SPLINE
  5
2D4
330
1F
100
AcDbEntity
  8
WHITE
100
AcDbSpline
210
0.0
220
0.0
230
1.0
 70
    12
 71
     2
 72
     6
 73
     3
 74
     0
 42
0.0000000001
 43
0.0000000001
 40
839.8399247071986
 40
839.8399247071986
 40
839.8399247071986
 40
846.09339869591
 40
846.09339869591
 40
846.09339869591
 10
51.07292734644925
 20
-306.4806436806273
 30
0.0
 41
1.0
 10
55.83834081666142
 20
-302.1686999233304
 30
0.0
 41
0.9954149221270586
 10
59.6954533228493
 20
-297.0282030968766
 30
0.0
 41
1.0
  0
LINE
  5
2D5
330
1F
100
AcDbEntity
  8
WHITE
100
AcDbLine
 10
59.6954533228493
 20
-297.0282030968766
 30
0.0
 11
52.3618415304414
 21
-291.1431093104751
 31
0.0
  0
LINE
  5
2D6
330
1F
100
AcDbEntity
  8
WHITE
100
AcDbLine
 10
52.3618415304414
 20
-291.1431093104751
 30
0.0
 11
54.28389635513347
 21
-288.7559090218118
 31
0.0
  0
LINE
  5
2D7
330
1F
100
AcDbEntity
  8
WHITE
100
AcDbLine
 10
54.28389635513347
 20
-288.7559090218118
 30
0.0
 11
61.49877442217512
 21
-294.5446130695399
 31
0.0
  0
SPLINE
  5
2D8
330
1F
100
AcDbEntity
  8
WHITE
100
AcDbSpline
210
0.0
220
0.0
230
1.0
 70
    12
 71
     2
 72
     6
 73
     3
 74
     0
 42
0.0000000001
 43
0.0000000001
 40
856.6921302096586
 40
856.6921302096586
 40
856.6921302096586
 40
863.6275609223268
 40
863.6275609223268
 40
863.6275609223268
 10
61.49877442217512
 20
-294.5446130695399
 30
0.0
 41
1.0
 10
65.24773952796453
 20
-288.496161475694
 30
0.0
 41
0.9978130310588084
 10
68.16609344262754
 20
-282.0060369409647
 30
0.0
 41
1.0
  0
LINE
  5
2D9
330
1F
100
AcDbEntity
  8
WHITE
100
AcDbLine
 10
68.16609344262754
 20
-282.0060369409647
 30
0.0
 11
60.12792658969802
 21
-278.4120574705908
 31
0.0
  0
LINE
  5
2DA
330
1F
100
AcDbEntity
  8
WHITE
100
AcDbLine
 10
60.12792658969802
 20
-278.4120574705908
 30
0.0
 11
61.44549722112331
 21
-275.6683139628482
 31
0.0
  0
LINE
  5
2DB
330
1F
100
AcDbEntity
  8
WHITE
100
AcDbLine
 10
61.44549722112331
 20
-275.6683139628482
 30
0.0
 11
69.40214871562016
 21
-279.2071084360815
 31
0.0
  0
SPLINE
  5
2DC
330
1F
100
AcDbEntity
  8
WHITE
100
AcDbSpline
210
0.0
220
0.0
230
1.0
 70
    12
 71
     2
 72
     6
 73
     3
 74
     0
 42
0.0000000001
 43
0.0000000001
 40
873.6597104067978
 40
873.6597104067978
 40
873.6597104067978
 40
880.168207669677
 40
880.168207669677
 40
880.168207669677
 10
69.40214871562016
 20
-279.2071084360815
 30
0.0
 41
1.0
 10
71.97479025060214
 20
-273.0457839620153
 30
0.0
 41
0.9980739150255923
 10
73.76465542067996
 20
-266.6133049363841
 30
0.0
 41
1.0
  0
LINE
  5
2DD
330
1F
100
AcDbEntity
  8
WHITE
100
AcDbLine
 10
73.76465542067996
 20
-266.6133049363841
 30
0.0
 11
65.75270323551845
 21
-264.3921223847245
 31
0.0
  0
LINE
  5
2DE
330
1F
100
AcDbEntity
  8
WHITE
100
AcDbLine
 10
65.75270323551845
 20
-264.3921223847245
 30
0.0
 11
66.60307930401221
 21
-261.4291252882376
 31
0.0
  0
LINE
  5
2DF
330
1F
100
AcDbEntity
  8
WHITE
100
AcDbLine
 10
66.60307930401221
 20
-261.4291252882376
 30
0.0
 11
74.55973020327352
 21
-263.5950230398371
 31
0.0
  0
SPLINE
  5
2E0
330
1F
100
AcDbEntity
  8
WHITE
100
AcDbSpline
210
0.0
220
0.0
230
1.0
 70
    12
 71
     2
 72
     6
 73
     3
 74
     0
 42
0.0000000001
 43
0.0000000001
 40
889.7543396820643
 40
889.7543396820643
 40
889.7543396820643
 40
896.1420688476397
 40
896.1420688476397
 40
896.1420688476397
 10
74.55973020327352
 20
-263.5950230398371
 30
0.0
 41
1.0
 10
76.13188410745992
 20
-257.2337655789336
 30
0.0
 41
0.99814481368532
 10
76.91921446070457
 20
-250.728584928313
 30
0.0
 41
1.0
  0
LINE
  5
2E1
330
1F
100
AcDbEntity
  8
WHITE
100
AcDbLine
 10
76.91921446070457
 20
-250.728584928313
 30
0.0
 11
69.23617146790266
 21
-249.2187494941468
 31
0.0
  0
LINE
  5
2E2
330
1F
100
AcDbEntity
  8
WHITE
100
AcDbLine
 10
69.23617146790266
 20
-249.2187494941468
 30
0.0
 11
69.64804035890806
 21
-246.2002218158379
 31
0.0
  0
LINE
  5
2E3
330
1F
100
AcDbEntity
  8
WHITE
100
AcDbLine
 10
69.64804035890806
 20
-246.2002218158379
 30
0.0
 11
77.24815441706897
 21
-247.7104566107234
 31
0.0
  0
SPLINE
  5
2E4
330
1F
100
AcDbEntity
  8
WHITE
100
AcDbSpline
210
0.0
220
0.0
230
1.0
 70
    12
 71
     2
 72
     6
 73
     3
 74
     0
 42
0.0000000001
 43
0.0000000001
 40
905.2315276773287
 40
905.2315276773287
 40
905.2315276773287
 40
911.1971535202204
 40
911.1971535202204
 40
911.1971535202204
 10
77.24815441706897
 20
-247.7104566107234
 30
0.0
 41
1.0
 10
77.80167456103602
 20
-241.6168630725228
 30
0.0
 41
0.9983821237828382
 10
77.65976510849453
 20
-235.4998271509463
 30
0.0
 41
1.0
  0
LINE
  5
2E5
330
1F
100
AcDbEntity
  8
WHITE
100
AcDbLine
 10
77.65976510849453
 20
-235.4998271509463
 30
0.0
 11
70.0865475363965
 21
-234.0183284972942
 31
0.0
  0
LINE
  5
2E6
330
1F
100
AcDbEntity
  8
WHITE
100
AcDbLine
 10
70.0865475363965
 20
-234.0183284972942
 30
0.0
 11
70.19719888024864
 21
-230.9180417704723
 31
0.0
  0
LINE
  5
2E7
330
1F
100
AcDbEntity
  8
WHITE
100
AcDbLine
 10
70.19719888024864
 20
-230.9180417704723
 30
0.0
 11
77.8239454009577
 21
-232.3995408576126
 31
0.0
  0
SPLINE
  5
2E8
330
1F
100
AcDbEntity
  8
WHITE
100
AcDbSpline
210
0.0
220
0.0
230
1.0
 70
    12
 71
     2
 72
     6
 73
     3
 74
     0
 42
0.0000000001
 43
0.0000000001
 40
920.2686191060026
 40
920.2686191060026
 40
920.2686191060026
 40
926.7441892624437
 40
926.7441892624437
 40
926.7441892624437
 10
77.8239454009577
 20
-232.3995408576126
 30
0.0
 41
1.0
 10
78.02601255190963
 20
-225.758521770774
 30
0.0
 41
0.9978451924797523
 10
77.35675289098747
 20
-219.1482224468771
 30
0.0
 41
1.0
  0
SPLINE
  5
2E9
330
1F
100
AcDbEntity
  8
WHITE
100
AcDbSpline
210
0.0
220
0.0
230
1.0
 70
    12
 71
     2
 72
     8
 73
     5
 74
     0
 42
0.0000000001
 43
0.0000000001
 40
926.7441892624437
 40
926.7441892624437
 40
926.7441892624437
 40
929.6516081380796
 40
929.6516081380796
 40
932.5590270137154
 40
932.5590270137154
 40
932.5590270137154
 10
77.35675289098747
 20
-219.1482224468771
 30
0.0
 41
1.0
 10
77.35675268846467
 20
-216.0004555837282
 30
0.0
 41
0.9213910732718039
 10
79.6110975090087
 20
-213.8035564839003
 30
0.0
 41
1.0
 10
81.86544232955285
 20
-211.6066573840725
 30
0.0
 41
0.9213910732718039
 10
85.01216082176964
 20
-211.6878913392822
 30
0.0
 41
1.0
  0
SPLINE
  5
2EA
330
1F
100
AcDbEntity
  8
WHITE
100
AcDbSpline
210
0.0
220
0.0
230
1.0
 70
    12
 71
     2
 72
     6
 73
     3
 74
     0
 42
0.0000000001
 43
0.0000000001
 40
932.5590270137154
 40
932.5590270137154
 40
932.5590270137154
 40
939.3318059811495
 40
939.3318059811495
 40
939.3318059811495
 10
85.01216082176964
 20
-211.6878913392822
 30
0.0
 41
1.0
 10
92.09206411685997
 20
-212.1906296503766
 30
0.0
 41
0.9648997145303939
 10
98.45017462545434
 20
-209.0359177399519
 30
0.0
 41
1.0
  0
SPLINE
  5
2EB
330
1F
100
AcDbEntity
  8
WHITE
100
AcDbSpline
210
0.0
220
0.0
230
1.0
 70
    12
 71
     2
 72
     6
 73
     3
 74
     0
 42
0.0000000001
 43
0.0000000001
 40
939.3318059811495
 40
939.3318059811495
 40
939.3318059811495
 40
940.3364180039076
 40
940.3364180039076
 40
940.3364180039076
 10
98.45017462545434
 20
-209.0359177399519
 30
0.0
 41
1.0
 10
99.55243640191108
 20
-208.489007089391
 30
0.0
 41
0.771836879890302
 10
99.22668765489298
 20
-207.3024237432451
 30
0.0
 41
1.0
  0
LINE
  5
2EC
330
1F
100
AcDbEntity
  8
WHITE
100
AcDbLine
 10
99.22668765489298
 20
-207.3024237432451
 30
0.0
 11
95.52201292968199
 21
-192.3949813182232
 31
0.0
  0
LINE
  5
2ED
330
1F
100
AcDbEntity
  8
WHITE
100
AcDbLine
 10
95.52201292968199
 20
-192.3949813182232
 30
0.0
 11
98.48501002616881
 21
-191.6552565935816
 31
0.0
  0
LINE
  5
2EE
330
1F
100
AcDbEntity
  8
WHITE
100
AcDbLine
 10
98.48501002616881
 20
-191.6552565935816
 30
0.0
 11
102.2451063521865
 21
-206.6362191580889
 31
0.0
  0
SPLINE
  5
2EF
330
1F
100
AcDbEntity
  8
WHITE
100
AcDbSpline
210
0.0
220
0.0
230
1.0
 70
    12
 71
     2
 72
     8
 73
     5
 74
     0
 42
0.0000000001
 43
0.0000000001
 40
956.8609719165021
 40
956.8609719165021
 40
956.8609719165021
 40
957.2574763085267
 40
957.2574763085267
 40
957.6539807005515
 40
957.6539807005515
 40
957.6539807005515
 10
102.2451063521865
 20
-206.6362191580889
 30
0.0
 41
1.0
 10
102.3496221304086
 20
-207.0525562103111
 30
0.0
 41
0.9214757772885251
 10
102.7206412716968
 20
-207.2684378578595
 30
0.0
 41
1.0
 10
103.091660412985
 20
-207.4843195054079
 30
0.0
 41
0.9214757772885251
 10
103.5052618954701
 20
-207.3694547909103
 30
0.0
 41
1.0
  0
SPLINE
  5
2F0
330
1F
100
AcDbEntity
  8
WHITE
100
AcDbSpline
210
0.0
220
0.0
230
1.0
 70
    24
 71
     2
 72
     6
 73
     3
 74
     0
 42
0.0000000001
 43
0.0000000001
 40
957.6539807005515
 40
957.6539807005515
 40
957.6539807005515
 40
958.235082629897
 40
958.235082629897
 40
958.235082629897
 10
103.5052618954701
 20
-207.3694547909103
 30
0.0
 10
104.0815120829107
 20
-207.0877806393719
 30
0.0
 10
104.6577622703513
 20
-206.8061064878336
 30
0.0
  0
SPLINE
  5
2F1
330
1F
100
AcDbEntity
  8
WHITE
100
AcDbSpline
210
0.0
220
0.0
230
1.0
 70
    24
 71
     2
 72
     6
 73
     3
 74
     0
 42
0.0000000001
 43
0.0000000001
 40
0.0
 40
0.0
 40
0.0
 40
0.5521010047603203
 40
0.5521010047603203
 40
0.5521010047603203
 10
104.6577622703513
 20
-206.8061064878336
 30
0.0
 10
107.1380482361959
 20
-205.5782974762141
 30
0.0
 10
109.6183342020405
 20
-204.3504884645946
 30
0.0
  0
VIEWPORT
  5
2F6
330
2F2
100
AcDbEntity
 67
     1
  8
0
100
AcDbViewport
 10
6.0
 20
4.5
 30
0.0
 40
12.696
 41
9.522
 68
     1
 69
     1
 12
6.0
 22
4.5
 13
0.0
 23
0.0
 14
0.5
 24
0.5
 15
0.5
 25
0.5
 16
0.0
 26
0.0
 36
1.0
 17
0.0
 27
0.0
 37
0.0
 42
50.0
 43
0.0
 44
0.0
 45
9.522
 50
0.0
 51
0.0
 72
   100
 90
   557152
  1

281
     0
 71
     1
 74
     0
110
0.0
120
0.0
130
0.0
111
1.0
121
0.0
131
0.0
112
0.0
122
1.0
132
0.0
 79
     0
146
0.0
170
     0
  0
ENDSEC
  0
SECTION
  2
OBJECTS
  0
DICTIONARY
  5
C
330
0
100
AcDbDictionary
281
     1
  3
ACAD_GROUP
350
D
  3
ACAD_LAYOUT
350
1A
  3
ACAD_MLEADERSTYLE
350
2FA
  3
ACAD_MLINESTYLE
350
17
  3
ACAD_PLOTSETTINGS
350
19
  3
ACAD_PLOTSTYLENAME
350
E
  3
ACAD_SCALELIST
350
3D
  3
ACAD_TABLESTYLE
350
2F9
  3
ACAD_VISUALSTYLE
350
2A
  3
AcDbVariableDictionary
350
2F7
  0
DICTIONARY
  5
D
102
{ACAD_REACTORS
330
C
102
}
330
C
100
AcDbDictionary
281
     1
  0
DICTIONARY
  5
1A
102
{ACAD_REACTORS
330
C
102
}
330
C
100
AcDbDictionary
281
     1
  3
LAYOUT1
350
2F3
  3
Model
350
22
  0
DICTIONARY
  5
2FA
102
{ACAD_REACTORS
330
C
102
}
330
C
100
AcDbDictionary
281
     1
  0
DICTIONARY
  5
17
102
{ACAD_REACTORS
330
C
102
}
330
C
100
AcDbDictionary
281
     1
  3
Standard
350
18
  0
DICTIONARY
  5
19
102
{ACAD_REACTORS
330
C
102
}
330
C
100
AcDbDictionary
281
     1
  0
ACDBDICTIONARYWDFLT
  5
E
102
{ACAD_REACTORS
330
C
102
}
330
C
100
AcDbDictionary
281
     1
  3
Normal
350
F
100
AcDbDictionaryWithDefault
340
F
  0
DICTIONARY
  5
3D
102
{ACAD_REACTORS
330
C
102
}
330
C
100
AcDbDictionary
281
     1
  3
A0
350
3E
  3
A1
350
3F
  3
A2
350
40
  3
A3
350
41
  3
A4
350
42
  3
A5
350
43
  3
A6
350
44
  3
A7
350
45
  3
A8
350
46
  3
A9
350
47
  3
B0
350
48
  3
B1
350
49
  3
B2
350
4A
  3
B3
350
4B
  3
B4
350
4C
  3
B5
350
4D
  3
B6
350
4E
  3
B7
350
4F
  3
B8
350
50
  3
B9
350
51
  3
C0
350
52
  3
C1
350
53
  3
C2
350
54
  3
C3
350
55
  3
C4
350
56
  3
C5
350
57
  3
C6
350
58
  3
C7
350
59
  3
C8
350
5A
  3
C9
350
5B
  3
D0
350
5C
  3
D1
350
5D
  3
D2
350
5E
  0
DICTIONARY
  5
2F9
102
{ACAD_REACTORS
330
C
102
}
330
C
100
AcDbDictionary
281
     1
  0
DICTIONARY
  5
2A
102
{ACAD_REACTORS
330
C
102
}
330
C
100
AcDbDictionary
281
     1
  3
2dWireframe
350
2F
  3
3D Hidden
350
31
  3
3dWireframe
350
30
  3
Basic
350
32
  3
Brighten
350
36
  3
ColorChange
350
3A
  3
Conceptual
350
34
  3
Dim
350
35
  3
Facepattern
350
39
  3
Flat
350
2B
  3
FlatWithEdges
350
2C
  3
Gouraud
350
2D
  3
GouraudWithEdges
350
2E
  3
Linepattern
350
38
  3
Realistic
350
33
  3
Thicken
350
37
  0
DICTIONARY
  5
2F7
102
{ACAD_REACTORS
330
C
102
}
330
C
100
AcDbDictionary
281
     1
  3
CANNOSCALE
350
2F8
  0
LAYOUT
  5
2F3
102
{ACAD_REACTORS
330
1A
102
}
330
1A
100
AcDbPlotSettings
  1

  2
none_device
  4
Letter_(8.50_x_11.00_Inches)
  6

 40
6.35
 41
6.35
 42
6.35000508
 43
6.35000508
 44
215.9
 45
279.4
 46
0.0
 47
0.0
 48
0.0
 49
0.0
140
0.0
141
0.0
142
1.0
143
1.0
 70
   688
 72
     0
 73
     1
 74
     5
  7

 75
    16
 76
     0
 77
     2
 78
   300
147
1.0
148
0.0
149
0.0
100
AcDbLayout
  1
LAYOUT1
 70
     1
 71
     1
 10
0.0
 20
0.0
 11
0.0
 21
0.0
 12
0.0
 22
0.0
 32
0.0
 14
0.0
 24
0.0
 34
0.0
 15
0.0
 25
0.0
 35
0.0
146
0.0
 13
0.0
 23
0.0
 33
0.0
 16
1.0
 26
0.0
 36
0.0
 17
0.0
 27
1.0
 37
0.0
 76
     0
330
2F2
331
2F6
  0
LAYOUT
  5
22
102
{ACAD_REACTORS
330
1A
102
}
330
1A
100
AcDbPlotSettings
  1

  2
none_device
  4

  6

 40
0.0
 41
0.0
 42
0.0
 43
0.0
 44
0.0
 45
0.0
 46
0.0
 47
0.0
 48
0.0
 49
0.0
140
0.0
141
0.0
142
1.0
143
1.0
 70
  1712
 72
     0
 73
     0
 74
     0
  7

 75
     0
 76
     0
 77
     2
 78
   300
147
1.0
148
0.0
149
0.0
100
AcDbLayout
  1
Model
 70
     1
 71
     0
 10
0.0
 20
0.0
 11
12.0
 21
9.0
 12
0.0
 22
0.0
 32
0.0
 14
-110.3838333281044
 24
-323.5493096491219
 34
0.0
 15
165.6274821768798
 25
444.4338886496344
 35
0.0
146
0.0
 13
0.0
 23
0.0
 33
0.0
 16
1.0
 26
0.0
 36
0.0
 17
0.0
 27
1.0
 37
0.0
 76
     0
330
1F
331
29
  0
MLINESTYLE
  5
18
102
{ACAD_REACTORS
330
17
102
}
330
17
100
AcDbMlineStyle
  2
Standard
 70
     0
  3

 62
   256
 51
90.0
 52
90.0
 71
     2
 49
0.5
 62
   256
  6
BYLAYER
 49
-0.5
 62
   256
  6
BYLAYER
  0
ACDBPLACEHOLDER
  5
F
102
{ACAD_REACTORS
330
E
102
}
330
E
  0
SCALE
  5
3E
102
{ACAD_REACTORS
330
3D
102
}
330
3D
100
AcDbScale
 70
     0
300
1:1
140
1.0
141
1.0
290
     1
  0
SCALE
  5
3F
102
{ACAD_REACTORS
330
3D
102
}
330
3D
100
AcDbScale
 70
     0
300
1:2
140
1.0
141
2.0
290
     0
  0
SCALE
  5
40
102
{ACAD_REACTORS
330
3D
102
}
330
3D
100
AcDbScale
 70
     0
300
1:4
140
1.0
141
4.0
290
     0
  0
SCALE
  5
41
102
{ACAD_REACTORS
330
3D
102
}
330
3D
100
AcDbScale
 70
     0
300
1:5
140
1.0
141
5.0
290
     0
  0
SCALE
  5
42
102
{ACAD_REACTORS
330
3D
102
}
330
3D
100
AcDbScale
 70
     0
300
1:8
140
1.0
141
8.0
290
     0
  0
SCALE
  5
43
102
{ACAD_REACTORS
330
3D
102
}
330
3D
100
AcDbScale
 70
     0
300
1:10
140
1.0
141
10.0
290
     0
  0
SCALE
  5
44
102
{ACAD_REACTORS
330
3D
102
}
330
3D
100
AcDbScale
 70
     0
300
1:16
140
1.0
141
16.0
290
     0
  0
SCALE
  5
45
102
{ACAD_REACTORS
330
3D
102
}
330
3D
100
AcDbScale
 70
     0
300
1:20
140
1.0
141
20.0
290
     0
  0
SCALE
  5
46
102
{ACAD_REACTORS
330
3D
102
}
330
3D
100
AcDbScale
 70
     0
300
1:30
140
1.0
141
30.0
290
     0
  0
SCALE
  5
47
102
{ACAD_REACTORS
330
3D
102
}
330
3D
100
AcDbScale
 70
     0
300
1:40
140
1.0
141
40.0
290
     0
  0
SCALE
  5
48
102
{ACAD_REACTORS
330
3D
102
}
330
3D
100
AcDbScale
 70
     0
300
1:50
140
1.0
141
50.0
290
     0
  0
SCALE
  5
49
102
{ACAD_REACTORS
330
3D
102
}
330
3D
100
AcDbScale
 70
     0
300
1:100
140
1.0
141
100.0
290
     0
  0
SCALE
  5
4A
102
{ACAD_REACTORS
330
3D
102
}
330
3D
100
AcDbScale
 70
     0
300
2:1
140
2.0
141
1.0
290
     0
  0
SCALE
  5
4B
102
{ACAD_REACTORS
330
3D
102
}
330
3D
100
AcDbScale
 70
     0
300
4:1
140
4.0
141
1.0
290
     0
  0
SCALE
  5
4C
102
{ACAD_REACTORS
330
3D
102
}
330
3D
100
AcDbScale
 70
     0
300
8:1
140
8.0
141
1.0
290
     0
  0
SCALE
  5
4D
102
{ACAD_REACTORS
330
3D
102
}
330
3D
100
AcDbScale
 70
     0
300
10:1
140
10.0
141
1.0
290
     0
  0
SCALE
  5
4E
102
{ACAD_REACTORS
330
3D
102
}
330
3D
100
AcDbScale
 70
     0
300
100:1
140
100.0
141
1.0
290
     0
  0
SCALE
  5
4F
102
{ACAD_REACTORS
330
3D
102
}
330
3D
100
AcDbScale
 70
     0
300
1/128" = 1'-0"
140
0.0078125
141
12.0
290
     0
  0
SCALE
  5
50
102
{ACAD_REACTORS
330
3D
102
}
330
3D
100
AcDbScale
 70
     0
300
1/64" = 1'-0"
140
0.015625
141
12.0
290
     0
  0
SCALE
  5
51
102
{ACAD_REACTORS
330
3D
102
}
330
3D
100
AcDbScale
 70
     0
300
1/32" = 1'-0"
140
0.03125
141
12.0
290
     0
  0
SCALE
  5
52
102
{ACAD_REACTORS
330
3D
102
}
330
3D
100
AcDbScale
 70
     0
300
1/16" = 1'-0"
140
0.0625
141
12.0
290
     0
  0
SCALE
  5
53
102
{ACAD_REACTORS
330
3D
102
}
330
3D
100
AcDbScale
 70
     0
300
3/32" = 1'-0"
140
0.09375
141
12.0
290
     0
  0
SCALE
  5
54
102
{ACAD_REACTORS
330
3D
102
}
330
3D
100
AcDbScale
 70
     0
300
1/8" = 1'-0"
140
0.125
141
12.0
290
     0
  0
SCALE
  5
55
102
{ACAD_REACTORS
330
3D
102
}
330
3D
100
AcDbScale
 70
     0
300
3/16" = 1'-0"
140
0.1875
141
12.0
290
     0
  0
SCALE
  5
56
102
{ACAD_REACTORS
330
3D
102
}
330
3D
100
AcDbScale
 70
     0
300
1/4" = 1'-0"
140
0.25
141
12.0
290
     0
  0
SCALE
  5
57
102
{ACAD_REACTORS
330
3D
102
}
330
3D
100
AcDbScale
 70
     0
300
3/8" = 1'-0"
140
0.375
141
12.0
290
     0
  0
SCALE
  5
58
102
{ACAD_REACTORS
330
3D
102
}
330
3D
100
AcDbScale
 70
     0
300
1/2" = 1'-0"
140
0.5
141
12.0
290
     0
  0
SCALE
  5
59
102
{ACAD_REACTORS
330
3D
102
}
330
3D
100
AcDbScale
 70
     0
300
3/4" = 1'-0"
140
0.75
141
12.0
290
     0
  0
SCALE
  5
5A
102
{ACAD_REACTORS
330
3D
102
}
330
3D
100
AcDbScale
 70
     0
300
1" = 1'-0"
140
1.0
141
12.0
290
     0
  0
SCALE
  5
5B
102
{ACAD_REACTORS
330
3D
102
}
330
3D
100
AcDbScale
 70
     0
300
1-1/2" = 1'-0"
140
1.5
141
12.0
290
     0
  0
SCALE
  5
5C
102
{ACAD_REACTORS
330
3D
102
}
330
3D
100
AcDbScale
 70
     0
300
3" = 1'-0"
140
3.0
141
12.0
290
     0
  0
SCALE
  5
5D
102
{ACAD_REACTORS
330
3D
102
}
330
3D
100
AcDbScale
 70
     0
300
6" = 1'-0"
140
6.0
141
12.0
290
     0
  0
SCALE
  5
5E
102
{ACAD_REACTORS
330
3D
102
}
330
3D
100
AcDbScale
 70
     0
300
1'-0" = 1'-0"
140
12.0
141
12.0
290
     0
  0
VISUALSTYLE
  5
2F
102
{ACAD_REACTORS
330
2A
102
}
330
2A
100
AcDbVisualStyle
  2
2dWireframe
 70
     4
 71
     0
 72
     2
 73
     0
 90
        0
 40
-0.6
 41
-30.0
 62
     5
 63
     7
421
 16777215
 74
     1
 91
        4
 64
     7
 65
   257
 75
     1
175
     1
 42
1.0
 92
        0
 66
   257
 43
1.0
 76
     1
 77
     6
 78
     2
 67
     7
 79
     5
170
     0
171
     0
290
     0
174
     0
 93
        1
 44
0.0
173
     0
291
     0
 45
0.0
1001
ACAD
1000
AcDbSavedByObjectVersion
1070
     0
  0
VISUALSTYLE
  5
31
102
{ACAD_REACTORS
330
2A
102
}
330
2A
100
AcDbVisualStyle
  2
3D Hidden
 70
     6
 71
     1
 72
     2
 73
     2
 90
        0
 40
-0.6
 41
-30.0
 62
     5
 63
     7
421
 16777215
 74
     2
 91
        2
 64
     7
 65
   257
 75
     2
175
     1
 42
40.0
 92
        0
 66
   257
 43
1.0
 76
     1
 77
     6
 78
     2
 67
     7
 79
     3
170
     0
171
     0
290
     0
174
     0
 93
        1
 44
0.0
173
     0
291
     0
 45
0.0
1001
ACAD
1000
AcDbSavedByObjectVersion
1070
     0
  0
VISUALSTYLE
  5
30
102
{ACAD_REACTORS
330
2A
102
}
330
2A
100
AcDbVisualStyle
  2
3dWireframe
 70
     5
 71
     0
 72
     2
 73
     0
 90
        0
 40
-0.6
 41
-30.0
 62
     5
 63
     7
421
 16777215
 74
     1
 91
        4
 64
     7
 65
   257
 75
     1
175
     1
 42
1.0
 92
        0
 66
   257
 43
1.0
 76
     1
 77
     6
 78
     2
 67
     7
 79
     5
170
     0
171
     0
290
     0
174
     0
 93
        1
 44
0.0
173
     0
291
     0
 45
0.0
1001
ACAD
1000
AcDbSavedByObjectVersion
1070
     0
  0
VISUALSTYLE
  5
32
102
{ACAD_REACTORS
330
2A
102
}
330
2A
100
AcDbVisualStyle
  2
Basic
 70
     7
 71
     1
 72
     0
 73
     1
 90
        0
 40
-0.6
 41
-30.0
 62
     5
 63
     7
421
 16777215
 74
     0
 91
        4
 64
     7
 65
   257
 75
     1
175
     1
 42
1.0
 92
        8
 66
     7
 43
1.0
 76
     1
 77
     6
 78
     2
 67
     7
 79
     5
170
     0
171
     0
290
     0
174
     0
 93
        1
 44
0.0
173
     0
291
     1
 45
0.0
1001
ACAD
1000
AcDbSavedByObjectVersion
1070
     0
  0
VISUALSTYLE
  5
36
102
{ACAD_REACTORS
330
2A
102
}
330
2A
100
AcDbVisualStyle
  2
Brighten
 70
    12
 71
     2
 72
     2
 73
     0
 90
        0
 40
-0.6
 41
-30.0
 62
     5
 63
     7
421
 16777215
 74
     1
 91
        4
 64
     7
 65
   257
 75
     1
175
     1
 42
1.0
 92
        8
 66
     7
 43
1.0
 76
     1
 77
     6
 78
     2
 67
     7
 79
     5
170
     0
171
     0
290
     0
174
     0
 93
        1
 44
50.0
173
     0
291
     1
 45
0.0
1001
ACAD
1000
AcDbSavedByObjectVersion
1070
     0
  0
VISUALSTYLE
  5
3A
102
{ACAD_REACTORS
330
2A
102
}
330
2A
100
AcDbVisualStyle
  2
ColorChange
 70
    16
 71
     2
 72
     2
 73
     3
 90
        0
 40
-0.6
 41
-30.0
 62
     5
 63
     8
421
  8421504
 74
     1
 91
        4
 64
     7
 65
   257
 75
     1
175
     1
 42
1.0
 92
        8
 66
     8
424
  8421504
 43
1.0
 76
     1
 77
     6
 78
     2
 67
     7
 79
     5
170
     0
171
     0
290
     0
174
     0
 93
        1
 44
0.0
173
     0
291
     1
 45
0.0
1001
ACAD
1000
AcDbSavedByObjectVersion
1070
     0
  0
VISUALSTYLE
  5
34
102
{ACAD_REACTORS
330
2A
102
}
330
2A
100
AcDbVisualStyle
  2
Conceptual
 70
     9
 71
     3
 72
     2
 73
     0
 90
        0
 40
-0.6
 41
-30.0
 62
     5
 63
     7
421
 16777215
 74
     2
 91
        2
 64
     7
 65
   257
 75
     1
175
     1
 42
40.0
 92
        8
 66
     7
 43
1.0
 76
     1
 77
     6
 78
     2
 67
     7
 79
     3
170
     0
171
     0
290
     0
174
     0
 93
        1
 44
0.0
173
     0
291
     0
 45
0.0
1001
ACAD
1000
AcDbSavedByObjectVersion
1070
     0
  0
VISUALSTYLE
  5
35
102
{ACAD_REACTORS
330
2A
102
}
330
2A
100
AcDbVisualStyle
  2
Dim
 70
    11
 71
     2
 72
     2
 73
     0
 90
        0
 40
-0.6
 41
-30.0
 62
     5
 63
     7
421
 16777215
 74
     1
 91
        4
 64
     7
 65
   257
 75
     1
175
     1
 42
1.0
 92
        8
 66
     7
 43
1.0
 76
     1
 77
     6
 78
     2
 67
     7
 79
     5
170
     0
171
     0
290
     0
174
     0
 93
        1
 44
-50.0
173
     0
291
     1
 45
0.0
1001
ACAD
1000
AcDbSavedByObjectVersion
1070
     0
  0
VISUALSTYLE
  5
39
102
{ACAD_REACTORS
330
2A
102
}
330
2A
100
AcDbVisualStyle
  2
Facepattern
 70
    15
 71
     2
 72
     2
 73
     0
 90
        0
 40
-0.6
 41
-30.0
 62
     5
 63
     7
421
 16777215
 74
     1
 91
        4
 64
     7
 65
   257
 75
     1
175
     1
 42
1.0
 92
        8
 66
     7
 43
1.0
 76
     1
 77
     6
 78
     2
 67
     7
 79
     5
170
     0
171
     0
290
     0
174
     0
 93
        1
 44
0.0
173
     0
291
     1
 45
0.0
1001
ACAD
1000
AcDbSavedByObjectVersion
1070
     0
  0
VISUALSTYLE
  5
2B
102
{ACAD_REACTORS
330
2A
102
}
330
2A
100
AcDbVisualStyle
  2
Flat
 70
     0
 71
     2
 72
     1
 73
     1
 90
        2
 40
-0.6
 41
30.0
 62
     5
 63
     7
421
 16777215
 74
     0
 91
        4
 64
     7
 65
   257
 75
     1
175
     1
 42
1.0
 92
        8
 66
     7
 43
1.0
 76
     1
 77
     6
 78
     2
 67
     7
 79
     5
170
     0
171
     0
290
     0
174
     0
 93
       13
 44
0.0
173
     0
291
     1
 45
0.0
1001
ACAD
1000
AcDbSavedByObjectVersion
1070
     0
  0
VISUALSTYLE
  5
2C
102
{ACAD_REACTORS
330
2A
102
}
330
2A
100
AcDbVisualStyle
  2
FlatWithEdges
 70
     1
 71
     2
 72
     1
 73
     1
 90
        2
 40
-0.6
 41
30.0
 62
     5
 63
     7
421
 16777215
 74
     1
 91
        4
 64
     7
 65
   257
 75
     1
175
     1
 42
1.0
 92
        0
 66
   257
 43
1.0
 76
     1
 77
     6
 78
     2
 67
     7
 79
     5
170
     0
171
     0
290
     0
174
     0
 93
       13
 44
0.0
173
     0
291
     1
 45
0.0
1001
ACAD
1000
AcDbSavedByObjectVersion
1070
     0
  0
VISUALSTYLE
  5
2D
102
{ACAD_REACTORS
330
2A
102
}
330
2A
100
AcDbVisualStyle
  2
Gouraud
 70
     2
 71
     2
 72
     2
 73
     1
 90
        2
 40
-0.6
 41
30.0
 62
     5
 63
     7
421
 16777215
 74
     0
 91
        4
 64
     7
 65
   257
 75
     1
175
     1
 42
1.0
 92
        0
 66
     7
 43
1.0
 76
     1
 77
     6
 78
     2
 67
     7
 79
     5
170
     0
171
     0
290
     0
174
     0
 93
       13
 44
0.0
173
     0
291
     1
 45
0.0
1001
ACAD
1000
AcDbSavedByObjectVersion
1070
     0
  0
VISUALSTYLE
  5
2E
102
{ACAD_REACTORS
330
2A
102
}
330
2A
100
AcDbVisualStyle
  2
GouraudWithEdges
 70
     3
 71
     2
 72
     2
 73
     1
 90
        2
 40
-0.6
 41
30.0
 62
     5
 63
     7
421
 16777215
 74
     1
 91
        4
 64
     7
 65
   257
 75
     1
175
     1
 42
1.0
 92
        0
 66
   257
 43
1.0
 76
     1
 77
     6
 78
     2
 67
     7
 79
     5
170
     0
171
     0
290
     0
174
     0
 93
       13
 44
0.0
173
     0
291
     1
 45
0.0
1001
ACAD
1000
AcDbSavedByObjectVersion
1070
     0
  0
VISUALSTYLE
  5
38
102
{ACAD_REACTORS
330
2A
102
}
330
2A
100
AcDbVisualStyle
  2
Linepattern
 70
    14
 71
     2
 72
     2
 73
     0
 90
        0
 40
-0.6
 41
-30.0
 62
     5
 63
     7
421
 16777215
 74
     1
 91
        4
 64
     7
 65
   257
 75
     7
175
     7
 42
1.0
 92
        8
 66
     7
 43
1.0
 76
     1
 77
     6
 78
     2
 67
     7
 79
     5
170
     0
171
     0
290
     0
174
     0
 93
        1
 44
0.0
173
     0
291
     1
 45
0.0
1001
ACAD
1000
AcDbSavedByObjectVersion
1070
     0
  0
VISUALSTYLE
  5
33
102
{ACAD_REACTORS
330
2A
102
}
330
2A
100
AcDbVisualStyle
  2
Realistic
 70
     8
 71
     2
 72
     2
 73
     0
 90
        0
 40
-0.6
 41
-30.0
 62
     5
 63
     7
421
 16777215
 74
     1
 91
        0
 64
     7
 65
   257
 75
     1
175
     1
 42
1.0
 92
        8
 66
     8
424
  7895160
 43
1.0
 76
     1
 77
     6
 78
     2
 67
     7
 79
     5
170
     0
171
     0
290
     0
174
     0
 93
       13
 44
0.0
173
     0
291
     0
 45
0.0
1001
ACAD
1000
AcDbSavedByObjectVersion
1070
     0
  0
VISUALSTYLE
  5
37
102
{ACAD_REACTORS
330
2A
102
}
330
2A
100
AcDbVisualStyle
  2
Thicken
 70
    13
 71
     2
 72
     2
 73
     0
 90
        0
 40
-0.6
 41
-30.0
 62
     5
 63
     7
421
 16777215
 74
     1
 91
        4
 64
     7
 65
   257
 75
     1
175
     1
 42
1.0
 92
       12
 66
     7
 43
1.0
 76
     1
 77
     6
 78
     2
 67
     7
 79
     5
170
     0
171
     0
290
     0
174
     0
 93
        1
 44
0.0
173
     0
291
     1
 45
0.0
1001
ACAD
1000
AcDbSavedByObjectVersion
1070
     0
  0
DICTIONARYVAR
  5
2F8
102
{ACAD_REACTORS
330
2F7
102
}
330
2F7
100
DictionaryVariables
280
     0
  1
1:1
  0
ENDSEC
  0
EOF
